  0
SECTION
  2
HEADER
  9
$ACADVER
  1
AC1015
  9
$ACADMAINTVER
 70
    20
  9
$DWGCODEPAGE
  3
ANSI_936
  9
$INSBASE
 10
0.0
 20
0.0
 30
0.0
  9
$EXTMIN
 10
104280.1453535195
 20
-169153.4371883818
 30
-0.0000000349181948
  9
$EXTMAX
 10
104649.6595184757
 20
-168571.4387236807
 30
0.0000000814935747
  9
$LIMMIN
 10
0.0
 20
0.0
  9
$LIMMAX
 10
12.0
 20
9.0
  9
$ORTHOMODE
 70
     0
  9
$REGENMODE
 70
     1
  9
$FILLMODE
 70
     1
  9
$QTEXTMODE
 70
     0
  9
$MIRRTEXT
 70
     0
  9
$LTSCALE
 40
1.0
  9
$ATTMODE
 70
     1
  9
$TEXTSIZE
 40
0.2
  9
$TRACEWID
 40
0.05
  9
$TEXTSTYLE
  7
Standard
  9
$CLAYER
  8
标注
  9
$CELTYPE
  6
ByLayer
  9
$CECOLOR
 62
   256
  9
$CELTSCALE
 40
5.0
  9
$DISPSILH
 70
     0
  9
$DIMSCALE
 40
1.0
  9
$DIMASZ
 40
16.0
  9
$DIMEXO
 40
7.0
  9
$DIMDLI
 40
0.38
  9
$DIMRND
 40
0.0
  9
$DIMDLE
 40
0.0
  9
$DIMEXE
 40
7.0
  9
$DIMTP
 40
0.0
  9
$DIMTM
 40
0.0
  9
$DIMTXT
 40
20.0
  9
$DIMCEN
 40
2.5
  9
$DIMTSZ
 40
0.0
  9
$DIMTOL
 70
     0
  9
$DIMLIM
 70
     0
  9
$DIMTIH
 70
     0
  9
$DIMTOH
 70
     0
  9
$DIMSE1
 70
     0
  9
$DIMSE2
 70
     0
  9
$DIMTAD
 70
     0
  9
$DIMZIN
 70
     8
  9
$DIMBLK
  1

  9
$DIMASO
 70
     1
  9
$DIMSHO
 70
     1
  9
$DIMPOST
  1

  9
$DIMAPOST
  1
"
  9
$DIMALT
 70
     0
  9
$DIMALTD
 70
     3
  9
$DIMALTF
 40
0.03937
  9
$DIMLFAC
 40
1.0
  9
$DIMTOFL
 70
     1
  9
$DIMTVP
 40
0.0
  9
$DIMTIX
 70
     0
  9
$DIMSOXD
 70
     0
  9
$DIMSAH
 70
     0
  9
$DIMBLK1
  1

  9
$DIMBLK2
  1

  9
$DIMSTYLE
  2
副本Standard
  9
$DIMCLRD
 70
   256
  9
$DIMCLRE
 70
   256
  9
$DIMCLRT
 70
   256
  9
$DIMTFAC
 40
1.0
  9
$DIMGAP
 40
1.0
  9
$DIMJUST
 70
     0
  9
$DIMSD1
 70
     0
  9
$DIMSD2
 70
     0
  9
$DIMTOLJ
 70
     1
  9
$DIMTZIN
 70
     0
  9
$DIMALTZ
 70
     0
  9
$DIMALTTZ
 70
     0
  9
$DIMUPT
 70
     0
  9
$DIMDEC
 70
     1
  9
$DIMTDEC
 70
     1
  9
$DIMALTU
 70
     7
  9
$DIMALTTD
 70
     3
  9
$DIMTXSTY
  7
Standard
  9
$DIMAUNIT
 70
     0
  9
$DIMADEC
 70
     1
  9
$DIMALTRND
 40
0.0
  9
$DIMAZIN
 70
     2
  9
$DIMDSEP
 70
    44
  9
$DIMATFIT
 70
     3
  9
$DIMFRAC
 70
     0
  9
$DIMLDRBLK
  1

  9
$DIMLUNIT
 70
     2
  9
$DIMLWD
 70
    -2
  9
$DIMLWE
 70
    -2
  9
$DIMTMOVE
 70
     0
  9
$LUNITS
 70
     2
  9
$LUPREC
 70
     4
  9
$SKETCHINC
 40
0.1
  9
$FILLETRAD
 40
90.0
  9
$AUNITS
 70
     0
  9
$AUPREC
 70
     0
  9
$MENU
  1
.
  9
$ELEVATION
 40
0.0
  9
$PELEVATION
 40
0.0
  9
$THICKNESS
 40
0.0
  9
$LIMCHECK
 70
     0
  9
$CHAMFERA
 40
26.6
  9
$CHAMFERB
 40
26.6
  9
$CHAMFERC
 40
0.0
  9
$CHAMFERD
 40
0.0
  9
$SKPOLY
 70
     0
  9
$TDCREATE
 40
2454355.343801713
  9
$TDUCREATE
 40
2454355.010468380
  9
$TDUPDATE
 40
2457938.599428785
  9
$TDUUPDATE
 40
2457938.266095452
  9
$TDINDWG
 40
9.1696580440
  9
$TDUSRTIMER
 40
9.1696578588
  9
$USRTIMER
 70
     1
  9
$ANGBASE
 50
0.0
  9
$ANGDIR
 70
     0
  9
$PDMODE
 70
     0
  9
$PDSIZE
 40
0.0
  9
$PLINEWID
 40
0.0
  9
$SPLFRAME
 70
     0
  9
$SPLINETYPE
 70
     6
  9
$SPLINESEGS
 70
     8
  9
$HANDSEED
  5
DA3E6
  9
$SURFTAB1
 70
     6
  9
$SURFTAB2
 70
     6
  9
$SURFTYPE
 70
     6
  9
$SURFU
 70
     6
  9
$SURFV
 70
     6
  9
$UCSBASE
  2

  9
$UCSNAME
  2

  9
$UCSORG
 10
0.0
 20
0.0
 30
0.0
  9
$UCSXDIR
 10
1.0
 20
0.0
 30
0.0
  9
$UCSYDIR
 10
0.0
 20
1.0
 30
0.0
  9
$UCSORTHOREF
  2

  9
$UCSORTHOVIEW
 70
     0
  9
$UCSORGTOP
 10
0.0
 20
0.0
 30
0.0
  9
$UCSORGBOTTOM
 10
0.0
 20
0.0
 30
0.0
  9
$UCSORGLEFT
 10
0.0
 20
0.0
 30
0.0
  9
$UCSORGRIGHT
 10
0.0
 20
0.0
 30
0.0
  9
$UCSORGFRONT
 10
0.0
 20
0.0
 30
0.0
  9
$UCSORGBACK
 10
0.0
 20
0.0
 30
0.0
  9
$PUCSBASE
  2

  9
$PUCSNAME
  2

  9
$PUCSORG
 10
0.0
 20
0.0
 30
0.0
  9
$PUCSXDIR
 10
1.0
 20
0.0
 30
0.0
  9
$PUCSYDIR
 10
0.0
 20
1.0
 30
0.0
  9
$PUCSORTHOREF
  2

  9
$PUCSORTHOVIEW
 70
     0
  9
$PUCSORGTOP
 10
0.0
 20
0.0
 30
0.0
  9
$PUCSORGBOTTOM
 10
0.0
 20
0.0
 30
0.0
  9
$PUCSORGLEFT
 10
0.0
 20
0.0
 30
0.0
  9
$PUCSORGRIGHT
 10
0.0
 20
0.0
 30
0.0
  9
$PUCSORGFRONT
 10
0.0
 20
0.0
 30
0.0
  9
$PUCSORGBACK
 10
0.0
 20
0.0
 30
0.0
  9
$USERI1
 70
     0
  9
$USERI2
 70
     0
  9
$USERI3
 70
     0
  9
$USERI4
 70
     0
  9
$USERI5
 70
     0
  9
$USERR1
 40
0.0
  9
$USERR2
 40
0.0
  9
$USERR3
 40
0.0
  9
$USERR4
 40
0.0
  9
$USERR5
 40
2.5
  9
$WORLDVIEW
 70
     1
  9
$SHADEDGE
 70
     3
  9
$SHADEDIF
 70
    70
  9
$TILEMODE
 70
     1
  9
$MAXACTVP
 70
    64
  9
$PINSBASE
 10
0.0
 20
0.0
 30
0.0
  9
$PLIMCHECK
 70
     0
  9
$PEXTMIN
 10
0.0
 20
0.0
 30
0.0
  9
$PEXTMAX
 10
0.0
 20
0.0
 30
0.0
  9
$PLIMMIN
 10
0.0
 20
0.0
  9
$PLIMMAX
 10
12.0
 20
9.0
  9
$UNITMODE
 70
     0
  9
$VISRETAIN
 70
     1
  9
$PLINEGEN
 70
     0
  9
$PSLTSCALE
 70
     1
  9
$TREEDEPTH
 70
  3020
  9
$CMLSTYLE
  2
Standard
  9
$CMLJUST
 70
     0
  9
$CMLSCALE
 40
1.0
  9
$PROXYGRAPHICS
 70
     1
  9
$MEASUREMENT
 70
     0
  9
$CELWEIGHT
370
    -1
  9
$ENDCAPS
280
     0
  9
$JOINSTYLE
280
     0
  9
$LWDISPLAY
290
     0
  9
$INSUNITS
 70
     4
  9
$HYPERLINKBASE
  1

  9
$STYLESHEET
  1
MONOCHROME.CTB
  9
$XEDIT
290
     1
  9
$CEPSNTYPE
380
     0
  9
$PSTYLEMODE
290
     1
  9
$FINGERPRINTGUID
  2
{35BD88C0-9548-11D2-9A29-0060089B3A3F}
  9
$VERSIONGUID
  2
{C3559124-10E8-47AF-B0F8-5D9CCDD5C425}
  9
$EXTNAMES
290
     1
  9
$PSVPSCALE
 40
0.0
  9
$OLESTARTUP
290
     0
  0
ENDSEC
  0
SECTION
  2
CLASSES
  0
CLASS
  1
ACDBDICTIONARYWDFLT
  2
AcDbDictionaryWithDefault
  3
ObjectDBX Classes
 90
        0
280
     0
281
     0
  0
CLASS
  1
ACDBPLACEHOLDER
  2
AcDbPlaceHolder
  3
ObjectDBX Classes
 90
        0
280
     0
281
     0
  0
CLASS
  1
LAYOUT
  2
AcDbLayout
  3
ObjectDBX Classes
 90
        0
280
     0
281
     0
  0
CLASS
  1
DICTIONARYVAR
  2
AcDbDictionaryVar
  3
ObjectDBX Classes
 90
        0
280
     0
281
     0
  0
CLASS
  1
SORTENTSTABLE
  2
AcDbSortentsTable
  3
ObjectDBX Classes
 90
        0
280
     0
281
     0
  0
CLASS
  1
DIMASSOC
  2
AcDbDimAssoc
  3
"AcDbDimAssoc|Product Desc:     AcDim ARX App For Dimension|Company:          Autodesk, Inc.|WEB Address:      www.autodesk.com"
 90
        0
280
     0
281
     0
  0
CLASS
  1
TABLESTYLE
  2
AcDbTableStyle
  3
ObjectDBX Classes
 90
     4095
280
     0
281
     0
  0
CLASS
  1
VLO-VL
  2
vlo_VL
  3
VL|AutoLISP based application
 90
      129
280
     0
281
     0
  0
CLASS
  1
MATERIAL
  2
AcDbMaterial
  3
ObjectDBX Classes
 90
     1153
280
     0
281
     0
  0
CLASS
  1
VISUALSTYLE
  2
AcDbVisualStyle
  3
ObjectDBX Classes
 90
     4095
280
     0
281
     0
  0
CLASS
  1
SCALE
  2
AcDbScale
  3
ObjectDBX Classes
 90
     1153
280
     0
281
     0
  0
CLASS
  1
MLEADERSTYLE
  2
AcDbMLeaderStyle
  3
ACDB_MLEADERSTYLE_CLASS
 90
     4095
280
     0
281
     0
  0
CLASS
  1
CELLSTYLEMAP
  2
AcDbCellStyleMap
  3
ObjectDBX Classes
 90
     1152
280
     0
281
     0
  0
ENDSEC
  0
SECTION
  2
TABLES
  0
TABLE
  2
VPORT
  5
8
330
0
100
AcDbSymbolTable
 70
     1
  0
VPORT
  5
CED6D
330
8
100
AcDbSymbolTableRecord
100
AcDbViewportTableRecord
  2
*Active
 70
     0
 10
0.0
 20
0.0
 11
1.0
 21
1.0
 12
104464.9024359976
 22
-168862.4379560313
 13
0.0
 23
0.0
 14
0.5
 24
0.5
 15
0.5
 25
0.5
 16
0.0
 26
0.0
 36
1.0
 17
0.0
 27
0.0
 37
0.0
 40
586.298945967399
 41
2.241676942046855
 42
50.0
 43
0.0
 44
0.0
 50
0.0
 51
0.0
 71
     0
 72
  1000
 73
     1
 74
     3
 75
     0
 76
     0
 77
     0
 78
     0
281
     0
 65
     1
110
0.0
120
0.0
130
0.0
111
1.0
121
0.0
131
0.0
112
0.0
122
1.0
132
0.0
 79
     0
146
0.0
  0
ENDTAB
  0
TABLE
  2
LTYPE
  5
5
330
0
100
AcDbSymbolTable
 70
     3
  0
LTYPE
  5
14
330
5
100
AcDbSymbolTableRecord
100
AcDbLinetypeTableRecord
  2
ByBlock
 70
     0
  3

 72
    65
 73
     0
 40
0.0
  0
LTYPE
  5
15
330
5
100
AcDbSymbolTableRecord
100
AcDbLinetypeTableRecord
  2
ByLayer
 70
     0
  3

 72
    65
 73
     0
 40
0.0
  0
LTYPE
  5
16
330
5
100
AcDbSymbolTableRecord
100
AcDbLinetypeTableRecord
  2
Continuous
 70
     0
  3
Solid line
 72
    65
 73
     0
 40
0.0
  0
LTYPE
  5
98
330
5
100
AcDbSymbolTableRecord
100
AcDbLinetypeTableRecord
  2
HIDDEN2
 70
     0
  3
Hidden (.5x) _ _ _ _ _ _ _ _ _ _ _ _ _ _ _ _ _
 72
    65
 73
     2
 40
4.762499999999998
 49
3.174999999999998
 74
     0
 49
-1.587499999999999
 74
     0
  0
LTYPE
  5
D5D91
330
5
100
AcDbSymbolTableRecord
100
AcDbLinetypeTableRecord
  2
CENTER
 70
     0
  3
Center ____ _ ____ _ ____ _ ____ _ ____ _ ____
 72
    65
 73
     4
 40
50.8
 49
31.75
 74
     0
 49
-6.349999999999998
 74
     0
 49
6.349999999999998
 74
     0
 49
-6.349999999999998
 74
     0
  0
ENDTAB
  0
TABLE
  2
LAYER
  5
2
102
{ACAD_XDICTIONARY
360
AB
102
}
330
0
100
AcDbSymbolTable
 70
     7
  0
LAYER
  5
10
102
{ACAD_XDICTIONARY
360
CF251
102
}
330
2
100
AcDbSymbolTableRecord
100
AcDbLayerTableRecord
  2
0
 70
     0
 62
     7
  6
Continuous
370
    18
390
F
  0
LAYER
  5
9D
102
{ACAD_XDICTIONARY
360
CF259
102
}
330
2
100
AcDbSymbolTableRecord
100
AcDbLayerTableRecord
  2
虚线
 70
     0
 62
     4
  6
HIDDEN2
370
    18
390
F
  0
LAYER
  5
9E
102
{ACAD_XDICTIONARY
360
CF25B
102
}
330
2
100
AcDbSymbolTableRecord
100
AcDbLayerTableRecord
  2
细实线
 70
     0
 62
     7
  6
Continuous
370
     9
390
F
  0
LAYER
  5
582
330
2
100
AcDbSymbolTableRecord
100
AcDbLayerTableRecord
  2
Defpoints
 70
     0
 62
     7
  6
Continuous
290
     0
370
     9
390
F
  0
LAYER
  5
16DF9
102
{ACAD_XDICTIONARY
360
CF25D
102
}
330
2
100
AcDbSymbolTableRecord
100
AcDbLayerTableRecord
  2
标注
 70
     0
 62
    80
  6
Continuous
370
     5
390
F
1001
AcAecLayerStandard
1000

1000

  0
LAYER
  5
D5CE8
330
2
100
AcDbSymbolTableRecord
100
AcDbLayerTableRecord
  2
粗实线
 70
     0
 62
     7
  6
Continuous
370
    25
390
F
1001
AcAecLayerStandard
1000

1000

  0
LAYER
  5
D81F4
102
{ACAD_XDICTIONARY
360
D81F5
102
}
330
2
100
AcDbSymbolTableRecord
100
AcDbLayerTableRecord
  2
标注线
 70
     0
 62
     6
  6
Continuous
370
    -3
390
F
  0
ENDTAB
  0
TABLE
  2
STYLE
  5
3
330
0
100
AcDbSymbolTable
 70
     2
  0
STYLE
  5
11
330
3
100
AcDbSymbolTableRecord
100
AcDbTextStyleTableRecord
  2
Standard
 70
     0
 40
0.0
 41
1.0
 50
0.0
 71
     0
 42
0.2
  3
SimSun.ttf
  4

1001
ACAD
1000
SimSun
1071
    34306
  0
STYLE
  5
9D6ED
330
3
100
AcDbSymbolTableRecord
100
AcDbTextStyleTableRecord
  2
A301
 70
     0
 40
3.5
 41
0.75
 50
0.0
 71
     0
 42
0.0
  3
SimSun.ttf
  4

1001
ACAD
1000
SimSun
1071
    34306
  0
ENDTAB
  0
TABLE
  2
VIEW
  5
6
330
0
100
AcDbSymbolTable
 70
     0
  0
ENDTAB
  0
TABLE
  2
UCS
  5
7
330
0
100
AcDbSymbolTable
 70
     0
  0
ENDTAB
  0
TABLE
  2
APPID
  5
9
330
0
100
AcDbSymbolTable
 70
    19
  0
APPID
  5
12
330
9
100
AcDbSymbolTableRecord
100
AcDbRegAppTableRecord
  2
ACAD
 70
     0
  0
APPID
  5
A5
330
9
100
AcDbSymbolTableRecord
100
AcDbRegAppTableRecord
  2
AcAecLayerStandard
 70
     0
  0
APPID
  5
A6
330
9
100
AcDbSymbolTableRecord
100
AcDbRegAppTableRecord
  2
ACAD_DSTYLE_DIMEXT_LENGTH
 70
     0
  0
APPID
  5
A7
330
9
100
AcDbSymbolTableRecord
100
AcDbRegAppTableRecord
  2
ACAD_DSTYLE_DIMEXT_ENABLED
 70
     0
  0
APPID
  5
A8
330
9
100
AcDbSymbolTableRecord
100
AcDbRegAppTableRecord
  2
ACAD_DSTYLE_DIMJOGGED_JOGANGLE_SYMBOL
 70
     0
  0
APPID
  5
A9
330
9
100
AcDbSymbolTableRecord
100
AcDbRegAppTableRecord
  2
ACAD_DSTYLE_DIMARC_LENGTH_SYMBOL
 70
     0
  0
APPID
  5
AA
330
9
100
AcDbSymbolTableRecord
100
AcDbRegAppTableRecord
  2
ACAD_PSEXT
 70
     0
  0
APPID
  5
173
330
9
100
AcDbSymbolTableRecord
100
AcDbRegAppTableRecord
  2
DCO15
 70
     0
  0
APPID
  5
11D5
330
9
100
AcDbSymbolTableRecord
100
AcDbRegAppTableRecord
  2
ACAD_EXEMPT_FROM_CAD_STANDARDS
 70
     0
  0
APPID
  5
B456
330
9
100
AcDbSymbolTableRecord
100
AcDbRegAppTableRecord
  2
ACAD_DSTYLE_DIMTEXT_FILL
 70
     0
  0
APPID
  5
B459
330
9
100
AcDbSymbolTableRecord
100
AcDbRegAppTableRecord
  2
ACAD_DSTYLE_DIM_LINETYPE
 70
     0
  0
APPID
  5
B45A
330
9
100
AcDbSymbolTableRecord
100
AcDbRegAppTableRecord
  2
ACAD_DSTYLE_DIM_EXT1_LINETYPE
 70
     0
  0
APPID
  5
B45B
330
9
100
AcDbSymbolTableRecord
100
AcDbRegAppTableRecord
  2
ACAD_DSTYLE_DIM_EXT2_LINETYPE
 70
     0
  0
APPID
  5
CEDBC
330
9
100
AcDbSymbolTableRecord
100
AcDbRegAppTableRecord
  2
ACAD_MLEADERVER
 70
     0
  0
APPID
  5
CF35C
330
9
100
AcDbSymbolTableRecord
100
AcDbRegAppTableRecord
  2
ACAD_DSTYLE_DIMRADIAL_EXTENSION
 70
     0
  0
APPID
  5
CF43A
330
9
100
AcDbSymbolTableRecord
100
AcDbRegAppTableRecord
  2
ACAD_DSTYLE_DIMJAG
 70
     0
  0
APPID
  5
CF43B
330
9
100
AcDbSymbolTableRecord
100
AcDbRegAppTableRecord
  2
ACAD_DSTYLE_DIMTALN
 70
     0
  0
APPID
  5
D5B36
330
9
100
AcDbSymbolTableRecord
100
AcDbRegAppTableRecord
  2
AcDbBlockRepETag
 70
     0
  0
APPID
  5
D6F8C
330
9
100
AcDbSymbolTableRecord
100
AcDbRegAppTableRecord
  2
ACAD_DSTYLE_DIMBREAK
 70
     0
  0
ENDTAB
  0
TABLE
  2
DIMSTYLE
  5
A
330
0
100
AcDbSymbolTable
 70
    13
100
AcDbDimStyleTable
 71
     2
340
3BDB5
340
27
  0
DIMSTYLE
105
27
330
A
100
AcDbSymbolTableRecord
100
AcDbDimStyleTableRecord
  2
Standard
 70
     0
 41
20.0
 42
25.0
 44
8.0
 73
     0
 74
     0
 78
     8
 79
     2
140
20.0
147
5.0
172
     1
176
     3
177
     3
178
     3
179
     1
271
     1
272
     1
278
    44
340
11
1001
ACAD_DSTYLE_DIMJOGGED_JOGANGLE_SYMBOL
1070
   384
1040
0.7853981633974483
1001
ACAD_DSTYLE_DIMEXT_LENGTH
1070
   378
1040
8.0
  0
DIMSTYLE
105
3BDB5
102
{ACAD_REACTORS
330
DA1FA
330
DA214
330
DA22E
330
DA23B
330
DA255
330
DA26F
330
DA2AC
330
DA2C2
330
DA2DE
330
DA2F8
330
DA330
330
DA34C
330
DA368
102
}
330
A
100
AcDbSymbolTableRecord
100
AcDbDimStyleTableRecord
  2
副本Standard
 70
     0
  4
"
 41
16.0
 42
7.0
 44
7.0
 73
     0
 74
     0
 78
     8
 79
     2
140
20.0
141
2.5
143
0.03937
147
1.0
171
     3
172
     1
176
   256
177
   256
178
   256
179
     1
271
     1
272
     1
273
     7
274
     3
278
    44
340
11
1001
ACAD_DSTYLE_DIMJAG
1070
   388
1040
1.5
1001
ACAD_DSTYLE_DIMTALN
1070
   392
1070
     0
  0
DIMSTYLE
105
D5B35
330
A
100
AcDbSymbolTableRecord
100
AcDbDimStyleTableRecord
  2
ISO-25
 70
     0
 41
2.5
 42
0.625
 43
3.75
 44
1.25
 73
     0
 74
     0
 77
     1
 78
     8
140
2.5
141
2.5
143
0.03937007874016
147
0.625
171
     3
172
     1
271
     0
272
     0
274
     3
283
     0
284
     8
340
11
1001
ACAD_DSTYLE_DIMJAG
1070
   388
1040
1.5
1001
ACAD_DSTYLE_DIMTALN
1070
   392
1070
     0
1001
ACAD_DSTYLE_DIMJOGGED_JOGANGLE_SYMBOL
1070
   384
1040
1.570796326794896
  0
DIMSTYLE
105
D6346
330
A
100
AcDbSymbolTableRecord
100
AcDbDimStyleTableRecord
  2
XIAO
 70
     0
 41
2.0
 42
1.5
 43
1.0
 44
0.5
 73
     0
 74
     0
 77
     1
 78
     8
140
2.0
141
1.0
143
0.03937007874016
147
0.8
171
     3
172
     1
179
     1
271
     1
272
     1
274
     3
278
    44
283
     0
284
     8
340
11
  0
DIMSTYLE
105
D6347
330
A
100
AcDbSymbolTableRecord
100
AcDbDimStyleTableRecord
  2
副本 (3)Standard
 70
     0
  4
"
 41
16.0
 42
22.0
 44
8.0
 73
     0
 74
     0
 78
     8
 79
     2
140
16.0
141
0.0
143
0.03937
147
5.0
171
     3
172
     1
175
     1
176
     3
177
     3
178
     3
179
     1
271
     1
272
     1
273
     7
274
     3
278
    44
289
     1
340
11
344
D62FB
  0
DIMSTYLE
105
D6348
330
A
100
AcDbSymbolTableRecord
100
AcDbDimStyleTableRecord
  2
100721
 70
     0
  4
"
 41
12.0
 42
18.0
 44
7.0
 73
     0
 74
     0
 78
     8
 79
     2
140
12.0
143
0.03937
147
5.0
171
     1
172
     1
176
   256
177
   256
178
   256
179
     1
271
     1
272
     1
274
     1
278
    44
340
11
  0
DIMSTYLE
105
D6F8A
330
A
100
AcDbSymbolTableRecord
100
AcDbDimStyleTableRecord
  2
副本Standard(2)
 70
     0
  3
mm
  4
"
 41
16.0
 42
22.0
 44
8.0
 73
     0
 74
     0
 78
     8
 79
     2
140
16.0
143
0.03937
147
5.0
170
     1
171
     3
172
     1
176
   256
177
   256
178
   256
179
     1
271
     1
272
     1
273
     7
274
     3
278
    44
340
11
1001
ACAD_DSTYLE_DIMBREAK
1070
   391
1040
0.125
1001
ACAD_DSTYLE_DIMJAG
1070
   388
1040
1.5
1001
ACAD_DSTYLE_DIMTALN
1070
   392
1070
     0
  0
DIMSTYLE
105
D6F8B
330
A
100
AcDbSymbolTableRecord
100
AcDbDimStyleTableRecord
  2
带公差标注
 70
     0
  4
"
 41
16.0
 42
22.0
 44
8.0
 47
2.0
 48
2.0
 71
     1
 73
     0
 74
     0
 78
     8
 79
     2
140
16.0
143
0.03937
147
5.0
171
     3
172
     1
176
   256
177
   256
178
   256
179
     1
271
     1
272
     0
273
     7
274
     3
278
    44
340
11
1001
ACAD_DSTYLE_DIMBREAK
1070
   391
1040
0.125
1001
ACAD_DSTYLE_DIMJAG
1070
   388
1040
1.5
1001
ACAD_DSTYLE_DIMTALN
1070
   392
1070
     0
1001
ACAD_DSTYLE_DIMARC_LENGTH_SYMBOL
1070
   379
1070
     1
1001
ACAD_DSTYLE_DIMEXT_ENABLED
1070
   383
1070
     1
1001
ACAD_DSTYLE_DIMEXT_LENGTH
1070
   378
1040
35.0
1001
ACAD_DSTYLE_DIMJOGGED_JOGANGLE_SYMBOL
1070
   384
1040
1.570796326794896
1001
ACAD_DSTYLE_DIM_LINETYPE
1070
   380
1005
14
1001
ACAD_DSTYLE_DIM_EXT1_LINETYPE
1070
   381
1005
14
1001
ACAD_DSTYLE_DIM_EXT2_LINETYPE
1070
   382
1005
14
  0
DIMSTYLE
105
D77B9
330
A
100
AcDbSymbolTableRecord
100
AcDbDimStyleTableRecord
  2
副本ISO-25
 70
     0
 41
15.0
 42
0.625
 43
3.75
 44
1.25
 73
     0
 77
     1
 78
     8
140
15.0
141
2.5
143
0.03937007874016
147
0.625
171
     1
172
     1
176
     6
177
     6
271
     2
272
     2
274
     1
278
    44
283
     0
284
     8
340
11
371
    15
372
    15
  0
DIMSTYLE
105
D81F6
330
A
100
AcDbSymbolTableRecord
100
AcDbDimStyleTableRecord
  2
英寸
 70
     0
  3
"
 41
18.0
 42
0.625
 43
3.75
 44
1.25
 73
     0
 74
     0
 77
     1
 78
     8
140
18.0
141
2.5
143
0.03937007874016
144
0.03937007874
147
0.625
171
     3
172
     1
176
     3
177
     3
178
     3
271
     3
272
     3
274
     3
276
     2
277
     5
278
    44
283
     0
284
     8
340
11
371
     9
372
     9
1001
ACAD_DSTYLE_DIMBREAK
1070
   391
1040
0.125
1001
ACAD_DSTYLE_DIMJAG
1070
   388
1040
1.5
1001
ACAD_DSTYLE_DIMTALN
1070
   392
1070
     0
1001
ACAD_DSTYLE_DIMEXT_LENGTH
1070
   378
1040
1.25
  0
DIMSTYLE
105
D9DAD
330
A
100
AcDbSymbolTableRecord
100
AcDbDimStyleTableRecord
  2
副本 ISO-25
 70
     0
 41
18.0
 42
0.0
 43
3.75
 44
1.25
 78
     8
140
40.0
141
15.0
143
0.03937007874016
147
3.0
171
     3
172
     1
176
   256
177
   256
271
     2
272
     2
274
     3
278
    44
283
     0
284
     8
340
11
371
     9
372
     9
1001
ACAD_DSTYLE_DIMJOGGED_JOGANGLE_SYMBOL
1070
   384
1040
0.7853981633974483
1001
ACAD_DSTYLE_DIMEXT_LENGTH
1070
   378
1040
1.25
  0
DIMSTYLE
105
D9DAE
330
A
100
AcDbSymbolTableRecord
100
AcDbDimStyleTableRecord
  2
副本 ISO-2512
 70
     0
 41
18.0
 42
10.0
 43
3.75
 44
5.0
 73
     0
 74
     0
 78
     8
140
20.0
141
15.0
143
0.03937007874016
147
3.0
171
     3
172
     1
176
   256
177
   256
271
     1
272
     1
274
     3
278
    44
283
     0
284
     8
340
11
371
     9
372
     9
1001
ACAD_DSTYLE_DIMJOGGED_JOGANGLE_SYMBOL
1070
   384
1040
0.7853981633974483
1001
ACAD_DSTYLE_DIMEXT_LENGTH
1070
   378
1040
1.25
  0
DIMSTYLE
105
D9DAF
330
A
100
AcDbSymbolTableRecord
100
AcDbDimStyleTableRecord
  2
毫米
 70
     0
 41
16.0
 42
20.0
 43
3.75
 44
10.0
 73
     0
 74
     0
 78
     8
140
16.0
141
15.0
143
0.03937007874016
147
3.0
171
     3
172
     1
176
     3
177
     3
178
     3
271
     0
272
     0
274
     3
278
    44
283
     0
284
     8
340
11
371
     9
372
     9
1001
ACAD_DSTYLE_DIMBREAK
1070
   391
1040
0.125
1001
ACAD_DSTYLE_DIMJAG
1070
   388
1040
1.5
1001
ACAD_DSTYLE_DIMTALN
1070
   392
1070
     0
1001
ACAD_DSTYLE_DIMEXT_LENGTH
1070
   378
1040
1.25
  0
ENDTAB
  0
TABLE
  2
BLOCK_RECORD
  5
1
330
0
100
AcDbSymbolTable
 70
    16
  0
BLOCK_RECORD
  5
1F
102
{ACAD_XDICTIONARY
360
118B
102
}
330
1
100
AcDbSymbolTableRecord
100
AcDbBlockTableRecord
  2
*Model_Space
340
22
  0
BLOCK_RECORD
  5
73
330
1
100
AcDbSymbolTableRecord
100
AcDbBlockTableRecord
  2
*Paper_Space
340
74
  0
BLOCK_RECORD
  5
78
330
1
100
AcDbSymbolTableRecord
100
AcDbBlockTableRecord
  2
*Paper_Space0
340
79
  0
BLOCK_RECORD
  5
D62FB
330
1
100
AcDbSymbolTableRecord
100
AcDbBlockTableRecord
  2
_None
340
0
  0
BLOCK_RECORD
  5
DA1E5
102
{ACAD_XDICTIONARY
360
DA1E9
102
}
330
1
100
AcDbSymbolTableRecord
100
AcDbBlockTableRecord
  2
A$C46382D3C
340
0
1001
ACAD
1000
DesignCenter Data
1002
{
1070
     1
1070
     4
1002
}
  0
BLOCK_RECORD
  5
DA1FB
330
1
100
AcDbSymbolTableRecord
100
AcDbBlockTableRecord
  2
*D3
340
0
  0
BLOCK_RECORD
  5
DA215
330
1
100
AcDbSymbolTableRecord
100
AcDbBlockTableRecord
  2
*D4
340
0
  0
BLOCK_RECORD
  5
DA22F
330
1
100
AcDbSymbolTableRecord
100
AcDbBlockTableRecord
  2
*D5
340
0
  0
BLOCK_RECORD
  5
DA23C
330
1
100
AcDbSymbolTableRecord
100
AcDbBlockTableRecord
  2
*D6
340
0
  0
BLOCK_RECORD
  5
DA256
330
1
100
AcDbSymbolTableRecord
100
AcDbBlockTableRecord
  2
*D7
340
0
  0
BLOCK_RECORD
  5
DA270
330
1
100
AcDbSymbolTableRecord
100
AcDbBlockTableRecord
  2
*D8
340
0
  0
BLOCK_RECORD
  5
DA2AD
330
1
100
AcDbSymbolTableRecord
100
AcDbBlockTableRecord
  2
*D9
340
0
  0
BLOCK_RECORD
  5
DA2C3
330
1
100
AcDbSymbolTableRecord
100
AcDbBlockTableRecord
  2
*D10
340
0
  0
BLOCK_RECORD
  5
DA2DF
330
1
100
AcDbSymbolTableRecord
100
AcDbBlockTableRecord
  2
*D11
340
0
  0
BLOCK_RECORD
  5
DA2F9
330
1
100
AcDbSymbolTableRecord
100
AcDbBlockTableRecord
  2
*D12
340
0
  0
BLOCK_RECORD
  5
DA331
330
1
100
AcDbSymbolTableRecord
100
AcDbBlockTableRecord
  2
*D13
340
0
  0
BLOCK_RECORD
  5
DA34D
330
1
100
AcDbSymbolTableRecord
100
AcDbBlockTableRecord
  2
*D14
340
0
  0
BLOCK_RECORD
  5
DA369
330
1
100
AcDbSymbolTableRecord
100
AcDbBlockTableRecord
  2
*D15
340
0
  0
ENDTAB
  0
ENDSEC
  0
SECTION
  2
BLOCKS
  0
BLOCK
  5
20
330
1F
100
AcDbEntity
  8
0
100
AcDbBlockBegin
  2
*Model_Space
 70
     0
 10
0.0
 20
0.0
 30
0.0
  3
*Model_Space
  1

  0
ENDBLK
  5
21
330
1F
100
AcDbEntity
  8
0
100
AcDbBlockEnd
  0
BLOCK
  5
75
330
73
100
AcDbEntity
 67
     1
  8
0
100
AcDbBlockBegin
  2
*Paper_Space
 70
     0
 10
0.0
 20
0.0
 30
0.0
  3
*Paper_Space
  1

  0
ENDBLK
  5
76
330
73
100
AcDbEntity
 67
     1
  8
0
100
AcDbBlockEnd
  0
BLOCK
  5
7A
330
78
100
AcDbEntity
 67
     1
  8
0
100
AcDbBlockBegin
  2
*Paper_Space0
 70
     0
 10
0.0
 20
0.0
 30
0.0
  3
*Paper_Space0
  1

  0
ENDBLK
  5
7B
330
78
100
AcDbEntity
 67
     1
  8
0
100
AcDbBlockEnd
  0
BLOCK
  5
D62FC
330
D62FB
100
AcDbEntity
  8
0
 48
5.0
100
AcDbBlockBegin
  2
_None
 70
     0
 10
0.0
 20
0.0
 30
0.0
  3
_None
  1

  0
ENDBLK
  5
D62FD
330
D62FB
100
AcDbEntity
  8
0
 48
5.0
100
AcDbBlockEnd
  0
BLOCK
  5
DA1EB
330
DA1E5
100
AcDbEntity
  8
0
 48
5.0
100
AcDbBlockBegin
  2
A$C46382D3C
 70
     0
 10
0.0
 20
0.0
 30
0.0
  3
A$C46382D3C
  1

  0
LWPOLYLINE
  5
DA1E6
330
DA1E5
100
AcDbEntity
  8
0
100
AcDbPolyline
 90
        8
 70
     1
 43
0.0
 10
196.9999971280485
 20
78.99999938852852
 10
196.9999971280485
 20
336.9999993885285
 42
0.4142135623730951
 10
121.9999971280485
 20
411.9999993885285
 10
78.99999712804856
 20
411.9999993885285
 42
0.4142135623730951
 10
3.999997128048562
 20
336.9999993885285
 10
3.999997128048562
 20
78.99999938852852
 42
0.4142135623730951
 10
78.99999712804856
 20
3.999999388528522
 10
121.9999971280485
 20
3.999999388528522
 42
0.4142135623730951
  0
LWPOLYLINE
  5
DA1E7
330
DA1E5
100
AcDbEntity
  8
0
100
AcDbPolyline
 90
        8
 70
     1
 43
0.0
 10
192.9999971280485
 20
78.99999938852852
 10
192.9999971280485
 20
336.9999993885285
 42
0.4142135623730951
 10
121.9999971280485
 20
407.9999993885285
 10
78.99999712804856
 20
407.9999993885285
 42
0.4142135623730951
 10
7.999997128048563
 20
336.9999993885285
 10
7.999997128048563
 20
78.99999938852852
 42
0.4142135623730951
 10
78.99999712804856
 20
7.999999388528522
 10
121.9999971280485
 20
7.999999388528522
 42
0.4142135623730951
  0
LWPOLYLINE
  5
DA1E8
330
DA1E5
100
AcDbEntity
  8
0
100
AcDbPolyline
 90
        8
 70
     1
 43
0.0
 10
200.9999971280485
 20
78.99999938852852
 10
200.9999971280485
 20
336.9999993885285
 42
0.4142135623730951
 10
121.9999971280485
 20
415.9999993885285
 10
78.99999712804856
 20
415.9999993885285
 42
0.4142135623730951
 10
-0.0000028719514376
 20
336.9999993885285
 10
-0.0000028719514376
 20
78.99999938852852
 42
0.4142135623730951
 10
78.99999712804856
 20
-0.0000006114714779
 10
121.9999971280485
 20
-0.0000006114714779
 42
0.4142135623730951
  0
ENDBLK
  5
DA1EC
330
DA1E5
100
AcDbEntity
  8
0
 48
5.0
100
AcDbBlockEnd
  0
BLOCK
  5
DA1FC
330
DA1FB
100
AcDbEntity
  8
0
 48
5.0
100
AcDbBlockBegin
  2
*D3
 70
     1
 10
0.0
 20
0.0
 30
0.0
  3
*D3
  1

  0
LINE
  5
DA209
330
DA1FB
100
AcDbEntity
  8
标注
 48
5.0
370
    -2
100
AcDbLine
 10
104348.4927868596
 20
-168974.4630517858
 30
0.0
 11
104348.4927868596
 21
-169100.9852915636
 31
0.0
  0
LINE
  5
DA20A
330
DA1FB
100
AcDbEntity
  8
标注
 48
5.0
370
    -2
100
AcDbLine
 10
104541.4927868596
 20
-168974.4630517858
 30
0.0
 11
104541.4927868596
 21
-169100.9852915636
 31
0.0
  0
LINE
  5
DA20B
330
DA1FB
100
AcDbEntity
  8
标注
 48
5.0
370
    -2
100
AcDbLine
 10
104364.4927868596
 20
-169093.9852915636
 30
0.0
 11
104425.1594535263
 21
-169093.9852915636
 31
0.0
  0
LINE
  5
DA20C
330
DA1FB
100
AcDbEntity
  8
标注
 48
5.0
370
    -2
100
AcDbLine
 10
104525.4927868596
 20
-169093.9852915636
 30
0.0
 11
104464.8261201928
 21
-169093.9852915636
 31
0.0
  0
SOLID
  5
DA20D
330
DA1FB
100
AcDbEntity
  8
标注
 48
5.0
100
AcDbTrace
 10
104364.4927868596
 20
-169091.3186248969
 30
0.0
 11
104364.4927868596
 21
-169096.6519582302
 31
0.0
 12
104348.4927868596
 22
-169093.9852915636
 32
0.0
 13
104348.4927868596
 23
-169093.9852915636
 33
0.0
  0
SOLID
  5
DA20E
330
DA1FB
100
AcDbEntity
  8
标注
 48
5.0
100
AcDbTrace
 10
104525.4927868596
 20
-169091.3186248969
 30
0.0
 11
104525.4927868596
 21
-169096.6519582302
 31
0.0
 12
104541.4927868596
 22
-169093.9852915636
 32
0.0
 13
104541.4927868596
 23
-169093.9852915636
 33
0.0
  0
MTEXT
  5
DA20F
330
DA1FB
100
AcDbEntity
  8
标注
 48
5.0
100
AcDbMText
 10
104444.9927868596
 20
-169093.9852915636
 30
0.0
 40
20.0
 41
0.0
 71
     5
 72
     1
  1
\A1;193
 73
     1
 44
1.0
1001
ACAD
1000
MTEXTBEGIN
1070
    73
1070
     1
1070
    44
1040
1.0
1070
    74
1070
     0
1000
MTEXTEND
  0
POINT
  5
DA210
330
DA1FB
100
AcDbEntity
  8
Defpoints
 62
     0
 48
5.0
100
AcDbPoint
 10
104348.4927868596
 20
-168967.4630517858
 30
0.0
  0
POINT
  5
DA211
330
DA1FB
100
AcDbEntity
  8
Defpoints
 62
     0
 48
5.0
100
AcDbPoint
 10
104541.4927868596
 20
-168967.4630517858
 30
0.0
  0
POINT
  5
DA212
330
DA1FB
100
AcDbEntity
  8
Defpoints
 62
     0
 48
5.0
100
AcDbPoint
 10
104541.4927868596
 20
-169093.9852915636
 30
0.0
  0
ENDBLK
  5
DA1FD
330
DA1FB
100
AcDbEntity
  8
0
 48
5.0
100
AcDbBlockEnd
  0
BLOCK
  5
DA216
330
DA215
100
AcDbEntity
  8
0
 48
5.0
100
AcDbBlockBegin
  2
*D4
 70
     1
 10
0.0
 20
0.0
 30
0.0
  3
*D4
  1

  0
LINE
  5
DA223
330
DA215
100
AcDbEntity
  8
标注
 48
5.0
370
    -2
100
AcDbLine
 10
104344.4927868596
 20
-168974.4630517858
 30
0.0
 11
104344.4927868596
 21
-169145.6088131088
 31
0.0
  0
LINE
  5
DA224
330
DA215
100
AcDbEntity
  8
标注
 48
5.0
370
    -2
100
AcDbLine
 10
104545.4927868596
 20
-168974.4630517858
 30
0.0
 11
104545.4927868596
 21
-169145.6088131088
 31
0.0
  0
LINE
  5
DA225
330
DA215
100
AcDbEntity
  8
标注
 48
5.0
370
    -2
100
AcDbLine
 10
104360.4927868596
 20
-169138.6088131088
 30
0.0
 11
104424.8261201929
 21
-169138.6088131088
 31
0.0
  0
LINE
  5
DA226
330
DA215
100
AcDbEntity
  8
标注
 48
5.0
370
    -2
100
AcDbLine
 10
104529.4927868596
 20
-169138.6088131088
 30
0.0
 11
104465.1594535263
 21
-169138.6088131088
 31
0.0
  0
SOLID
  5
DA227
330
DA215
100
AcDbEntity
  8
标注
 48
5.0
100
AcDbTrace
 10
104360.4927868596
 20
-169135.9421464422
 30
0.0
 11
104360.4927868596
 21
-169141.2754797754
 31
0.0
 12
104344.4927868596
 22
-169138.6088131088
 32
0.0
 13
104344.4927868596
 23
-169138.6088131088
 33
0.0
  0
SOLID
  5
DA228
330
DA215
100
AcDbEntity
  8
标注
 48
5.0
100
AcDbTrace
 10
104529.4927868596
 20
-169135.9421464422
 30
0.0
 11
104529.4927868596
 21
-169141.2754797754
 31
0.0
 12
104545.4927868596
 22
-169138.6088131088
 32
0.0
 13
104545.4927868596
 23
-169138.6088131088
 33
0.0
  0
MTEXT
  5
DA229
330
DA215
100
AcDbEntity
  8
标注
 48
5.0
100
AcDbMText
 10
104444.9927868596
 20
-169138.6088131088
 30
0.0
 40
20.0
 41
0.0
 71
     5
 72
     1
  1
\A1;201
 73
     1
 44
1.0
1001
ACAD
1000
MTEXTBEGIN
1070
    73
1070
     1
1070
    44
1040
1.0
1070
    74
1070
     0
1000
MTEXTEND
  0
POINT
  5
DA22A
330
DA215
100
AcDbEntity
  8
Defpoints
 62
     0
 48
5.0
100
AcDbPoint
 10
104344.4927868596
 20
-168967.4630517858
 30
0.0
  0
POINT
  5
DA22B
330
DA215
100
AcDbEntity
  8
Defpoints
 62
     0
 48
5.0
100
AcDbPoint
 10
104545.4927868596
 20
-168967.4630517858
 30
0.0
  0
POINT
  5
DA22C
330
DA215
100
AcDbEntity
  8
Defpoints
 62
     0
 48
5.0
100
AcDbPoint
 10
104545.4927868596
 20
-169138.6088131088
 30
0.0
  0
ENDBLK
  5
DA217
330
DA215
100
AcDbEntity
  8
0
 48
5.0
100
AcDbBlockEnd
  0
BLOCK
  5
DA230
330
DA22F
100
AcDbEntity
  8
0
 48
5.0
100
AcDbBlockBegin
  2
*D5
 70
     1
 10
0.0
 20
0.0
 30
0.0
  3
*D5
  1

  0
LINE
  5
DA232
330
DA22F
100
AcDbEntity
  8
标注
 48
5.0
370
    -2
100
AcDbLine
 10
104525.4927868596
 20
-169093.9852915636
 30
0.0
 11
104509.4927868596
 21
-169093.9852915636
 31
0.0
  0
LINE
  5
DA233
330
DA22F
100
AcDbEntity
  8
标注
 48
5.0
370
    -2
100
AcDbLine
 10
104561.4927868596
 20
-169093.9852915636
 30
0.0
 11
104577.4927868596
 21
-169093.9852915636
 31
0.0
  0
LINE
  5
DA234
330
DA22F
100
AcDbEntity
  8
标注
 48
5.0
370
    -2
100
AcDbLine
 10
104541.4927868596
 20
-169093.9852915636
 30
0.0
 11
104545.4927868596
 21
-169093.9852915636
 31
0.0
  0
SOLID
  5
DA235
330
DA22F
100
AcDbEntity
  8
标注
 48
5.0
100
AcDbTrace
 10
104525.4927868596
 20
-169091.3186248969
 30
0.0
 11
104525.4927868596
 21
-169096.6519582302
 31
0.0
 12
104541.4927868596
 22
-169093.9852915636
 32
0.0
 13
104541.4927868596
 23
-169093.9852915636
 33
0.0
  0
SOLID
  5
DA236
330
DA22F
100
AcDbEntity
  8
标注
 48
5.0
100
AcDbTrace
 10
104561.4927868596
 20
-169091.3186248969
 30
0.0
 11
104561.4927868596
 21
-169096.6519582302
 31
0.0
 12
104545.4927868596
 22
-169093.9852915636
 32
0.0
 13
104545.4927868596
 23
-169093.9852915636
 33
0.0
  0
MTEXT
  5
DA237
330
DA22F
100
AcDbEntity
  8
标注
 48
5.0
100
AcDbMText
 10
104584.6038979707
 20
-169093.9852915636
 30
0.0
 40
20.0
 41
0.0
 71
     5
 72
     1
  1
\A1;4
 73
     1
 44
1.0
1001
ACAD
1000
MTEXTBEGIN
1070
    73
1070
     1
1070
    44
1040
1.0
1070
    74
1070
     0
1000
MTEXTEND
  0
POINT
  5
DA238
330
DA22F
100
AcDbEntity
  8
Defpoints
 62
     0
 48
5.0
100
AcDbPoint
 10
104541.4927868596
 20
-169093.9852915636
 30
0.0
  0
POINT
  5
DA239
330
DA22F
100
AcDbEntity
  8
Defpoints
 62
     0
 48
5.0
100
AcDbPoint
 10
104545.4927868596
 20
-169093.9852915636
 30
0.0
  0
POINT
  5
DA23A
330
DA22F
100
AcDbEntity
  8
Defpoints
 62
     0
 48
5.0
100
AcDbPoint
 10
104545.4927868596
 20
-169093.9852915636
 30
0.0
  0
ENDBLK
  5
DA231
330
DA22F
100
AcDbEntity
  8
0
 48
5.0
100
AcDbBlockEnd
  0
BLOCK
  5
DA23D
330
DA23C
100
AcDbEntity
  8
0
 48
5.0
100
AcDbBlockBegin
  2
*D6
 70
     1
 10
0.0
 20
0.0
 30
0.0
  3
*D6
  1

  0
LINE
  5
DA24A
330
DA23C
100
AcDbEntity
  8
标注
 48
5.0
370
    -2
100
AcDbLine
 10
104473.4927868596
 20
-169042.4630517858
 30
0.0
 11
104598.4520377676
 21
-169042.4630517858
 31
0.0
  0
LINE
  5
DA24B
330
DA23C
100
AcDbEntity
  8
标注
 48
5.0
370
    -2
100
AcDbLine
 10
104473.4927868596
 20
-168634.4630517858
 30
0.0
 11
104598.4520377676
 21
-168634.4630517858
 31
0.0
  0
LINE
  5
DA24C
330
DA23C
100
AcDbEntity
  8
标注
 48
5.0
370
    -2
100
AcDbLine
 10
104591.4520377676
 20
-169026.4630517858
 30
0.0
 11
104591.4520377676
 21
-168859.4630517858
 31
0.0
  0
LINE
  5
DA24D
330
DA23C
100
AcDbEntity
  8
标注
 48
5.0
370
    -2
100
AcDbLine
 10
104591.4520377676
 20
-168650.4630517858
 30
0.0
 11
104591.4520377676
 21
-168817.4630517858
 31
0.0
  0
SOLID
  5
DA24E
330
DA23C
100
AcDbEntity
  8
标注
 48
5.0
100
AcDbTrace
 10
104588.785371101
 20
-169026.4630517858
 30
0.0
 11
104594.1187044343
 21
-169026.4630517858
 31
0.0
 12
104591.4520377676
 22
-169042.4630517858
 32
0.0
 13
104591.4520377676
 23
-169042.4630517858
 33
0.0
  0
SOLID
  5
DA24F
330
DA23C
100
AcDbEntity
  8
标注
 48
5.0
100
AcDbTrace
 10
104588.785371101
 20
-168650.4630517858
 30
0.0
 11
104594.1187044343
 21
-168650.4630517858
 31
0.0
 12
104591.4520377676
 22
-168634.4630517858
 32
0.0
 13
104591.4520377676
 23
-168634.4630517858
 33
0.0
  0
MTEXT
  5
DA250
330
DA23C
100
AcDbEntity
  8
标注
 48
5.0
100
AcDbMText
 10
104591.4520377677
 20
-168838.4630517858
 30
0.0
 40
20.0
 41
0.0
 71
     5
 72
     1
  1
\A1;408
 11
0.0000000000000001
 21
1.0
 31
0.0
 73
     1
 44
1.0
1001
ACAD
1000
MTEXTBEGIN
1070
    73
1070
     1
1070
    44
1040
1.0
1070
    74
1070
     0
1000
MTEXTEND
  0
POINT
  5
DA251
330
DA23C
100
AcDbEntity
  8
Defpoints
 62
     0
 48
5.0
100
AcDbPoint
 10
104466.4927868596
 20
-169042.4630517858
 30
0.0
  0
POINT
  5
DA252
330
DA23C
100
AcDbEntity
  8
Defpoints
 62
     0
 48
5.0
100
AcDbPoint
 10
104466.4927868596
 20
-168634.4630517858
 30
0.0
  0
POINT
  5
DA253
330
DA23C
100
AcDbEntity
  8
Defpoints
 62
     0
 48
5.0
100
AcDbPoint
 10
104591.4520377676
 20
-168634.4630517858
 30
0.0
  0
ENDBLK
  5
DA23E
330
DA23C
100
AcDbEntity
  8
0
 48
5.0
100
AcDbBlockEnd
  0
BLOCK
  5
DA257
330
DA256
100
AcDbEntity
  8
0
 48
5.0
100
AcDbBlockBegin
  2
*D7
 70
     1
 10
0.0
 20
0.0
 30
0.0
  3
*D7
  1

  0
LINE
  5
DA264
330
DA256
100
AcDbEntity
  8
标注
 48
5.0
370
    -2
100
AcDbLine
 10
104473.4927868596
 20
-169046.4630517858
 30
0.0
 11
104641.6469255261
 21
-169046.4630517858
 31
0.0
  0
LINE
  5
DA265
330
DA256
100
AcDbEntity
  8
标注
 48
5.0
370
    -2
100
AcDbLine
 10
104473.4927868596
 20
-168630.4630517858
 30
0.0
 11
104641.6469255261
 21
-168630.4630517858
 31
0.0
  0
LINE
  5
DA266
330
DA256
100
AcDbEntity
  8
标注
 48
5.0
370
    -2
100
AcDbLine
 10
104634.6469255261
 20
-169030.4630517858
 30
0.0
 11
104634.6469255261
 21
-168859.5741628969
 31
0.0
  0
LINE
  5
DA267
330
DA256
100
AcDbEntity
  8
标注
 48
5.0
370
    -2
100
AcDbLine
 10
104634.6469255261
 20
-168646.4630517858
 30
0.0
 11
104634.6469255261
 21
-168817.3519406747
 31
0.0
  0
SOLID
  5
DA268
330
DA256
100
AcDbEntity
  8
标注
 48
5.0
100
AcDbTrace
 10
104631.9802588594
 20
-169030.4630517858
 30
0.0
 11
104637.3135921928
 21
-169030.4630517858
 31
0.0
 12
104634.6469255261
 22
-169046.4630517858
 32
0.0
 13
104634.6469255261
 23
-169046.4630517858
 33
0.0
  0
SOLID
  5
DA269
330
DA256
100
AcDbEntity
  8
标注
 48
5.0
100
AcDbTrace
 10
104631.9802588594
 20
-168646.4630517858
 30
0.0
 11
104637.3135921928
 21
-168646.4630517858
 31
0.0
 12
104634.6469255261
 22
-168630.4630517858
 32
0.0
 13
104634.6469255261
 23
-168630.4630517858
 33
0.0
  0
MTEXT
  5
DA26A
330
DA256
100
AcDbEntity
  8
标注
 48
5.0
100
AcDbMText
 10
104634.6469255261
 20
-168838.4630517858
 30
0.0
 40
20.0
 41
0.0
 71
     5
 72
     1
  1
\A1;416
 11
0.0000000000000001
 21
1.0
 31
0.0
 73
     1
 44
1.0
1001
ACAD
1000
MTEXTBEGIN
1070
    73
1070
     1
1070
    44
1040
1.0
1070
    74
1070
     0
1000
MTEXTEND
  0
POINT
  5
DA26B
330
DA256
100
AcDbEntity
  8
Defpoints
 62
     0
 48
5.0
100
AcDbPoint
 10
104466.4927868596
 20
-169046.4630517858
 30
0.0
  0
POINT
  5
DA26C
330
DA256
100
AcDbEntity
  8
Defpoints
 62
     0
 48
5.0
100
AcDbPoint
 10
104466.4927868596
 20
-168630.4630517858
 30
0.0
  0
POINT
  5
DA26D
330
DA256
100
AcDbEntity
  8
Defpoints
 62
     0
 48
5.0
100
AcDbPoint
 10
104634.6469255261
 20
-168630.4630517858
 30
0.0
  0
ENDBLK
  5
DA258
330
DA256
100
AcDbEntity
  8
0
 48
5.0
100
AcDbBlockEnd
  0
BLOCK
  5
DA271
330
DA270
100
AcDbEntity
  8
0
 48
5.0
100
AcDbBlockBegin
  2
*D8
 70
     1
 10
0.0
 20
0.0
 30
0.0
  3
*D8
  1

  0
LINE
  5
DA273
330
DA270
100
AcDbEntity
  8
标注
 48
5.0
370
    -2
100
AcDbLine
 10
104591.4520377676
 20
-168650.4630517858
 30
0.0
 11
104591.4520377676
 21
-168666.4630517858
 31
0.0
  0
LINE
  5
DA274
330
DA270
100
AcDbEntity
  8
标注
 48
5.0
370
    -2
100
AcDbLine
 10
104591.4520377676
 20
-168614.4630517858
 30
0.0
 11
104591.4520377676
 21
-168598.4630517858
 31
0.0
  0
LINE
  5
DA275
330
DA270
100
AcDbEntity
  8
标注
 48
5.0
370
    -2
100
AcDbLine
 10
104591.4520377676
 20
-168634.4630517858
 30
0.0
 11
104591.4520377676
 21
-168630.4630517858
 31
0.0
  0
SOLID
  5
DA276
330
DA270
100
AcDbEntity
  8
标注
 48
5.0
100
AcDbTrace
 10
104588.785371101
 20
-168650.4630517858
 30
0.0
 11
104594.1187044343
 21
-168650.4630517858
 31
0.0
 12
104591.4520377676
 22
-168634.4630517858
 32
0.0
 13
104591.4520377676
 23
-168634.4630517858
 33
0.0
  0
SOLID
  5
DA277
330
DA270
100
AcDbEntity
  8
标注
 48
5.0
100
AcDbTrace
 10
104588.785371101
 20
-168614.4630517858
 30
0.0
 11
104594.1187044343
 21
-168614.4630517858
 31
0.0
 12
104591.4520377676
 22
-168630.4630517858
 32
0.0
 13
104591.4520377676
 23
-168630.4630517858
 33
0.0
  0
MTEXT
  5
DA278
330
DA270
100
AcDbEntity
  8
标注
 48
5.0
100
AcDbMText
 10
104591.4520377677
 20
-168591.3519406746
 30
0.0
 40
20.0
 41
0.0
 71
     5
 72
     1
  1
\A1;4
 11
0.0000000000000001
 21
1.0
 31
0.0
 73
     1
 44
1.0
1001
ACAD
1000
MTEXTBEGIN
1070
    73
1070
     1
1070
    44
1040
1.0
1070
    74
1070
     0
1000
MTEXTEND
  0
POINT
  5
DA279
330
DA270
100
AcDbEntity
  8
Defpoints
 62
     0
 48
5.0
100
AcDbPoint
 10
104591.4520377676
 20
-168634.4630517858
 30
0.0
  0
POINT
  5
DA27A
330
DA270
100
AcDbEntity
  8
Defpoints
 62
     0
 48
5.0
100
AcDbPoint
 10
104591.4520377676
 20
-168630.4630517858
 30
0.0
  0
POINT
  5
DA27B
330
DA270
100
AcDbEntity
  8
Defpoints
 62
     0
 48
5.0
100
AcDbPoint
 10
104591.4520377676
 20
-168630.4630517858
 30
0.0
  0
ENDBLK
  5
DA272
330
DA270
100
AcDbEntity
  8
0
 48
5.0
100
AcDbBlockEnd
  0
BLOCK
  5
DA2AE
330
DA2AD
100
AcDbEntity
  8
0
 48
5.0
100
AcDbBlockBegin
  2
*D9
 70
     1
 10
0.0
 20
0.0
 30
0.0
  3
*D9
  1

  0
LINE
  5
DA2BC
330
DA2AD
100
AcDbEntity
  8
标注
 48
5.0
370
    -2
100
AcDbLine
 10
104495.3232315015
 20
-168999.3661153025
 30
0.0
 11
104506.0508388101
 21
-169011.2370226576
 31
0.0
  0
MTEXT
  5
DA2BD
330
DA2AD
100
AcDbEntity
  8
标注
 48
5.0
100
AcDbMText
 10
104471.7448446045
 20
-168973.2748501783
 30
0.0
 40
20.0
 41
0.0
 71
     5
 72
     1
  1
\A1;4-R75
 11
0.6704754567864834
 21
-0.7419317096923117
 31
0.0
 73
     1
 44
1.0
1001
ACAD
1000
MTEXTBEGIN
1070
    73
1070
     1
1070
    44
1040
1.0
1070
    74
1070
     0
1000
MTEXTEND
  0
SOLID
  5
DA2BE
330
DA2AD
100
AcDbEntity
  8
标注
 48
5.0
100
AcDbTrace
 10
104508.0293233693
 20
-169009.4490881062
 30
0.0
 11
104504.0723542509
 21
-169013.024957209
 31
0.0
 12
104516.7784461187
 22
-169023.1079300126
 32
0.0
 13
104516.7784461187
 23
-169023.1079300126
 33
0.0
  0
POINT
  5
DA2BF
330
DA2AD
100
AcDbEntity
  8
Defpoints
 62
     0
 48
5.0
100
AcDbPoint
 10
104516.7784461187
 20
-169023.1079300126
 30
0.0
  0
POINT
  5
DA2C0
330
DA2AD
100
AcDbEntity
  8
Defpoints
 62
     0
 48
5.0
100
AcDbPoint
 10
104466.4927868596
 20
-168967.4630517856
 30
0.0
  0
ENDBLK
  5
DA2AF
330
DA2AD
100
AcDbEntity
  8
0
 48
5.0
100
AcDbBlockEnd
  0
BLOCK
  5
DA2C4
330
DA2C3
100
AcDbEntity
  8
0
 48
5.0
100
AcDbBlockBegin
  2
*D10
 70
     1
 10
0.0
 20
0.0
 30
0.0
  3
*D10
  1

  0
LINE
  5
DA2D2
330
DA2C3
100
AcDbEntity
  8
标注
 48
5.0
370
    -2
100
AcDbLine
 10
104437.9927868596
 20
-168648.4630517758
 30
0.0
 11
104397.8372318972
 21
-168648.4630517758
 31
0.0
  0
LINE
  5
DA2D3
330
DA2C3
100
AcDbEntity
  8
标注
 48
5.0
370
    -2
100
AcDbLine
 10
104437.9927868596
 20
-168630.4630517858
 30
0.0
 11
104397.8372318972
 21
-168630.4630517858
 31
0.0
  0
LINE
  5
DA2D4
330
DA2C3
100
AcDbEntity
  8
标注
 48
5.0
370
    -2
100
AcDbLine
 10
104404.8372318972
 20
-168664.4630517758
 30
0.0
 11
104404.8372318972
 21
-168680.4630517758
 31
0.0
  0
LINE
  5
DA2D5
330
DA2C3
100
AcDbEntity
  8
标注
 48
5.0
370
    -2
100
AcDbLine
 10
104404.8372318972
 20
-168614.4630517858
 30
0.0
 11
104404.8372318972
 21
-168598.4630517858
 31
0.0
  0
LINE
  5
DA2D6
330
DA2C3
100
AcDbEntity
  8
标注
 48
5.0
370
    -2
100
AcDbLine
 10
104404.8372318972
 20
-168648.4630517758
 30
0.0
 11
104404.8372318972
 21
-168630.4630517858
 31
0.0
  0
SOLID
  5
DA2D7
330
DA2C3
100
AcDbEntity
  8
标注
 48
5.0
100
AcDbTrace
 10
104402.1705652306
 20
-168664.4630517758
 30
0.0
 11
104407.5038985639
 21
-168664.4630517758
 31
0.0
 12
104404.8372318972
 22
-168648.4630517758
 32
0.0
 13
104404.8372318972
 23
-168648.4630517758
 33
0.0
  0
SOLID
  5
DA2D8
330
DA2C3
100
AcDbEntity
  8
标注
 48
5.0
100
AcDbTrace
 10
104402.1705652306
 20
-168614.4630517858
 30
0.0
 11
104407.5038985639
 21
-168614.4630517858
 31
0.0
 12
104404.8372318972
 22
-168630.4630517858
 32
0.0
 13
104404.8372318972
 23
-168630.4630517858
 33
0.0
  0
MTEXT
  5
DA2D9
330
DA2C3
100
AcDbEntity
  8
标注
 48
5.0
100
AcDbMText
 10
104404.8372318973
 20
-168585.685274008
 30
0.0
 40
20.0
 41
0.0
 71
     5
 72
     1
  1
\A1;18
 11
0.0000000000000001
 21
1.0
 31
0.0
 73
     1
 44
1.0
1001
ACAD
1000
MTEXTBEGIN
1070
    73
1070
     1
1070
    44
1040
1.0
1070
    74
1070
     0
1000
MTEXTEND
  0
POINT
  5
DA2DA
330
DA2C3
100
AcDbEntity
  8
Defpoints
 62
     0
 48
5.0
100
AcDbPoint
 10
104444.9927868596
 20
-168648.4630517758
 30
0.0
  0
POINT
  5
DA2DB
330
DA2C3
100
AcDbEntity
  8
Defpoints
 62
     0
 48
5.0
100
AcDbPoint
 10
104444.9927868596
 20
-168630.4630517858
 30
0.0
  0
POINT
  5
DA2DC
330
DA2C3
100
AcDbEntity
  8
Defpoints
 62
     0
 48
5.0
100
AcDbPoint
 10
104404.8372318972
 20
-168630.4630517858
 30
0.0
  0
ENDBLK
  5
DA2C5
330
DA2C3
100
AcDbEntity
  8
0
 48
5.0
100
AcDbBlockEnd
  0
BLOCK
  5
DA2E0
330
DA2DF
100
AcDbEntity
  8
0
 48
5.0
100
AcDbBlockBegin
  2
*D11
 70
     1
 10
0.0
 20
0.0
 30
0.0
  3
*D11
  1

  0
LINE
  5
DA2ED
330
DA2DF
100
AcDbEntity
  8
标注
 48
5.0
370
    -2
100
AcDbLine
 10
104437.9927868596
 20
-168648.4630517758
 30
0.0
 11
104397.8372318972
 21
-168648.4630517758
 31
0.0
  0
LINE
  5
DA2EE
330
DA2DF
100
AcDbEntity
  8
标注
 48
5.0
370
    -2
100
AcDbLine
 10
104437.9927868596
 20
-168838.4630517858
 30
0.0
 11
104397.8372318972
 21
-168838.4630517858
 31
0.0
  0
LINE
  5
DA2EF
330
DA2DF
100
AcDbEntity
  8
标注
 48
5.0
370
    -2
100
AcDbLine
 10
104404.8372318972
 20
-168664.4630517758
 30
0.0
 11
104404.8372318972
 21
-168723.4630517808
 31
0.0
  0
LINE
  5
DA2F0
330
DA2DF
100
AcDbEntity
  8
标注
 48
5.0
370
    -2
100
AcDbLine
 10
104404.8372318972
 20
-168822.4630517858
 30
0.0
 11
104404.8372318972
 21
-168763.4630517808
 31
0.0
  0
SOLID
  5
DA2F1
330
DA2DF
100
AcDbEntity
  8
标注
 48
5.0
100
AcDbTrace
 10
104402.1705652306
 20
-168664.4630517758
 30
0.0
 11
104407.5038985639
 21
-168664.4630517758
 31
0.0
 12
104404.8372318972
 22
-168648.4630517758
 32
0.0
 13
104404.8372318972
 23
-168648.4630517758
 33
0.0
  0
SOLID
  5
DA2F2
330
DA2DF
100
AcDbEntity
  8
标注
 48
5.0
100
AcDbTrace
 10
104402.1705652306
 20
-168822.4630517858
 30
0.0
 11
104407.5038985639
 21
-168822.4630517858
 31
0.0
 12
104404.8372318972
 22
-168838.4630517858
 32
0.0
 13
104404.8372318972
 23
-168838.4630517858
 33
0.0
  0
MTEXT
  5
DA2F3
330
DA2DF
100
AcDbEntity
  8
标注
 48
5.0
100
AcDbMText
 10
104404.8372318973
 20
-168743.4630517808
 30
0.0
 40
20.0
 41
0.0
 71
     5
 72
     1
  1
\A1;190
 11
0.0000000000000001
 21
1.0
 31
0.0
 73
     1
 44
1.0
1001
ACAD
1000
MTEXTBEGIN
1070
    73
1070
     1
1070
    44
1040
1.0
1070
    74
1070
     0
1000
MTEXTEND
  0
POINT
  5
DA2F4
330
DA2DF
100
AcDbEntity
  8
Defpoints
 62
     0
 48
5.0
100
AcDbPoint
 10
104444.9927868596
 20
-168648.4630517758
 30
0.0
  0
POINT
  5
DA2F5
330
DA2DF
100
AcDbEntity
  8
Defpoints
 62
     0
 48
5.0
100
AcDbPoint
 10
104444.9927868596
 20
-168838.4630517858
 30
0.0
  0
POINT
  5
DA2F6
330
DA2DF
100
AcDbEntity
  8
Defpoints
 62
     0
 48
5.0
100
AcDbPoint
 10
104404.8372318972
 20
-168838.4630517858
 30
0.0
  0
ENDBLK
  5
DA2E1
330
DA2DF
100
AcDbEntity
  8
0
 48
5.0
100
AcDbBlockEnd
  0
BLOCK
  5
DA2FA
330
DA2F9
100
AcDbEntity
  8
0
 48
5.0
100
AcDbBlockBegin
  2
*D12
 70
     1
 10
0.0
 20
0.0
 30
0.0
  3
*D12
  1

  0
LINE
  5
DA326
330
DA2F9
100
AcDbEntity
  8
标注
 48
5.0
370
    -2
100
AcDbLine
 10
104437.9927868596
 20
-168630.4630517858
 30
0.0
 11
104360.4689496782
 21
-168630.4630517858
 31
0.0
  0
LINE
  5
DA327
330
DA2F9
100
AcDbEntity
  8
标注
 48
5.0
370
    -2
100
AcDbLine
 10
104437.9927868596
 20
-169046.4630517858
 30
0.0
 11
104360.4689496782
 21
-169046.4630517858
 31
0.0
  0
LINE
  5
DA328
330
DA2F9
100
AcDbEntity
  8
标注
 48
5.0
370
    -2
100
AcDbLine
 10
104367.4689496782
 20
-168646.4630517858
 30
0.0
 11
104367.4689496782
 21
-168725.6144393924
 31
0.0
  0
LINE
  5
DA329
330
DA2F9
100
AcDbEntity
  8
标注
 48
5.0
370
    -2
100
AcDbLine
 10
104367.4689496782
 20
-169030.4630517858
 30
0.0
 11
104367.4689496782
 21
-168767.8366616146
 31
0.0
  0
SOLID
  5
DA32A
330
DA2F9
100
AcDbEntity
  8
标注
 48
5.0
100
AcDbTrace
 10
104364.8022830115
 20
-168646.4630517858
 30
0.0
 11
104370.1356163449
 21
-168646.4630517858
 31
0.0
 12
104367.4689496782
 22
-168630.4630517858
 32
0.0
 13
104367.4689496782
 23
-168630.4630517858
 33
0.0
  0
SOLID
  5
DA32B
330
DA2F9
100
AcDbEntity
  8
标注
 48
5.0
100
AcDbTrace
 10
104364.8022830115
 20
-169030.4630517858
 30
0.0
 11
104370.1356163449
 21
-169030.4630517858
 31
0.0
 12
104367.4689496782
 22
-169046.4630517858
 32
0.0
 13
104367.4689496782
 23
-169046.4630517858
 33
0.0
  0
MTEXT
  5
DA32C
330
DA2F9
100
AcDbEntity
  8
标注
 48
5.0
100
AcDbMText
 10
104367.4689496782
 20
-168746.7255505035
 30
0.0
 40
20.0
 41
0.0
 71
     5
 72
     1
  1
\A1;416
 11
0.0000000000000001
 21
1.0
 31
0.0
 73
     1
 44
1.0
1001
ACAD
1000
MTEXTBEGIN
1070
    73
1070
     1
1070
    44
1040
1.0
1070
    74
1070
     0
1000
MTEXTEND
  0
POINT
  5
DA32D
330
DA2F9
100
AcDbEntity
  8
Defpoints
 62
     0
 48
5.0
100
AcDbPoint
 10
104444.9927868596
 20
-168630.4630517858
 30
0.0
  0
POINT
  5
DA32E
330
DA2F9
100
AcDbEntity
  8
Defpoints
 62
     0
 48
5.0
100
AcDbPoint
 10
104444.9927868596
 20
-169046.4630517858
 30
0.0
  0
POINT
  5
DA32F
330
DA2F9
100
AcDbEntity
  8
Defpoints
 62
     0
 48
5.0
100
AcDbPoint
 10
104367.4689496782
 20
-169046.4630517858
 30
0.0
  0
ENDBLK
  5
DA2FB
330
DA2F9
100
AcDbEntity
  8
0
 48
5.0
100
AcDbBlockEnd
  0
BLOCK
  5
DA332
330
DA331
100
AcDbEntity
  8
0
 48
5.0
100
AcDbBlockBegin
  2
*D13
 70
     1
 10
0.0
 20
0.0
 30
0.0
  3
*D13
  1

  0
LINE
  5
DA340
330
DA331
100
AcDbEntity
  8
标注
 48
5.0
370
    -2
100
AcDbLine
 10
104362.4927868496
 20
-168845.4630517858
 30
0.0
 11
104362.4927868496
 21
-168869.3452507713
 31
0.0
  0
LINE
  5
DA341
330
DA331
100
AcDbEntity
  8
标注
 48
5.0
370
    -2
100
AcDbLine
 10
104344.4927868596
 20
-168845.4630517858
 30
0.0
 11
104344.4927868596
 21
-168869.3452507713
 31
0.0
  0
LINE
  5
DA342
330
DA331
100
AcDbEntity
  8
标注
 48
5.0
370
    -2
100
AcDbLine
 10
104378.4927868496
 20
-168862.3452507713
 30
0.0
 11
104394.4927868496
 21
-168862.3452507713
 31
0.0
  0
LINE
  5
DA343
330
DA331
100
AcDbEntity
  8
标注
 48
5.0
370
    -2
100
AcDbLine
 10
104328.4927868596
 20
-168862.3452507713
 30
0.0
 11
104312.4927868596
 21
-168862.3452507713
 31
0.0
  0
LINE
  5
DA344
330
DA331
100
AcDbEntity
  8
标注
 48
5.0
370
    -2
100
AcDbLine
 10
104362.4927868496
 20
-168862.3452507713
 30
0.0
 11
104344.4927868596
 21
-168862.3452507713
 31
0.0
  0
SOLID
  5
DA345
330
DA331
100
AcDbEntity
  8
标注
 48
5.0
100
AcDbTrace
 10
104378.4927868496
 20
-168859.6785841046
 30
0.0
 11
104378.4927868496
 21
-168865.0119174379
 31
0.0
 12
104362.4927868496
 22
-168862.3452507713
 32
0.0
 13
104362.4927868496
 23
-168862.3452507713
 33
0.0
  0
SOLID
  5
DA346
330
DA331
100
AcDbEntity
  8
标注
 48
5.0
100
AcDbTrace
 10
104328.4927868596
 20
-168859.6785841046
 30
0.0
 11
104328.4927868596
 21
-168865.0119174379
 31
0.0
 12
104344.4927868596
 22
-168862.3452507713
 32
0.0
 13
104344.4927868596
 23
-168862.3452507713
 33
0.0
  0
MTEXT
  5
DA347
330
DA331
100
AcDbEntity
  8
标注
 48
5.0
100
AcDbMText
 10
104299.7150090818
 20
-168862.3452507713
 30
0.0
 40
20.0
 41
0.0
 71
     5
 72
     1
  1
\A1;18
 73
     1
 44
1.0
1001
ACAD
1000
MTEXTBEGIN
1070
    73
1070
     1
1070
    44
1040
1.0
1070
    74
1070
     0
1000
MTEXTEND
  0
POINT
  5
DA348
330
DA331
100
AcDbEntity
  8
Defpoints
 62
     0
 48
5.0
100
AcDbPoint
 10
104362.4927868496
 20
-168838.4630517858
 30
0.0
  0
POINT
  5
DA349
330
DA331
100
AcDbEntity
  8
Defpoints
 62
     0
 48
5.0
100
AcDbPoint
 10
104344.4927868596
 20
-168838.4630517858
 30
0.0
  0
POINT
  5
DA34A
330
DA331
100
AcDbEntity
  8
Defpoints
 62
     0
 48
5.0
100
AcDbPoint
 10
104344.4927868596
 20
-168862.3452507713
 30
0.0
  0
ENDBLK
  5
DA333
330
DA331
100
AcDbEntity
  8
0
 48
5.0
100
AcDbBlockEnd
  0
BLOCK
  5
DA34E
330
DA34D
100
AcDbEntity
  8
0
 48
5.0
100
AcDbBlockBegin
  2
*D14
 70
     1
 10
0.0
 20
0.0
 30
0.0
  3
*D14
  1

  0
LINE
  5
DA35C
330
DA34D
100
AcDbEntity
  8
标注
 48
5.0
370
    -2
100
AcDbLine
 10
104362.4927868496
 20
-168845.4630517858
 30
0.0
 11
104362.4927868496
 21
-168893.6642523471
 31
0.0
  0
LINE
  5
DA35D
330
DA34D
100
AcDbEntity
  8
标注
 48
5.0
370
    -2
100
AcDbLine
 10
104444.9927868596
 20
-168845.4630517858
 30
0.0
 11
104444.9927868596
 21
-168893.6642523471
 31
0.0
  0
LINE
  5
DA35E
330
DA34D
100
AcDbEntity
  8
标注
 48
5.0
370
    -2
100
AcDbLine
 10
104346.4927868496
 20
-168886.6642523471
 30
0.0
 11
104330.4927868496
 21
-168886.6642523471
 31
0.0
  0
LINE
  5
DA35F
330
DA34D
100
AcDbEntity
  8
标注
 48
5.0
370
    -2
100
AcDbLine
 10
104460.9927868596
 20
-168886.6642523471
 30
0.0
 11
104476.9927868596
 21
-168886.6642523471
 31
0.0
  0
LINE
  5
DA360
330
DA34D
100
AcDbEntity
  8
标注
 48
5.0
370
    -2
100
AcDbLine
 10
104362.4927868496
 20
-168886.6642523471
 30
0.0
 11
104374.7320556162
 21
-168886.6642523471
 31
0.0
  0
LINE
  5
DA361
330
DA34D
100
AcDbEntity
  8
标注
 48
5.0
370
    -2
100
AcDbLine
 10
104444.9927868596
 20
-168886.6642523471
 30
0.0
 11
104430.6209445051
 21
-168886.6642523471
 31
0.0
  0
SOLID
  5
DA362
330
DA34D
100
AcDbEntity
  8
标注
 48
5.0
100
AcDbTrace
 10
104346.4927868496
 20
-168883.9975856805
 30
0.0
 11
104346.4927868496
 21
-168889.3309190138
 31
0.0
 12
104362.4927868496
 22
-168886.6642523471
 32
0.0
 13
104362.4927868496
 23
-168886.6642523471
 33
0.0
  0
SOLID
  5
DA363
330
DA34D
100
AcDbEntity
  8
标注
 48
5.0
100
AcDbTrace
 10
104460.9927868596
 20
-168883.9975856805
 30
0.0
 11
104460.9927868596
 21
-168889.3309190138
 31
0.0
 12
104444.9927868596
 22
-168886.6642523471
 32
0.0
 13
104444.9927868596
 23
-168886.6642523471
 33
0.0
  0
MTEXT
  5
DA364
330
DA34D
100
AcDbEntity
  8
标注
 48
5.0
100
AcDbMText
 10
104402.6765000607
 20
-168886.6642523471
 30
0.0
 40
20.0
 41
0.0
 71
     5
 72
     1
  1
\A1;82,5
 73
     1
 44
1.0
1001
ACAD
1000
MTEXTBEGIN
1070
    73
1070
     1
1070
    44
1040
1.0
1070
    74
1070
     0
1000
MTEXTEND
  0
POINT
  5
DA365
330
DA34D
100
AcDbEntity
  8
Defpoints
 62
     0
 48
5.0
100
AcDbPoint
 10
104362.4927868496
 20
-168838.4630517858
 30
0.0
  0
POINT
  5
DA366
330
DA34D
100
AcDbEntity
  8
Defpoints
 62
     0
 48
5.0
100
AcDbPoint
 10
104444.9927868596
 20
-168838.4630517858
 30
0.0
  0
POINT
  5
DA367
330
DA34D
100
AcDbEntity
  8
Defpoints
 62
     0
 48
5.0
100
AcDbPoint
 10
104444.9927868596
 20
-168886.6642523471
 30
0.0
  0
ENDBLK
  5
DA34F
330
DA34D
100
AcDbEntity
  8
0
 48
5.0
100
AcDbBlockEnd
  0
BLOCK
  5
DA36A
330
DA369
100
AcDbEntity
  8
0
 48
5.0
100
AcDbBlockBegin
  2
*D15
 70
     1
 10
0.0
 20
0.0
 30
0.0
  3
*D15
  1

  0
LINE
  5
DA382
330
DA369
100
AcDbEntity
  8
标注
 48
5.0
370
    -2
100
AcDbLine
 10
104362.4927868496
 20
-168845.4630517858
 30
0.0
 11
104362.4927868496
 21
-168929.243666782
 31
0.0
  0
LINE
  5
DA383
330
DA369
100
AcDbEntity
  8
标注
 48
5.0
370
    -2
100
AcDbLine
 10
104527.4927868696
 20
-168845.4630517858
 30
0.0
 11
104527.4927868696
 21
-168929.243666782
 31
0.0
  0
LINE
  5
DA384
330
DA369
100
AcDbEntity
  8
标注
 48
5.0
370
    -2
100
AcDbLine
 10
104378.4927868496
 20
-168922.2436667821
 30
0.0
 11
104381.9927868546
 21
-168922.2436667821
 31
0.0
  0
LINE
  5
DA385
330
DA369
100
AcDbEntity
  8
标注
 48
5.0
370
    -2
100
AcDbLine
 10
104511.4927868696
 20
-168922.2436667821
 30
0.0
 11
104421.6594535213
 21
-168922.2436667821
 31
0.0
  0
SOLID
  5
DA386
330
DA369
100
AcDbEntity
  8
标注
 48
5.0
100
AcDbTrace
 10
104378.4927868496
 20
-168919.5770001154
 30
0.0
 11
104378.4927868496
 21
-168924.9103334487
 31
0.0
 12
104362.4927868496
 22
-168922.2436667821
 32
0.0
 13
104362.4927868496
 23
-168922.2436667821
 33
0.0
  0
SOLID
  5
DA387
330
DA369
100
AcDbEntity
  8
标注
 48
5.0
100
AcDbTrace
 10
104511.4927868696
 20
-168919.5770001154
 30
0.0
 11
104511.4927868696
 21
-168924.9103334487
 31
0.0
 12
104527.4927868696
 22
-168922.2436667821
 32
0.0
 13
104527.4927868696
 23
-168922.2436667821
 33
0.0
  0
MTEXT
  5
DA388
330
DA369
100
AcDbEntity
  8
标注
 48
5.0
100
AcDbMText
 10
104401.826120188
 20
-168922.2436667821
 30
0.0
 40
20.0
 41
0.0
 71
     5
 72
     1
  1
\A1;165
 73
     1
 44
1.0
1001
ACAD
1000
MTEXTBEGIN
1070
    73
1070
     1
1070
    44
1040
1.0
1070
    74
1070
     0
1000
MTEXTEND
  0
POINT
  5
DA389
330
DA369
100
AcDbEntity
  8
Defpoints
 62
     0
 48
5.0
100
AcDbPoint
 10
104362.4927868496
 20
-168838.4630517858
 30
0.0
  0
POINT
  5
DA38A
330
DA369
100
AcDbEntity
  8
Defpoints
 62
     0
 48
5.0
100
AcDbPoint
 10
104527.4927868696
 20
-168838.4630517858
 30
0.0
  0
POINT
  5
DA38B
330
DA369
100
AcDbEntity
  8
Defpoints
 62
     0
 48
5.0
100
AcDbPoint
 10
104527.4927868696
 20
-168922.2436667821
 30
0.0
  0
ENDBLK
  5
DA36B
330
DA369
100
AcDbEntity
  8
0
 48
5.0
100
AcDbBlockEnd
  0
ENDSEC
  0
SECTION
  2
ENTITIES
  0
LWPOLYLINE
  5
DA1CF
102
{ACAD_REACTORS
330
DA213
330
DA254
330
DA2BB
102
}
330
1F
100
AcDbEntity
  8
虚线
 48
5.0
100
AcDbPolyline
 90
        8
 70
     1
 43
0.0
 10
104541.4927868596
 20
-168967.4630517858
 10
104541.4927868596
 20
-168709.4630517858
 42
0.4142135623730951
 10
104466.4927868596
 20
-168634.4630517858
 10
104423.4927868596
 20
-168634.4630517858
 42
0.4142135623730951
 10
104348.4927868596
 20
-168709.4630517858
 10
104348.4927868596
 20
-168967.4630517858
 42
0.4142135623730951
 10
104423.4927868596
 20
-169042.4630517858
 10
104466.4927868596
 20
-169042.4630517858
 42
0.4142135623730951
  0
LWPOLYLINE
  5
DA1D7
102
{ACAD_REACTORS
330
DA22D
330
DA26E
330
DA2DD
330
DA311
330
DA34B
102
}
330
1F
100
AcDbEntity
  8
0
100
AcDbPolyline
 90
        8
 70
     1
 43
0.0
 10
104545.4927868596
 20
-168967.4630517858
 10
104545.4927868596
 20
-168709.4630517858
 42
0.4142135623730951
 10
104466.4927868596
 20
-168630.4630517858
 10
104423.4927868596
 20
-168630.4630517858
 42
0.4142135623730951
 10
104344.4927868596
 20
-168709.4630517858
 10
104344.4927868596
 20
-168967.4630517858
 42
0.4142135623730951
 10
104423.4927868596
 20
-169046.4630517858
 10
104466.4927868596
 20
-169046.4630517858
 42
0.4142135623730951
  0
LINE
  5
DA1F1
330
1F
100
AcDbEntity
  8
虚线
 48
5.0
100
AcDbLine
 10
104365.4927868496
 20
-168838.4630517858
 30
0.0
 11
104441.9927868596
 21
-168838.4630517858
 31
0.0
  0
LINE
  5
DA1F2
330
1F
100
AcDbEntity
  8
虚线
 48
5.0
100
AcDbLine
 10
104444.9927868596
 20
-169025.4630517958
 30
0.0
 11
104444.9927868596
 21
-168841.4630517858
 31
0.0
  0
CIRCLE
  5
DA1F3
102
{ACAD_REACTORS
330
DA2F7
102
}
330
1F
100
AcDbEntity
  8
0
100
AcDbCircle
 10
104444.9927868596
 20
-168838.4630517858
 30
0.0
 40
3.0
  0
CIRCLE
  5
DA1F4
102
{ACAD_REACTORS
330
DA381
102
}
330
1F
100
AcDbEntity
  8
0
100
AcDbCircle
 10
104527.4927868696
 20
-168838.4630517858
 30
0.0
 40
3.0
  0
CIRCLE
  5
DA1F5
330
1F
100
AcDbEntity
  8
0
100
AcDbCircle
 10
104444.9927868596
 20
-169028.4630517958
 30
0.0
 40
3.0
  0
CIRCLE
  5
DA1F6
102
{ACAD_REACTORS
330
DA34B
102
}
330
1F
100
AcDbEntity
  8
0
100
AcDbCircle
 10
104362.4927868496
 20
-168838.4630517858
 30
0.0
 40
3.0
  0
CIRCLE
  5
DA1F7
102
{ACAD_REACTORS
330
DA2DD
102
}
330
1F
100
AcDbEntity
  8
0
100
AcDbCircle
 10
104444.9927868596
 20
-168648.4630517758
 30
0.0
 40
3.0
  0
LINE
  5
DA1F8
330
1F
100
AcDbEntity
  8
虚线
 48
5.0
100
AcDbLine
 10
104444.9927868596
 20
-168835.4630517858
 30
0.0
 11
104444.9927868596
 21
-168651.4630517758
 31
0.0
  0
LINE
  5
DA1F9
330
1F
100
AcDbEntity
  8
虚线
 48
5.0
100
AcDbLine
 10
104447.9927868596
 20
-168838.4630517858
 30
0.0
 11
104524.4927868696
 21
-168838.4630517858
 31
0.0
  0
DIMENSION
  5
DA1FA
102
{ACAD_XDICTIONARY
360
DA208
102
}
102
{ACAD_REACTORS
330
DA213
102
}
330
1F
100
AcDbEntity
  8
标注
 48
5.0
100
AcDbDimension
  2
*D3
 10
104541.4927868596
 20
-169093.9852915636
 30
0.0
 11
104444.9927868596
 21
-169093.9852915636
 31
0.0
 70
    32
 71
     5
 42
193.0
  3
副本Standard
100
AcDbAlignedDimension
 13
104348.4927868596
 23
-168967.4630517858
 33
0.0
 14
104541.4927868596
 24
-168967.4630517858
 34
0.0
100
AcDbRotatedDimension
  0
DIMENSION
  5
DA214
102
{ACAD_XDICTIONARY
360
DA222
102
}
102
{ACAD_REACTORS
330
DA22D
102
}
330
1F
100
AcDbEntity
  8
标注
 48
5.0
100
AcDbDimension
  2
*D4
 10
104545.4927868596
 20
-169138.6088131088
 30
0.0
 11
104444.9927868596
 21
-169138.6088131088
 31
0.0
 70
    32
 71
     5
 42
201.0
  3
副本Standard
100
AcDbAlignedDimension
 13
104344.4927868596
 23
-168967.4630517858
 33
0.0
 14
104545.4927868596
 24
-168967.4630517858
 34
0.0
100
AcDbRotatedDimension
  0
DIMENSION
  5
DA22E
330
1F
100
AcDbEntity
  8
标注
 48
5.0
100
AcDbDimension
  2
*D5
 10
104545.4927868596
 20
-169093.9852915636
 30
0.0
 11
104584.6038979707
 21
-169093.9852915636
 31
0.0
 70
    32
 71
     5
 42
4.0
  3
副本Standard
100
AcDbAlignedDimension
 13
104541.4927868596
 23
-169093.9852915636
 33
0.0
 14
104545.4927868596
 24
-169093.9852915636
 34
0.0
100
AcDbRotatedDimension
  0
DIMENSION
  5
DA23B
102
{ACAD_XDICTIONARY
360
DA249
102
}
102
{ACAD_REACTORS
330
DA254
102
}
330
1F
100
AcDbEntity
  8
标注
 48
5.0
100
AcDbDimension
  2
*D6
 10
104591.4520377676
 20
-168634.4630517858
 30
0.0
 11
104591.4520377677
 21
-168838.4630517858
 31
0.0
 70
    32
 71
     5
 42
408.0
  3
副本Standard
100
AcDbAlignedDimension
 13
104466.4927868596
 23
-169042.4630517858
 33
0.0
 14
104466.4927868596
 24
-168634.4630517858
 34
0.0
 50
90.0
100
AcDbRotatedDimension
  0
DIMENSION
  5
DA255
102
{ACAD_XDICTIONARY
360
DA263
102
}
102
{ACAD_REACTORS
330
DA26E
102
}
330
1F
100
AcDbEntity
  8
标注
 48
5.0
100
AcDbDimension
  2
*D7
 10
104634.6469255261
 20
-168630.4630517858
 30
0.0
 11
104634.6469255261
 21
-168838.4630517858
 31
0.0
 70
    32
 71
     5
 42
416.0
  3
副本Standard
100
AcDbAlignedDimension
 13
104466.4927868596
 23
-169046.4630517858
 33
0.0
 14
104466.4927868596
 24
-168630.4630517858
 34
0.0
 50
90.0
100
AcDbRotatedDimension
  0
DIMENSION
  5
DA26F
330
1F
100
AcDbEntity
  8
标注
 48
5.0
100
AcDbDimension
  2
*D8
 10
104591.4520377676
 20
-168630.4630517858
 30
0.0
 11
104591.4520377677
 21
-168591.3519406746
 31
0.0
 70
    32
 71
     5
 42
4.0
  3
副本Standard
100
AcDbAlignedDimension
 13
104591.4520377676
 23
-168634.4630517858
 33
0.0
 14
104591.4520377676
 24
-168630.4630517858
 34
0.0
 50
90.0
100
AcDbRotatedDimension
  0
DIMENSION
  5
DA2AC
102
{ACAD_XDICTIONARY
360
DA2B5
102
}
102
{ACAD_REACTORS
330
DA2BB
102
}
330
1F
100
AcDbEntity
  8
标注
 48
5.0
100
AcDbDimension
  2
*D9
 10
104466.4927868596
 20
-168967.4630517856
 30
0.0
 11
104471.7448446045
 21
-168973.2748501783
 31
0.0
 70
   164
  1
4-<>
 71
     5
 42
75.00000000011643
  3
副本Standard
100
AcDbRadialDimension
 15
104516.7784461187
 25
-169023.1079300126
 35
0.0
 40
0.0
1001
ACAD
1000
DSTYLE
1002
{
1070
   288
1070
     1
1002
}
1001
ACAD_DSTYLE_DIMRADIAL_EXTENSION
1070
   387
1070
     1
1070
   388
1040
4.712388980384688
1070
   390
1040
0.0
  0
DIMENSION
  5
DA2C2
102
{ACAD_XDICTIONARY
360
DA2D1
102
}
102
{ACAD_REACTORS
330
DA2DD
102
}
330
1F
100
AcDbEntity
  8
标注
 48
5.0
100
AcDbDimension
  2
*D10
 10
104404.8372318972
 20
-168630.4630517858
 30
0.0
 11
104404.8372318973
 21
-168585.685274008
 31
0.0
 70
    32
 71
     5
 42
17.99999999001738
  3
副本Standard
100
AcDbAlignedDimension
 13
104444.9927868596
 23
-168648.4630517758
 33
0.0
 14
104444.9927868596
 24
-168630.4630517858
 34
0.0
 50
90.0
100
AcDbRotatedDimension
  0
DIMENSION
  5
DA2DE
102
{ACAD_XDICTIONARY
360
DA2EC
102
}
102
{ACAD_REACTORS
330
DA2F7
102
}
330
1F
100
AcDbEntity
  8
标注
 48
5.0
100
AcDbDimension
  2
*D11
 10
104404.8372318972
 20
-168838.4630517858
 30
0.0
 11
104404.8372318973
 21
-168743.4630517808
 31
0.0
 70
    32
 71
     5
 42
190.0000000100116
  3
副本Standard
100
AcDbAlignedDimension
 13
104444.9927868596
 23
-168648.4630517758
 33
0.0
 14
104444.9927868596
 24
-168838.4630517858
 34
0.0
 50
90.0
100
AcDbRotatedDimension
  0
DIMENSION
  5
DA2F8
102
{ACAD_XDICTIONARY
360
DA306
102
}
102
{ACAD_REACTORS
330
DA311
102
}
330
1F
100
AcDbEntity
  8
标注
 48
5.0
100
AcDbDimension
  2
*D12
 10
104367.4689496782
 20
-169046.4630517858
 30
0.0
 11
104367.4689496782
 21
-168746.7255505035
 31
0.0
 70
   160
 71
     5
 42
416.0
  3
副本Standard
100
AcDbAlignedDimension
 13
104444.9927868596
 23
-168630.4630517858
 33
0.0
 14
104444.9927868596
 24
-169046.4630517858
 34
0.0
 50
90.0
100
AcDbRotatedDimension
  0
DIMENSION
  5
DA330
102
{ACAD_XDICTIONARY
360
DA33F
102
}
102
{ACAD_REACTORS
330
DA34B
102
}
330
1F
100
AcDbEntity
  8
标注
 48
5.0
100
AcDbDimension
  2
*D13
 10
104344.4927868596
 20
-168862.3452507713
 30
0.0
 11
104299.7150090818
 21
-168862.3452507713
 31
0.0
 70
    32
 71
     5
 42
17.99999999000283
  3
副本Standard
100
AcDbAlignedDimension
 13
104362.4927868496
 23
-168838.4630517858
 33
0.0
 14
104344.4927868596
 24
-168838.4630517858
 34
0.0
100
AcDbRotatedDimension
  0
DIMENSION
  5
DA34C
330
1F
100
AcDbEntity
  8
标注
 48
5.0
100
AcDbDimension
  2
*D14
 10
104444.9927868596
 20
-168886.6642523471
 30
0.0
 11
104402.6765000607
 21
-168886.6642523471
 31
0.0
 70
   160
 71
     5
 42
82.50000000999717
  3
副本Standard
100
AcDbAlignedDimension
 13
104362.4927868496
 23
-168838.4630517858
 33
0.0
 14
104444.9927868596
 24
-168838.4630517858
 34
0.0
100
AcDbRotatedDimension
  0
DIMENSION
  5
DA368
102
{ACAD_XDICTIONARY
360
DA376
102
}
102
{ACAD_REACTORS
330
DA381
102
}
330
1F
100
AcDbEntity
  8
标注
 48
5.0
100
AcDbDimension
  2
*D15
 10
104527.4927868696
 20
-168922.2436667821
 30
0.0
 11
104401.826120188
 21
-168922.2436667821
 31
0.0
 70
   160
 71
     5
 42
165.0000000199943
  3
副本Standard
100
AcDbAlignedDimension
 13
104362.4927868496
 23
-168838.4630517858
 33
0.0
 14
104527.4927868696
 24
-168838.4630517858
 34
0.0
100
AcDbRotatedDimension
  0
ENDSEC
  0
SECTION
  2
OBJECTS
  0
DICTIONARY
  5
C
330
0
100
AcDbDictionary
281
     1
  3
ACAD_2007HEADERVARS_RT
350
DA3D8
  3
ACAD_COLOR
350
6C
  3
ACAD_GROUP
350
D
  3
ACAD_LAYOUT
350
1A
  3
ACAD_MATERIAL
350
6B
  3
ACAD_MLEADERSTYLE
350
CEDBA
  3
ACAD_MLINESTYLE
350
17
  3
ACAD_PLOTSETTINGS
350
19
  3
ACAD_PLOTSTYLENAME
350
E
  3
ACAD_SCALELIST
350
CED98
  3
ACAD_TABLESTYLE
350
FAF
  3
ACAD_VISUALSTYLE
350
CED87
  3
AcadDim
350
100FD
  3
ACDB_RECOMPOSE_DATA
350
D0C4C
  3
AcDbVariableDictionary
350
59
  3
ASE_INDEX_DICTIONARY
350
C2668
  3
DWGPROPS
350
DA3D7
  3
lxx_dict
350
A9D16
  0
DICTIONARY
  5
AB
330
2
100
AcDbDictionary
280
     1
281
     1
  3
ACAD_LAYERFILTERS
360
D5CEC
  3
ACAD_LAYERSTATES
360
AC
  3
ACLYDICTIONARY
360
D5CEB
  0
DICTIONARY
  5
CF251
330
10
100
AcDbDictionary
280
     1
281
     1
  3
ADSK_XREC_LAYER_RECONCILED
360
CF252
  0
DICTIONARY
  5
CF259
330
9D
100
AcDbDictionary
280
     1
281
     1
  3
ADSK_XREC_LAYER_RECONCILED
360
CF25A
  0
DICTIONARY
  5
CF25B
330
9E
100
AcDbDictionary
280
     1
281
     1
  3
ADSK_XREC_LAYER_RECONCILED
360
CF25C
  0
DICTIONARY
  5
CF25D
330
16DF9
100
AcDbDictionary
280
     1
281
     1
  3
ADSK_XREC_LAYER_RECONCILED
360
CF25E
  0
DICTIONARY
  5
D81F5
330
D81F4
100
AcDbDictionary
280
     1
281
     1
  0
DICTIONARY
  5
118B
330
1F
100
AcDbDictionary
280
     1
281
     1
  3
ACAD_SORTENTS
360
118C
  0
DICTIONARY
  5
DA1E9
330
DA1E5
100
AcDbDictionary
280
     1
281
     1
  3
ACAD_SORTENTS
360
DA1EA
  0
DICTIONARY
  5
DA208
330
DA1FA
100
AcDbDictionary
280
     1
281
     1
  3
ACAD_DIMASSOC
360
DA213
  0
DICTIONARY
  5
DA222
330
DA214
100
AcDbDictionary
280
     1
281
     1
  3
ACAD_DIMASSOC
360
DA22D
  0
DICTIONARY
  5
DA249
330
DA23B
100
AcDbDictionary
280
     1
281
     1
  3
ACAD_DIMASSOC
360
DA254
  0
DICTIONARY
  5
DA263
330
DA255
100
AcDbDictionary
280
     1
281
     1
  3
ACAD_DIMASSOC
360
DA26E
  0
DICTIONARY
  5
DA2B5
330
DA2AC
100
AcDbDictionary
280
     1
281
     1
  3
ACAD_DIMASSOC
360
DA2BB
  0
DICTIONARY
  5
DA2D1
330
DA2C2
100
AcDbDictionary
280
     1
281
     1
  3
ACAD_DIMASSOC
360
DA2DD
  0
DICTIONARY
  5
DA2EC
330
DA2DE
100
AcDbDictionary
280
     1
281
     1
  3
ACAD_DIMASSOC
360
DA2F7
  0
DICTIONARY
  5
DA306
330
DA2F8
100
AcDbDictionary
280
     1
281
     1
  3
ACAD_DIMASSOC
360
DA311
  0
DICTIONARY
  5
DA33F
330
DA330
100
AcDbDictionary
280
     1
281
     1
  3
ACAD_DIMASSOC
360
DA34B
  0
DICTIONARY
  5
DA376
330
DA368
100
AcDbDictionary
280
     1
281
     1
  3
ACAD_DIMASSOC
360
DA381
  0
DICTIONARY
  5
DA3D8
102
{ACAD_REACTORS
330
C
102
}
330
C
100
AcDbDictionary
281
     1
  3
DIMARCSYM
350
DA3DB
  3
DIMFXL
350
DA3DA
  3
DIMFXLON
350
DA3D9
  3
DIMLTEX1
350
DA3DD
  3
DIMLTEX2
350
DA3DE
  3
DIMLTYPE
350
DA3DC
  0
DICTIONARY
  5
6C
102
{ACAD_REACTORS
330
C
102
}
330
C
100
AcDbDictionary
281
     1
  0
DICTIONARY
  5
D
102
{ACAD_REACTORS
330
C
102
}
330
C
100
AcDbDictionary
281
     1
  0
DICTIONARY
  5
1A
102
{ACAD_REACTORS
330
C
102
}
330
C
100
AcDbDictionary
281
     1
  3
Model
350
22
  3
布局1
350
74
  3
布局2
350
79
  0
DICTIONARY
  5
6B
102
{ACAD_REACTORS
330
C
102
}
330
C
100
AcDbDictionary
281
     1
  3
ByBlock
350
CED77
  3
ByLayer
350
CED6F
  3
Global
350
CED7F
  0
DICTIONARY
  5
CEDBA
102
{ACAD_REACTORS
330
C
102
}
330
C
100
AcDbDictionary
281
     1
  3
Standard
350
CEDBB
  0
DICTIONARY
  5
17
102
{ACAD_REACTORS
330
C
102
}
330
C
100
AcDbDictionary
281
     1
  3
Standard
350
18
  0
DICTIONARY
  5
19
102
{ACAD_REACTORS
330
C
102
}
330
C
100
AcDbDictionary
281
     1
  0
ACDBDICTIONARYWDFLT
  5
E
102
{ACAD_REACTORS
330
C
102
}
330
C
100
AcDbDictionary
281
     1
  3
Normal
350
F
100
AcDbDictionaryWithDefault
340
F
  0
DICTIONARY
  5
CED98
102
{ACAD_REACTORS
330
C
102
}
330
C
100
AcDbDictionary
281
     1
  3
A0
350
CED99
  3
A1
350
CED9A
  3
A2
350
CED9B
  3
A3
350
CED9C
  3
A4
350
CED9D
  3
A5
350
CED9E
  3
A6
350
CED9F
  3
A7
350
CEDA0
  3
A8
350
CEDA1
  3
A9
350
CEDA2
  3
B0
350
CEDA3
  3
B1
350
CEDA4
  3
B2
350
CEDA5
  3
B3
350
CEDA6
  3
B4
350
CEDA7
  3
B5
350
CEDA8
  3
B6
350
CEDA9
  3
B7
350
CEDAA
  3
B8
350
CEDAB
  3
B9
350
CEDAC
  3
C0
350
CEDAD
  3
C1
350
CEDAE
  3
C2
350
CEDAF
  3
C3
350
CEDB0
  3
C4
350
CEDB1
  3
C5
350
CEDB2
  3
C6
350
CEDB3
  3
C7
350
CEDB4
  3
C8
350
CEDB5
  3
C9
350
CEDB6
  3
D0
350
CEDB7
  3
D1
350
CEDB8
  3
D2
350
CEDB9
  0
DICTIONARY
  5
FAF
102
{ACAD_REACTORS
330
C
102
}
330
C
100
AcDbDictionary
281
     1
  3
Standard
350
FB0
  0
DICTIONARY
  5
CED87
102
{ACAD_REACTORS
330
C
102
}
330
C
100
AcDbDictionary
281
     1
  3
2dWireframe
350
CED8D
  3
3D Hidden
350
CED8F
  3
3dWireframe
350
CED8E
  3
Basic
350
CED8C
  3
Brighten
350
CED93
  3
ColorChange
350
CED97
  3
Conceptual
350
CED90
  3
Dim
350
CED92
  3
Facepattern
350
CED96
  3
Flat
350
CED88
  3
FlatWithEdges
350
CED89
  3
Gouraud
350
CED8A
  3
GouraudWithEdges
350
CED8B
  3
Linepattern
350
CED95
  3
Realistic
350
CED91
  3
Thicken
350
CED94
  0
XRECORD
  5
100FD
102
{ACAD_REACTORS
330
C
102
}
330
C
100
AcDbXrecord
280
     1
 90
   990106
  3

 60
     0
 61
     0
 62
     1
 63
     3
 64
     0
 65
     0
 66
     0
 67
     3
 68
     1
 69
     0
 70
     0
 71
     0
 72
     0
 40
0.0
170
     0
  0
XRECORD
  5
D0C4C
102
{ACAD_REACTORS
330
C
102
}
330
C
100
AcDbXrecord
280
     1
 90
        1
330
FB0
  0
DICTIONARY
  5
59
102
{ACAD_REACTORS
330
C
102
}
330
C
100
AcDbDictionary
281
     1
  3
CANNOSCALE
350
D0C4F
  3
CMLEADERSTYLE
350
D0C4D
  3
CTABLESTYLE
350
100D
  3
DIMASSOC
350
5A
  3
HIDETEXT
350
5E
  3
INDEXCTL
350
DA3AE
  3
LIGHTINGUNITS
350
D0C50
  3
MSLTSCALE
350
D0C4E
  3
SORTENTS
350
DA3AD
  0
DICTIONARY
  5
C2668
102
{ACAD_REACTORS
330
C
102
}
330
C
100
AcDbDictionary
281
     1
  3
ASEBlockHierarchyIndexRecord
350
C2669
1001
DCO15
1040
1779131318.625
  0
XRECORD
  5
DA3D7
102
{ACAD_REACTORS
330
C
102
}
330
C
100
AcDbXrecord
280
     1
  1
DWGPROPS COOKIE
  2

  3

  4

  6

  7

  8
Administrator
  9

300
=
301
=
302
=
303
=
304
=
305
=
306
=
307
=
308
=
309
=
 40
9.16965800925926
 41
2454355.343801713
 42
2457938.599428785
  1

 90
        0
  0
DICTIONARY
  5
A9D16
102
{ACAD_REACTORS
330
C
102
}
330
C
100
AcDbDictionary
281
     1
  3
lxx_dimth
350
A9D17
  0
DICTIONARY
  5
D5CEC
102
{ACAD_REACTORS
330
AB
102
}
330
AB
100
AcDbDictionary
281
     1
  0
DICTIONARY
  5
AC
102
{ACAD_REACTORS
330
AB
102
}
330
AB
100
AcDbDictionary
281
     1
  0
DICTIONARY
  5
D5CEB
102
{ACAD_REACTORS
330
AB
102
}
330
AB
100
AcDbDictionary
281
     1
1001
ACAD
1000
<All
  0
XRECORD
  5
CF252
102
{ACAD_REACTORS
330
CF251
102
}
330
CF251
100
AcDbXrecord
280
     1
290
     1
  0
XRECORD
  5
CF25A
102
{ACAD_REACTORS
330
CF259
102
}
330
CF259
100
AcDbXrecord
280
     1
290
     1
  0
XRECORD
  5
CF25C
102
{ACAD_REACTORS
330
CF25B
102
}
330
CF25B
100
AcDbXrecord
280
     1
290
     1
  0
XRECORD
  5
CF25E
102
{ACAD_REACTORS
330
CF25D
102
}
330
CF25D
100
AcDbXrecord
280
     1
290
     1
  0
SORTENTSTABLE
  5
118C
102
{ACAD_REACTORS
330
118B
102
}
330
118B
100
AcDbSortentsTable
330
1F
331
DA1F8
  5
DA1F4
331
DA1F1
  5
DA1F1
331
DA1F9
  5
DA1F2
331
DA1F2
  5
DA1F3
331
DA1F3
  5
DA1F5
331
DA1F4
  5
DA1F6
331
DA1F5
  5
DA1F7
331
DA1F6
  5
DA1F8
331
DA1CF
  5
DA1D6
331
DA1D7
  5
DA1D8
331
DA1F7
  5
DA1F9
  0
SORTENTSTABLE
  5
DA1EA
102
{ACAD_REACTORS
330
DA1E9
102
}
330
DA1E9
100
AcDbSortentsTable
330
DA1E5
  0
DIMASSOC
  5
DA213
102
{ACAD_REACTORS
330
DA208
102
}
330
DA208
100
AcDbDimAssoc
330
DA1FA
 90
        3
 70
     0
 71
     0
  1
AcDbOsnapPointRef
 72
     1
331
DA1CF
 73
     2
 91
        5
 40
1.0
 10
0.0
 20
0.0
 30
2.000000000000000E+50
 75
     0
  1
AcDbOsnapPointRef
 72
     1
331
DA1CF
 73
     2
 91
        8
 40
6.283185307179585
 10
0.0
 20
0.0
 30
2.000000000000000E+50
 75
     0
  0
DIMASSOC
  5
DA22D
102
{ACAD_REACTORS
330
DA222
102
}
330
DA222
100
AcDbDimAssoc
330
DA214
 90
        3
 70
     0
 71
     0
  1
AcDbOsnapPointRef
 72
     6
331
DA1D7
 73
     2
 91
        5
 40
1.0
 10
0.0
 20
0.0
 30
0.0
332
DA1D7
 74
     2
 92
        6
 75
     0
  1
AcDbOsnapPointRef
 72
     8
331
DA1D7
 73
     2
 91
        1
 40
-0.0000000000001128
 10
0.0
 20
0.0
 30
0.0
 75
     1
  1
AcDbOsnapPointRef
 72
     6
331
DA1D7
 73
     2
 91
        5
 40
1.0
 10
0.0
 20
0.0
 30
0.0
332
DA1D7
 74
     2
 92
        6
 75
     0
  0
DIMASSOC
  5
DA254
102
{ACAD_REACTORS
330
DA249
102
}
330
DA249
100
AcDbDimAssoc
330
DA23B
 90
        3
 70
     0
 71
     0
  1
AcDbOsnapPointRef
 72
     1
331
DA1CF
 73
     2
 91
        7
 40
1.0
 10
0.0
 20
0.0
 30
2.000000000000000E+50
 75
     0
  1
AcDbOsnapPointRef
 72
     1
331
DA1CF
 73
     2
 91
        2
 40
1.570796326794896
 10
0.0
 20
0.0
 30
2.000000000000000E+50
 75
     0
  0
DIMASSOC
  5
DA26E
102
{ACAD_REACTORS
330
DA263
102
}
330
DA263
100
AcDbDimAssoc
330
DA255
 90
        3
 70
     0
 71
     0
  1
AcDbOsnapPointRef
 72
     6
331
DA1D7
 73
     2
 91
        7
 40
0.9999999999993232
 10
0.0
 20
0.0
 30
0.0
332
DA1D7
 74
     2
 92
        8
 75
     0
  1
AcDbOsnapPointRef
 72
     8
331
DA1D7
 73
     2
 91
        3
 40
0.0000000000006768
 10
0.0
 20
0.0
 30
0.0
 75
     1
  1
AcDbOsnapPointRef
 72
     6
331
DA1D7
 73
     2
 91
        7
 40
0.9999999999993232
 10
0.0
 20
0.0
 30
0.0
332
DA1D7
 74
     2
 92
        8
 75
     0
  0
DIMASSOC
  5
DA2BB
102
{ACAD_REACTORS
330
DA2B5
102
}
330
DA2B5
100
AcDbDimAssoc
330
DA2AC
 90
        2
 70
     0
 71
     0
  1
AcDbOsnapPointRef
 72
     3
331
DA1CF
 73
     2
 91
        8
 40
0.0
 10
0.0
 20
0.0
 30
0.0
 75
     0
  0
DIMASSOC
  5
DA2DD
102
{ACAD_REACTORS
330
DA2D1
102
}
330
DA2D1
100
AcDbDimAssoc
330
DA2C2
 90
        3
 70
     0
 71
     0
  1
AcDbOsnapPointRef
 72
     3
331
DA1F7
 73
     2
 91
        0
 40
0.0
 10
0.0
 20
0.0
 30
0.0
 75
     0
  1
AcDbOsnapPointRef
 72
     2
331
DA1D7
 73
     2
 91
        3
 40
0.5
 10
0.0
 20
0.0
 30
0.0
 75
     0
  0
DIMASSOC
  5
DA2F7
102
{ACAD_REACTORS
330
DA2EC
102
}
330
DA2EC
100
AcDbDimAssoc
330
DA2DE
 90
        2
 70
     0
 71
     0
  1
AcDbOsnapPointRef
 72
     3
331
DA1F3
 73
     2
 91
        0
 40
0.0
 10
0.0
 20
0.0
 30
0.0
 75
     0
  0
DIMASSOC
  5
DA311
102
{ACAD_REACTORS
330
DA306
102
}
330
DA306
100
AcDbDimAssoc
330
DA2F8
 90
        2
 70
     0
 71
     0
  1
AcDbOsnapPointRef
 72
     2
331
DA1D7
 73
     2
 91
        7
 40
0.5
 10
0.0
 20
0.0
 30
0.0
 75
     0
  0
DIMASSOC
  5
DA34B
102
{ACAD_REACTORS
330
DA33F
102
}
330
DA33F
100
AcDbDimAssoc
330
DA330
 90
        3
 70
     0
 71
     0
  1
AcDbOsnapPointRef
 72
     3
331
DA1F6
 73
     2
 91
        0
 40
0.0
 10
0.0
 20
0.0
 30
0.0
 75
     0
  1
AcDbOsnapPointRef
 72
     2
331
DA1D7
 73
     2
 91
        5
 40
0.5
 10
0.0
 20
0.0
 30
0.0
 75
     0
  0
DIMASSOC
  5
DA381
102
{ACAD_REACTORS
330
DA376
102
}
330
DA376
100
AcDbDimAssoc
330
DA368
 90
        2
 70
     0
 71
     0
  1
AcDbOsnapPointRef
 72
     3
331
DA1F4
 73
     2
 91
        0
 40
0.0
 10
0.0
 20
0.0
 30
0.0
 75
     0
  0
XRECORD
  5
DA3DB
102
{ACAD_REACTORS
330
DA3D8
102
}
330
DA3D8
100
AcDbXrecord
280
     1
 70
     1
  0
XRECORD
  5
DA3DA
102
{ACAD_REACTORS
330
DA3D8
102
}
330
DA3D8
100
AcDbXrecord
280
     1
 40
1.25
  0
XRECORD
  5
DA3D9
102
{ACAD_REACTORS
330
DA3D8
102
}
330
DA3D8
100
AcDbXrecord
280
     1
290
     1
  0
XRECORD
  5
DA3DD
102
{ACAD_REACTORS
330
DA3D8
102
}
330
DA3D8
100
AcDbXrecord
280
     1
340
14
  0
XRECORD
  5
DA3DE
102
{ACAD_REACTORS
330
DA3D8
102
}
330
DA3D8
100
AcDbXrecord
280
     1
340
14
  0
XRECORD
  5
DA3DC
102
{ACAD_REACTORS
330
DA3D8
102
}
330
DA3D8
100
AcDbXrecord
280
     1
340
14
  0
LAYOUT
  5
22
102
{ACAD_XDICTIONARY
360
DA3DF
102
}
102
{ACAD_REACTORS
330
1A
102
}
330
1A
100
AcDbPlotSettings
  1

  2
\\PC-201204061032\Canon LBP2900
  4
A4
  6

 40
5.873749732971191
 41
6.805091857910156
 42
5.873748779296875
 43
4.857757568359375
 44
209.9733276367186
 45
296.9259948730469
 46
-5.889999999999998
 47
-5.87
 48
85766.02374884076
 49
-163980.7810393121
140
88736.02374884079
141
-161880.7810393122
142
1.0
143
10.0
 70
 11940
 72
     1
 73
     1
 74
     4
  7
monochrome.ctb
 75
     0
147
0.1
148
-85766.02374884076
149
163980.7810393121
100
AcDbLayout
  1
Model
 70
     1
 71
     0
 10
0.0
 20
0.0
 11
12.0
 21
9.0
 12
0.0
 22
0.0
 32
0.0
 14
0.0
 24
0.0
 34
0.0
 15
0.0
 25
0.0
 35
0.0
146
0.0
 13
0.0
 23
0.0
 33
0.0
 16
1.0
 26
0.0
 36
0.0
 17
0.0
 27
1.0
 37
0.0
 76
     0
330
1F
331
CED6D
  0
LAYOUT
  5
74
102
{ACAD_XDICTIONARY
360
DA3E1
102
}
102
{ACAD_REACTORS
330
1A
102
}
330
1A
100
AcDbPlotSettings
  1

  2
\\ADSCCNDC1\hq601xrx1
  4

  6

 40
0.0
 41
0.0
 42
0.0
 43
0.0
 44
0.0
 45
0.0
 46
0.0
 47
0.0
 48
0.0
 49
0.0
140
0.0
141
0.0
142
1.0
143
1.0
 70
   688
 72
     0
 73
     0
 74
     5
  7
monochrome.ctb
 75
    16
147
1.0
148
0.0
149
0.0
100
AcDbLayout
  1
布局1
 70
     1
 71
     1
 10
0.0
 20
0.0
 11
12.0
 21
9.0
 12
0.0
 22
0.0
 32
0.0
 14
0.0
 24
0.0
 34
0.0
 15
0.0
 25
0.0
 35
0.0
146
0.0
 13
0.0
 23
0.0
 33
0.0
 16
1.0
 26
0.0
 36
0.0
 17
0.0
 27
1.0
 37
0.0
 76
     0
330
73
  0
LAYOUT
  5
79
102
{ACAD_XDICTIONARY
360
DA3E3
102
}
102
{ACAD_REACTORS
330
1A
102
}
330
1A
100
AcDbPlotSettings
  1

  2
\\ADSCCNDC1\hq601xrx1
  4

  6

 40
0.0
 41
0.0
 42
0.0
 43
0.0
 44
0.0
 45
0.0
 46
0.0
 47
0.0
 48
0.0
 49
0.0
140
0.0
141
0.0
142
1.0
143
1.0
 70
   688
 72
     0
 73
     0
 74
     5
  7
monochrome.ctb
 75
    16
147
1.0
148
0.0
149
0.0
100
AcDbLayout
  1
布局2
 70
     1
 71
     2
 10
0.0
 20
0.0
 11
12.0
 21
9.0
 12
0.0
 22
0.0
 32
0.0
 14
0.0
 24
0.0
 34
0.0
 15
0.0
 25
0.0
 35
0.0
146
0.0
 13
0.0
 23
0.0
 33
0.0
 16
1.0
 26
0.0
 36
0.0
 17
0.0
 27
1.0
 37
0.0
 76
     0
330
78
  0
MATERIAL
  5
CED77
102
{ACAD_XDICTIONARY
360
CED78
102
}
102
{ACAD_REACTORS
330
6B
102
}
330
6B
100
AcDbMaterial
  1
ByBlock
 72
     0
 43
0.0208333333333333
 43
0.0
 43
0.0
 43
0.0
 43
0.0
 43
0.0208333333333333
 43
0.0
 43
0.0
 43
0.0
 43
0.0
 43
1.0
 43
0.0
 43
0.0
 43
0.0
 43
0.0
 43
1.0
 77
     0
 47
0.0208333333333333
 47
0.0
 47
0.0
 47
0.0
 47
0.0
 47
0.0208333333333333
 47
0.0
 47
0.0
 47
0.0
 47
0.0
 47
1.0
 47
0.0
 47
0.0
 47
0.0
 47
0.0
 47
1.0
171
     0
 49
0.0208333333333333
 49
0.0
 49
0.0
 49
0.0
 49
0.0
 49
0.0208333333333333
 49
0.0
 49
0.0
 49
0.0
 49
0.0
 49
1.0
 49
0.0
 49
0.0
 49
0.0
 49
0.0
 49
1.0
175
     0
142
0.0208333333333333
142
0.0
142
0.0
142
0.0
142
0.0
142
0.0208333333333333
142
0.0
142
0.0
142
0.0
142
0.0
142
1.0
142
0.0
142
0.0
142
0.0
142
0.0
142
1.0
179
     0
144
0.0208333333333333
144
0.0
144
0.0
144
0.0
144
0.0
144
0.0208333333333333
144
0.0
144
0.0
144
0.0
144
0.0
144
1.0
144
0.0
144
0.0
144
0.0
144
0.0
144
1.0
147
0.0208333333333333
147
0.0
147
0.0
147
0.0
147
0.0
147
0.0208333333333333
147
0.0
147
0.0
147
0.0
147
0.0
147
1.0
147
0.0
147
0.0
147
0.0
147
0.0
147
1.0
  0
MATERIAL
  5
CED6F
102
{ACAD_XDICTIONARY
360
CED70
102
}
102
{ACAD_REACTORS
330
6B
102
}
330
6B
100
AcDbMaterial
  1
ByLayer
 72
     0
 43
0.0208333333333333
 43
0.0
 43
0.0
 43
0.0
 43
0.0
 43
0.0208333333333333
 43
0.0
 43
0.0
 43
0.0
 43
0.0
 43
1.0
 43
0.0
 43
0.0
 43
0.0
 43
0.0
 43
1.0
 77
     0
 47
0.0208333333333333
 47
0.0
 47
0.0
 47
0.0
 47
0.0
 47
0.0208333333333333
 47
0.0
 47
0.0
 47
0.0
 47
0.0
 47
1.0
 47
0.0
 47
0.0
 47
0.0
 47
0.0
 47
1.0
171
     0
 49
0.0208333333333333
 49
0.0
 49
0.0
 49
0.0
 49
0.0
 49
0.0208333333333333
 49
0.0
 49
0.0
 49
0.0
 49
0.0
 49
1.0
 49
0.0
 49
0.0
 49
0.0
 49
0.0
 49
1.0
175
     0
142
0.0208333333333333
142
0.0
142
0.0
142
0.0
142
0.0
142
0.0208333333333333
142
0.0
142
0.0
142
0.0
142
0.0
142
1.0
142
0.0
142
0.0
142
0.0
142
0.0
142
1.0
179
     0
144
0.0208333333333333
144
0.0
144
0.0
144
0.0
144
0.0
144
0.0208333333333333
144
0.0
144
0.0
144
0.0
144
0.0
144
1.0
144
0.0
144
0.0
144
0.0
144
0.0
144
1.0
147
0.0208333333333333
147
0.0
147
0.0
147
0.0
147
0.0
147
0.0208333333333333
147
0.0
147
0.0
147
0.0
147
0.0
147
1.0
147
0.0
147
0.0
147
0.0
147
0.0
147
1.0
  0
MATERIAL
  5
CED7F
102
{ACAD_XDICTIONARY
360
CED80
102
}
102
{ACAD_REACTORS
330
6B
102
}
330
6B
100
AcDbMaterial
  1
Global
 72
     0
 43
0.0208333333333333
 43
0.0
 43
0.0
 43
0.0
 43
0.0
 43
0.0208333333333333
 43
0.0
 43
0.0
 43
0.0
 43
0.0
 43
1.0
 43
0.0
 43
0.0
 43
0.0
 43
0.0
 43
1.0
 77
     0
 47
0.0208333333333333
 47
0.0
 47
0.0
 47
0.0
 47
0.0
 47
0.0208333333333333
 47
0.0
 47
0.0
 47
0.0
 47
0.0
 47
1.0
 47
0.0
 47
0.0
 47
0.0
 47
0.0
 47
1.0
171
     0
 49
0.0208333333333333
 49
0.0
 49
0.0
 49
0.0
 49
0.0
 49
0.0208333333333333
 49
0.0
 49
0.0
 49
0.0
 49
0.0
 49
1.0
 49
0.0
 49
0.0
 49
0.0
 49
0.0
 49
1.0
175
     0
142
0.0208333333333333
142
0.0
142
0.0
142
0.0
142
0.0
142
0.0208333333333333
142
0.0
142
0.0
142
0.0
142
0.0
142
1.0
142
0.0
142
0.0
142
0.0
142
0.0
142
1.0
179
     0
144
0.0208333333333333
144
0.0
144
0.0
144
0.0
144
0.0
144
0.0208333333333333
144
0.0
144
0.0
144
0.0
144
0.0
144
1.0
144
0.0
144
0.0
144
0.0
144
0.0
144
1.0
147
0.0208333333333333
147
0.0
147
0.0
147
0.0
147
0.0
147
0.0208333333333333
147
0.0
147
0.0
147
0.0
147
0.0
147
1.0
147
0.0
147
0.0
147
0.0
147
0.0
147
1.0
  0
MLEADERSTYLE
  5
CEDBB
102
{ACAD_REACTORS
330
CEDBA
102
}
330
CEDBA
100
AcDbMLeaderStyle
170
     2
171
     1
172
     0
 90
        2
 40
0.0
 41
0.0
173
     1
 91
-1056964608
340
14
 92
       -2
290
     1
 42
0.09
291
     1
 43
0.36
  3
Standard
 44
0.18
300

342
11
174
     1
178
     6
175
     1
176
     0
 93
-1056964608
 45
0.18
292
     0
297
     0
 46
0.18
 94
-1056964608
 47
1.0
 49
1.0
140
1.0
293
     1
141
0.0
294
     1
177
     0
142
1.0
295
     0
296
     0
143
0.125
1001
ACAD_MLEADERVER
1070
     2
  0
MLINESTYLE
  5
18
102
{ACAD_REACTORS
330
17
102
}
330
17
100
AcDbMlineStyle
  2
STANDARD
 70
     0
  3

 62
   256
 51
90.0
 52
90.0
 71
     2
 49
0.5
 62
   256
  6
BYLAYER
 49
-0.5
 62
   256
  6
BYLAYER
  0
ACDBPLACEHOLDER
  5
F
102
{ACAD_REACTORS
330
E
102
}
330
E
  0
SCALE
  5
CED99
102
{ACAD_REACTORS
330
CED98
102
}
330
CED98
100
AcDbScale
 70
     0
300
1:1
140
1.0
141
1.0
290
     1
  0
SCALE
  5
CED9A
102
{ACAD_REACTORS
330
CED98
102
}
330
CED98
100
AcDbScale
 70
     0
300
1:2
140
1.0
141
2.0
290
     0
  0
SCALE
  5
CED9B
102
{ACAD_REACTORS
330
CED98
102
}
330
CED98
100
AcDbScale
 70
     0
300
1:4
140
1.0
141
4.0
290
     0
  0
SCALE
  5
CED9C
102
{ACAD_REACTORS
330
CED98
102
}
330
CED98
100
AcDbScale
 70
     0
300
1:5
140
1.0
141
5.0
290
     0
  0
SCALE
  5
CED9D
102
{ACAD_REACTORS
330
CED98
102
}
330
CED98
100
AcDbScale
 70
     0
300
1:8
140
1.0
141
8.0
290
     0
  0
SCALE
  5
CED9E
102
{ACAD_REACTORS
330
CED98
102
}
330
CED98
100
AcDbScale
 70
     0
300
1:10
140
1.0
141
10.0
290
     0
  0
SCALE
  5
CED9F
102
{ACAD_REACTORS
330
CED98
102
}
330
CED98
100
AcDbScale
 70
     0
300
1:16
140
1.0
141
16.0
290
     0
  0
SCALE
  5
CEDA0
102
{ACAD_REACTORS
330
CED98
102
}
330
CED98
100
AcDbScale
 70
     0
300
1:20
140
1.0
141
20.0
290
     0
  0
SCALE
  5
CEDA1
102
{ACAD_REACTORS
330
CED98
102
}
330
CED98
100
AcDbScale
 70
     0
300
1:30
140
1.0
141
30.0
290
     0
  0
SCALE
  5
CEDA2
102
{ACAD_REACTORS
330
CED98
102
}
330
CED98
100
AcDbScale
 70
     0
300
1:40
140
1.0
141
40.0
290
     0
  0
SCALE
  5
CEDA3
102
{ACAD_REACTORS
330
CED98
102
}
330
CED98
100
AcDbScale
 70
     0
300
1:50
140
1.0
141
50.0
290
     0
  0
SCALE
  5
CEDA4
102
{ACAD_REACTORS
330
CED98
102
}
330
CED98
100
AcDbScale
 70
     0
300
1:100
140
1.0
141
100.0
290
     0
  0
SCALE
  5
CEDA5
102
{ACAD_REACTORS
330
CED98
102
}
330
CED98
100
AcDbScale
 70
     0
300
2:1
140
2.0
141
1.0
290
     0
  0
SCALE
  5
CEDA6
102
{ACAD_REACTORS
330
CED98
102
}
330
CED98
100
AcDbScale
 70
     0
300
4:1
140
4.0
141
1.0
290
     0
  0
SCALE
  5
CEDA7
102
{ACAD_REACTORS
330
CED98
102
}
330
CED98
100
AcDbScale
 70
     0
300
8:1
140
8.0
141
1.0
290
     0
  0
SCALE
  5
CEDA8
102
{ACAD_REACTORS
330
CED98
102
}
330
CED98
100
AcDbScale
 70
     0
300
10:1
140
10.0
141
1.0
290
     0
  0
SCALE
  5
CEDA9
102
{ACAD_REACTORS
330
CED98
102
}
330
CED98
100
AcDbScale
 70
     0
300
100:1
140
100.0
141
1.0
290
     0
  0
SCALE
  5
CEDAA
102
{ACAD_REACTORS
330
CED98
102
}
330
CED98
100
AcDbScale
 70
     0
300
1/128" = 1'-0"
140
0.0078125
141
12.0
290
     0
  0
SCALE
  5
CEDAB
102
{ACAD_REACTORS
330
CED98
102
}
330
CED98
100
AcDbScale
 70
     0
300
1/64" = 1'-0"
140
0.015625
141
12.0
290
     0
  0
SCALE
  5
CEDAC
102
{ACAD_REACTORS
330
CED98
102
}
330
CED98
100
AcDbScale
 70
     0
300
1/32" = 1'-0"
140
0.03125
141
12.0
290
     0
  0
SCALE
  5
CEDAD
102
{ACAD_REACTORS
330
CED98
102
}
330
CED98
100
AcDbScale
 70
     0
300
1/16" = 1'-0"
140
0.0625
141
12.0
290
     0
  0
SCALE
  5
CEDAE
102
{ACAD_REACTORS
330
CED98
102
}
330
CED98
100
AcDbScale
 70
     0
300
3/32" = 1'-0"
140
0.09375
141
12.0
290
     0
  0
SCALE
  5
CEDAF
102
{ACAD_REACTORS
330
CED98
102
}
330
CED98
100
AcDbScale
 70
     0
300
1/8" = 1'-0"
140
0.125
141
12.0
290
     0
  0
SCALE
  5
CEDB0
102
{ACAD_REACTORS
330
CED98
102
}
330
CED98
100
AcDbScale
 70
     0
300
3/16" = 1'-0"
140
0.1875
141
12.0
290
     0
  0
SCALE
  5
CEDB1
102
{ACAD_REACTORS
330
CED98
102
}
330
CED98
100
AcDbScale
 70
     0
300
1/4" = 1'-0"
140
0.25
141
12.0
290
     0
  0
SCALE
  5
CEDB2
102
{ACAD_REACTORS
330
CED98
102
}
330
CED98
100
AcDbScale
 70
     0
300
3/8" = 1'-0"
140
0.375
141
12.0
290
     0
  0
SCALE
  5
CEDB3
102
{ACAD_REACTORS
330
CED98
102
}
330
CED98
100
AcDbScale
 70
     0
300
1/2" = 1'-0"
140
0.5
141
12.0
290
     0
  0
SCALE
  5
CEDB4
102
{ACAD_REACTORS
330
CED98
102
}
330
CED98
100
AcDbScale
 70
     0
300
3/4" = 1'-0"
140
0.75
141
12.0
290
     0
  0
SCALE
  5
CEDB5
102
{ACAD_REACTORS
330
CED98
102
}
330
CED98
100
AcDbScale
 70
     0
300
1" = 1'-0"
140
1.0
141
12.0
290
     0
  0
SCALE
  5
CEDB6
102
{ACAD_REACTORS
330
CED98
102
}
330
CED98
100
AcDbScale
 70
     0
300
1-1/2" = 1'-0"
140
1.5
141
12.0
290
     0
  0
SCALE
  5
CEDB7
102
{ACAD_REACTORS
330
CED98
102
}
330
CED98
100
AcDbScale
 70
     0
300
3" = 1'-0"
140
3.0
141
12.0
290
     0
  0
SCALE
  5
CEDB8
102
{ACAD_REACTORS
330
CED98
102
}
330
CED98
100
AcDbScale
 70
     0
300
6" = 1'-0"
140
6.0
141
12.0
290
     0
  0
SCALE
  5
CEDB9
102
{ACAD_REACTORS
330
CED98
102
}
330
CED98
100
AcDbScale
 70
     0
300
1'-0" = 1'-0"
140
12.0
141
12.0
290
     0
  0
TABLESTYLE
  5
FB0
102
{ACAD_XDICTIONARY
360
D0C45
102
}
102
{ACAD_REACTORS
330
FAF
102
}
330
FAF
100
AcDbTableStyle
  3
Standard
 70
     0
 71
     0
 40
0.06
 41
0.06
280
     0
281
     0
  7
Standard
140
0.18
170
     2
 62
     0
 63
     7
283
     0
274
    -2
284
     1
 64
     0
275
    -2
285
     1
 65
     0
276
    -2
286
     1
 66
     0
277
    -2
287
     1
 67
     0
278
    -2
288
     1
 68
     0
279
    -2
289
     1
 69
     0
  7
Standard
140
0.25
170
     5
 62
     0
 63
     7
283
     0
274
    -2
284
     1
 64
     0
275
    -2
285
     1
 65
     0
276
    -2
286
     1
 66
     0
277
    -2
287
     1
 67
     0
278
    -2
288
     1
 68
     0
279
    -2
289
     1
 69
     0
  7
Standard
140
0.18
170
     5
 62
     0
 63
     7
283
     0
274
    -2
284
     1
 64
     0
275
    -2
285
     1
 65
     0
276
    -2
286
     1
 66
     0
277
    -2
287
     1
 67
     0
278
    -2
288
     1
 68
     0
279
    -2
289
     1
 69
     0
  0
VISUALSTYLE
  5
CED8D
102
{ACAD_REACTORS
330
CED87
102
}
330
CED87
100
AcDbVisualStyle
  2
2dWireframe
 70
     4
 71
     0
 72
     2
 73
     0
 90
        0
 40
-0.6
 41
-30.0
 62
     5
 63
     7
 74
     1
 91
        4
 64
     7
 65
   257
 75
     1
175
     1
 42
1.0
 92
        0
 66
   257
 43
1.0
 76
     1
 77
     6
 78
     2
 67
     7
 79
     5
170
     0
171
     0
290
     0
174
     0
 93
        1
 44
0.0
173
     0
291
     0
 45
0.0
1001
ACAD
1000
AcDbSavedByObjectVersion
1070
     0
1000
AcDbSavedByObjectVersion
1070
     0
  0
VISUALSTYLE
  5
CED8F
102
{ACAD_REACTORS
330
CED87
102
}
330
CED87
100
AcDbVisualStyle
  2
3D Hidden
 70
     6
 71
     1
 72
     2
 73
     2
 90
        0
 40
-0.6
 41
-30.0
 62
     5
 63
     7
 74
     2
 91
        2
 64
     7
 65
   257
 75
     2
175
     1
 42
40.0
 92
        0
 66
   257
 43
1.0
 76
     1
 77
     6
 78
     2
 67
     7
 79
     3
170
     0
171
     0
290
     0
174
     0
 93
        1
 44
0.0
173
     0
291
     0
 45
0.0
1001
ACAD
1000
AcDbSavedByObjectVersion
1070
     0
1000
AcDbSavedByObjectVersion
1070
     0
  0
VISUALSTYLE
  5
CED8E
102
{ACAD_REACTORS
330
CED87
102
}
330
CED87
100
AcDbVisualStyle
  2
3dWireframe
 70
     5
 71
     0
 72
     2
 73
     0
 90
        0
 40
-0.6
 41
-30.0
 62
     5
 63
     7
 74
     1
 91
        4
 64
     7
 65
   257
 75
     1
175
     1
 42
1.0
 92
        0
 66
   257
 43
1.0
 76
     1
 77
     6
 78
     2
 67
     7
 79
     5
170
     0
171
     0
290
     0
174
     0
 93
        1
 44
0.0
173
     0
291
     0
 45
0.0
1001
ACAD
1000
AcDbSavedByObjectVersion
1070
     0
1000
AcDbSavedByObjectVersion
1070
     0
  0
VISUALSTYLE
  5
CED8C
102
{ACAD_REACTORS
330
CED87
102
}
330
CED87
100
AcDbVisualStyle
  2
Basic
 70
     7
 71
     1
 72
     0
 73
     1
 90
        0
 40
-0.6
 41
-30.0
 62
     5
 63
     7
 74
     0
 91
        4
 64
     7
 65
   257
 75
     1
175
     1
 42
1.0
 92
        8
 66
     7
 43
1.0
 76
     1
 77
     6
 78
     2
 67
     7
 79
     5
170
     0
171
     0
290
     0
174
     0
 93
        1
 44
0.0
173
     0
291
     1
 45
0.0
1001
ACAD
1000
AcDbSavedByObjectVersion
1070
     0
1000
AcDbSavedByObjectVersion
1070
     0
  0
VISUALSTYLE
  5
CED93
102
{ACAD_REACTORS
330
CED87
102
}
330
CED87
100
AcDbVisualStyle
  2
Brighten
 70
    12
 71
     2
 72
     2
 73
     0
 90
        0
 40
-0.6
 41
-30.0
 62
     5
 63
     7
 74
     1
 91
        4
 64
     7
 65
   257
 75
     1
175
     1
 42
1.0
 92
        8
 66
     7
 43
1.0
 76
     1
 77
     6
 78
     2
 67
     7
 79
     5
170
     0
171
     0
290
     0
174
     0
 93
        1
 44
50.0
173
     0
291
     1
 45
0.0
1001
ACAD
1000
AcDbSavedByObjectVersion
1070
     0
1000
AcDbSavedByObjectVersion
1070
     0
  0
VISUALSTYLE
  5
CED97
102
{ACAD_REACTORS
330
CED87
102
}
330
CED87
100
AcDbVisualStyle
  2
ColorChange
 70
    16
 71
     2
 72
     2
 73
     3
 90
        0
 40
-0.6
 41
-30.0
 62
     5
 63
     8
 74
     1
 91
        4
 64
     7
 65
   257
 75
     1
175
     1
 42
1.0
 92
        8
 66
     8
 43
1.0
 76
     1
 77
     6
 78
     2
 67
     7
 79
     5
170
     0
171
     0
290
     0
174
     0
 93
        1
 44
0.0
173
     0
291
     1
 45
0.0
1001
ACAD
1000
AcDbSavedByObjectVersion
1070
     0
1000
AcDbSavedByObjectVersion
1070
     0
  0
VISUALSTYLE
  5
CED90
102
{ACAD_REACTORS
330
CED87
102
}
330
CED87
100
AcDbVisualStyle
  2
Conceptual
 70
     9
 71
     3
 72
     2
 73
     0
 90
        0
 40
-0.6
 41
-30.0
 62
     5
 63
     7
 74
     2
 91
        2
 64
     7
 65
   257
 75
     1
175
     1
 42
40.0
 92
        8
 66
     7
 43
1.0
 76
     1
 77
     6
 78
     2
 67
     7
 79
     3
170
     0
171
     0
290
     0
174
     0
 93
        1
 44
0.0
173
     0
291
     0
 45
0.0
1001
ACAD
1000
AcDbSavedByObjectVersion
1070
     0
1000
AcDbSavedByObjectVersion
1070
     0
  0
VISUALSTYLE
  5
CED92
102
{ACAD_REACTORS
330
CED87
102
}
330
CED87
100
AcDbVisualStyle
  2
Dim
 70
    11
 71
     2
 72
     2
 73
     0
 90
        0
 40
-0.6
 41
-30.0
 62
     5
 63
     7
 74
     1
 91
        4
 64
     7
 65
   257
 75
     1
175
     1
 42
1.0
 92
        8
 66
     7
 43
1.0
 76
     1
 77
     6
 78
     2
 67
     7
 79
     5
170
     0
171
     0
290
     0
174
     0
 93
        1
 44
-50.0
173
     0
291
     1
 45
0.0
1001
ACAD
1000
AcDbSavedByObjectVersion
1070
     0
1000
AcDbSavedByObjectVersion
1070
     0
  0
VISUALSTYLE
  5
CED96
102
{ACAD_REACTORS
330
CED87
102
}
330
CED87
100
AcDbVisualStyle
  2
Facepattern
 70
    15
 71
     2
 72
     2
 73
     0
 90
        0
 40
-0.6
 41
-30.0
 62
     5
 63
     7
 74
     1
 91
        4
 64
     7
 65
   257
 75
     1
175
     1
 42
1.0
 92
        8
 66
     7
 43
1.0
 76
     1
 77
     6
 78
     2
 67
     7
 79
     5
170
     0
171
     0
290
     0
174
     0
 93
        1
 44
0.0
173
     0
291
     1
 45
0.0
1001
ACAD
1000
AcDbSavedByObjectVersion
1070
     0
1000
AcDbSavedByObjectVersion
1070
     0
  0
VISUALSTYLE
  5
CED88
102
{ACAD_REACTORS
330
CED87
102
}
330
CED87
100
AcDbVisualStyle
  2
Flat
 70
     0
 71
     2
 72
     1
 73
     1
 90
        2
 40
-0.6
 41
30.0
 62
     5
 63
     7
 74
     0
 91
        4
 64
     7
 65
   257
 75
     1
175
     1
 42
1.0
 92
        8
 66
     7
 43
1.0
 76
     1
 77
     6
 78
     2
 67
     7
 79
     5
170
     0
171
     0
290
     0
174
     0
 93
       13
 44
0.0
173
     0
291
     1
 45
0.0
1001
ACAD
1000
AcDbSavedByObjectVersion
1070
     0
1000
AcDbSavedByObjectVersion
1070
     0
  0
VISUALSTYLE
  5
CED89
102
{ACAD_REACTORS
330
CED87
102
}
330
CED87
100
AcDbVisualStyle
  2
FlatWithEdges
 70
     1
 71
     2
 72
     1
 73
     1
 90
        2
 40
-0.6
 41
30.0
 62
     5
 63
     7
 74
     1
 91
        4
 64
     7
 65
   257
 75
     1
175
     1
 42
1.0
 92
        0
 66
   257
 43
1.0
 76
     1
 77
     6
 78
     2
 67
     7
 79
     5
170
     0
171
     0
290
     0
174
     0
 93
       13
 44
0.0
173
     0
291
     1
 45
0.0
1001
ACAD
1000
AcDbSavedByObjectVersion
1070
     0
1000
AcDbSavedByObjectVersion
1070
     0
  0
VISUALSTYLE
  5
CED8A
102
{ACAD_REACTORS
330
CED87
102
}
330
CED87
100
AcDbVisualStyle
  2
Gouraud
 70
     2
 71
     2
 72
     2
 73
     1
 90
        2
 40
-0.6
 41
30.0
 62
     5
 63
     7
 74
     0
 91
        4
 64
     7
 65
   257
 75
     1
175
     1
 42
1.0
 92
        0
 66
     7
 43
1.0
 76
     1
 77
     6
 78
     2
 67
     7
 79
     5
170
     0
171
     0
290
     0
174
     0
 93
       13
 44
0.0
173
     0
291
     1
 45
0.0
1001
ACAD
1000
AcDbSavedByObjectVersion
1070
     0
1000
AcDbSavedByObjectVersion
1070
     0
  0
VISUALSTYLE
  5
CED8B
102
{ACAD_REACTORS
330
CED87
102
}
330
CED87
100
AcDbVisualStyle
  2
GouraudWithEdges
 70
     3
 71
     2
 72
     2
 73
     1
 90
        2
 40
-0.6
 41
30.0
 62
     5
 63
     7
 74
     1
 91
        4
 64
     7
 65
   257
 75
     1
175
     1
 42
1.0
 92
        0
 66
   257
 43
1.0
 76
     1
 77
     6
 78
     2
 67
     7
 79
     5
170
     0
171
     0
290
     0
174
     0
 93
       13
 44
0.0
173
     0
291
     1
 45
0.0
1001
ACAD
1000
AcDbSavedByObjectVersion
1070
     0
1000
AcDbSavedByObjectVersion
1070
     0
  0
VISUALSTYLE
  5
CED95
102
{ACAD_REACTORS
330
CED87
102
}
330
CED87
100
AcDbVisualStyle
  2
Linepattern
 70
    14
 71
     2
 72
     2
 73
     0
 90
        0
 40
-0.6
 41
-30.0
 62
     5
 63
     7
 74
     1
 91
        4
 64
     7
 65
   257
 75
     7
175
     7
 42
1.0
 92
        8
 66
     7
 43
1.0
 76
     1
 77
     6
 78
     2
 67
     7
 79
     5
170
     0
171
     0
290
     0
174
     0
 93
        1
 44
0.0
173
     0
291
     1
 45
0.0
1001
ACAD
1000
AcDbSavedByObjectVersion
1070
     0
1000
AcDbSavedByObjectVersion
1070
     0
  0
VISUALSTYLE
  5
CED91
102
{ACAD_REACTORS
330
CED87
102
}
330
CED87
100
AcDbVisualStyle
  2
Realistic
 70
     8
 71
     2
 72
     2
 73
     0
 90
        0
 40
-0.6
 41
-30.0
 62
     5
 63
     7
 74
     1
 91
        0
 64
     7
 65
   257
 75
     1
175
     1
 42
1.0
 92
        8
 66
     8
 43
1.0
 76
     1
 77
     6
 78
     2
 67
     7
 79
     5
170
     0
171
     0
290
     0
174
     0
 93
       13
 44
0.0
173
     0
291
     0
 45
0.0
1001
ACAD
1000
AcDbSavedByObjectVersion
1070
     0
1000
AcDbSavedByObjectVersion
1070
     0
  0
VISUALSTYLE
  5
CED94
102
{ACAD_REACTORS
330
CED87
102
}
330
CED87
100
AcDbVisualStyle
  2
Thicken
 70
    13
 71
     2
 72
     2
 73
     0
 90
        0
 40
-0.6
 41
-30.0
 62
     5
 63
     7
 74
     1
 91
        4
 64
     7
 65
   257
 75
     1
175
     1
 42
1.0
 92
       12
 66
     7
 43
1.0
 76
     1
 77
     6
 78
     2
 67
     7
 79
     5
170
     0
171
     0
290
     0
174
     0
 93
        1
 44
0.0
173
     0
291
     1
 45
0.0
1001
ACAD
1000
AcDbSavedByObjectVersion
1070
     0
1000
AcDbSavedByObjectVersion
1070
     0
  0
DICTIONARYVAR
  5
D0C4F
102
{ACAD_REACTORS
330
59
102
}
330
59
100
DictionaryVariables
280
     0
  1
1:1
  0
DICTIONARYVAR
  5
D0C4D
102
{ACAD_REACTORS
330
59
102
}
330
59
100
DictionaryVariables
280
     0
  1
STANDARD
  0
DICTIONARYVAR
  5
100D
102
{ACAD_REACTORS
330
59
102
}
330
59
100
DictionaryVariables
280
     0
  1
STANDARD
  0
DICTIONARYVAR
  5
5A
102
{ACAD_REACTORS
330
59
102
}
330
59
100
DictionaryVariables
280
     0
  1
2
  0
DICTIONARYVAR
  5
5E
102
{ACAD_REACTORS
330
59
102
}
330
59
100
DictionaryVariables
280
     0
  1
1
  0
DICTIONARYVAR
  5
DA3AE
102
{ACAD_REACTORS
330
59
102
}
330
59
100
DictionaryVariables
280
     0
  1
0
  0
DICTIONARYVAR
  5
D0C50
102
{ACAD_REACTORS
330
59
102
}
330
59
100
DictionaryVariables
280
     0
  1
0
  0
DICTIONARYVAR
  5
D0C4E
102
{ACAD_REACTORS
330
59
102
}
330
59
100
DictionaryVariables
280
     0
  1
0
  0
DICTIONARYVAR
  5
DA3AD
102
{ACAD_REACTORS
330
59
102
}
330
59
100
DictionaryVariables
280
     0
  1
127
  0
XRECORD
  5
C2669
102
{ACAD_REACTORS
330
C2668
102
}
330
C2668
100
AcDbXrecord
280
     1
330
0
330
0
330
0
330
0
330
0
330
0
330
0
330
0
330
0
330
0
330
0
330
0
330
0
330
0
330
0
330
0
330
0
330
0
330
0
330
0
330
0
330
0
330
0
330
0
330
0
330
0
330
0
330
0
330
0
330
0
330
0
330
0
330
0
  0
VLO-VL
  5
A9D17
102
{ACAD_REACTORS
330
A9D16
102
}
330
A9D16
100
vlo_VL
 90
   -64512
 91
       12
 92
        1
 40
2.5
300
(&VLO-R . 0)
  0
DICTIONARY
  5
DA3DF
330
22
100
AcDbDictionary
280
     1
281
     1
  3
ACAD_XREC_ROUNDTRIP
360
DA3E0
  0
DICTIONARY
  5
DA3E1
330
74
100
AcDbDictionary
280
     1
281
     1
  3
ACAD_XREC_ROUNDTRIP
360
DA3E2
  0
DICTIONARY
  5
DA3E3
330
79
100
AcDbDictionary
280
     1
281
     1
  3
ACAD_XREC_ROUNDTRIP
360
DA3E4
  0
DICTIONARY
  5
CED78
330
CED77
100
AcDbDictionary
280
     1
281
     1
  3
ACAD_XREC_ROUNDTRIP
360
DA3C8
  3
BUMPTILE
360
CED7A
  3
DIFFUSETILE
360
CED79
  3
OPACITYTILE
360
CED7D
  3
REFLECTIONTILE
360
CED7C
  3
REFRACTIONTILE
360
CED7E
  3
SPECULARTILE
360
CED7B
  0
DICTIONARY
  5
CED70
330
CED6F
100
AcDbDictionary
280
     1
281
     1
  3
ACAD_XREC_ROUNDTRIP
360
DA3C7
  3
BUMPTILE
360
CED72
  3
DIFFUSETILE
360
CED71
  3
OPACITYTILE
360
CED75
  3
REFLECTIONTILE
360
CED74
  3
REFRACTIONTILE
360
CED76
  3
SPECULARTILE
360
CED73
  0
DICTIONARY
  5
CED80
330
CED7F
100
AcDbDictionary
280
     1
281
     1
  3
ACAD_XREC_ROUNDTRIP
360
DA3C9
  3
BUMPTILE
360
CED82
  3
DIFFUSETILE
360
CED81
  3
OPACITYTILE
360
CED85
  3
REFLECTIONTILE
360
CED84
  3
REFRACTIONTILE
360
CED86
  3
SPECULARTILE
360
CED83
  0
DICTIONARY
  5
D0C45
330
FB0
100
AcDbDictionary
280
     1
281
     1
  3
ACAD_ROUNDTRIP_2008_TABLESTYLE_CELLSTYLEMAP
360
DA3D6
  3
ACAD_XREC_ROUNDTRIP
360
DA3E5
  0
XRECORD
  5
DA3E0
102
{ACAD_REACTORS
330
DA3DF
102
}
330
DA3DF
100
AcDbXrecord
280
     1
102
SHADEPLOT
 70
     0
102
SHADEPLOTRESLEVEL
 70
     2
102
SHADEPLOTCUSTOMDPI
 70
   300
  0
XRECORD
  5
DA3E2
102
{ACAD_REACTORS
330
DA3E1
102
}
330
DA3E1
100
AcDbXrecord
280
     1
102
SHADEPLOT
 70
     0
102
SHADEPLOTRESLEVEL
 70
     2
102
SHADEPLOTCUSTOMDPI
 70
   300
  0
XRECORD
  5
DA3E4
102
{ACAD_REACTORS
330
DA3E3
102
}
330
DA3E3
100
AcDbXrecord
280
     1
102
SHADEPLOT
 70
     0
102
SHADEPLOTRESLEVEL
 70
     2
102
SHADEPLOTCUSTOMDPI
 70
   300
  0
XRECORD
  5
DA3C8
102
{ACAD_REACTORS
330
CED78
102
}
330
CED78
100
AcDbXrecord
280
     1
102
MATERIAL
148
0.0
149
0.0
149
0.0
 93
        0
 94
      127
282
     0
 72
     0
 77
     0
171
     0
175
     0
179
     0
273
     0
  0
XRECORD
  5
CED7A
102
{ACAD_REACTORS
330
CED78
102
}
330
CED78
100
AcDbXrecord
280
     1
270
     1
271
     1
  0
XRECORD
  5
CED79
102
{ACAD_REACTORS
330
CED78
102
}
330
CED78
100
AcDbXrecord
280
     1
270
     1
271
     1
  0
XRECORD
  5
CED7D
102
{ACAD_REACTORS
330
CED78
102
}
330
CED78
100
AcDbXrecord
280
     1
270
     1
271
     1
  0
XRECORD
  5
CED7C
102
{ACAD_REACTORS
330
CED78
102
}
330
CED78
100
AcDbXrecord
280
     1
270
     1
271
     1
  0
XRECORD
  5
CED7E
102
{ACAD_REACTORS
330
CED78
102
}
330
CED78
100
AcDbXrecord
280
     1
270
     1
271
     1
  0
XRECORD
  5
CED7B
102
{ACAD_REACTORS
330
CED78
102
}
330
CED78
100
AcDbXrecord
280
     1
270
     1
271
     1
  0
XRECORD
  5
DA3C7
102
{ACAD_REACTORS
330
CED70
102
}
330
CED70
100
AcDbXrecord
280
     1
102
MATERIAL
148
0.0
149
0.0
149
0.0
 93
        0
 94
      127
282
     0
 72
     0
 77
     0
171
     0
175
     0
179
     0
273
     0
  0
XRECORD
  5
CED72
102
{ACAD_REACTORS
330
CED70
102
}
330
CED70
100
AcDbXrecord
280
     1
270
     1
271
     1
  0
XRECORD
  5
CED71
102
{ACAD_REACTORS
330
CED70
102
}
330
CED70
100
AcDbXrecord
280
     1
270
     1
271
     1
  0
XRECORD
  5
CED75
102
{ACAD_REACTORS
330
CED70
102
}
330
CED70
100
AcDbXrecord
280
     1
270
     1
271
     1
  0
XRECORD
  5
CED74
102
{ACAD_REACTORS
330
CED70
102
}
330
CED70
100
AcDbXrecord
280
     1
270
     1
271
     1
  0
XRECORD
  5
CED76
102
{ACAD_REACTORS
330
CED70
102
}
330
CED70
100
AcDbXrecord
280
     1
270
     1
271
     1
  0
XRECORD
  5
CED73
102
{ACAD_REACTORS
330
CED70
102
}
330
CED70
100
AcDbXrecord
280
     1
270
     1
271
     1
  0
XRECORD
  5
DA3C9
102
{ACAD_REACTORS
330
CED80
102
}
330
CED80
100
AcDbXrecord
280
     1
102
MATERIAL
148
0.0
149
0.0
149
0.0
 93
        0
 94
      127
282
     0
 72
     0
 77
     0
171
     0
175
     0
179
     0
273
     0
  0
XRECORD
  5
CED82
102
{ACAD_REACTORS
330
CED80
102
}
330
CED80
100
AcDbXrecord
280
     1
270
     1
271
     1
  0
XRECORD
  5
CED81
102
{ACAD_REACTORS
330
CED80
102
}
330
CED80
100
AcDbXrecord
280
     1
270
     1
271
     1
  0
XRECORD
  5
CED85
102
{ACAD_REACTORS
330
CED80
102
}
330
CED80
100
AcDbXrecord
280
     1
270
     1
271
     1
  0
XRECORD
  5
CED84
102
{ACAD_REACTORS
330
CED80
102
}
330
CED80
100
AcDbXrecord
280
     1
270
     1
271
     1
  0
XRECORD
  5
CED86
102
{ACAD_REACTORS
330
CED80
102
}
330
CED80
100
AcDbXrecord
280
     1
270
     1
271
     1
  0
XRECORD
  5
CED83
102
{ACAD_REACTORS
330
CED80
102
}
330
CED80
100
AcDbXrecord
280
     1
270
     1
271
     1
  0
CELLSTYLEMAP
  5
DA3D6
102
{ACAD_REACTORS
330
D0C45
102
}
330
D0C45
100
AcDbCellStyleMap
 90
        3
300
CELLSTYLE
  1
TABLEFORMAT_BEGIN
 90
        5
170
     1
 91
        0
 92
    32768
 62
   257
 93
        1
300
CONTENTFORMAT
  1
CONTENTFORMAT_BEGIN
 90
        0
 91
        0
 92
        4
 93
        0
300

 40
0.0
140
1.0
 94
        5
 62
     0
340
11
144
0.25
309
CONTENTFORMAT_END
171
     1
301
MARGIN
  1
CELLMARGIN_BEGIN
 40
0.06
 40
0.06
 40
0.06
 40
0.06
 40
0.18
 40
0.18
309
CELLMARGIN_END
 94
        6
 95
        1
302
GRIDFORMAT
  1
GRIDFORMAT_BEGIN
 90
        0
 91
        1
 62
     0
 92
       -2
340
0
 93
        0
 40
0.045
309
GRIDFORMAT_END
 95
        2
302
GRIDFORMAT
  1
GRIDFORMAT_BEGIN
 90
        0
 91
        1
 62
     0
 92
       -2
340
0
 93
        0
 40
0.045
309
GRIDFORMAT_END
 95
        4
302
GRIDFORMAT
  1
GRIDFORMAT_BEGIN
 90
        0
 91
        1
 62
     0
 92
       -2
340
0
 93
        0
 40
0.045
309
GRIDFORMAT_END
 95
        8
302
GRIDFORMAT
  1
GRIDFORMAT_BEGIN
 90
        0
 91
        1
 62
     0
 92
       -2
340
0
 93
        0
 40
0.045
309
GRIDFORMAT_END
 95
       16
302
GRIDFORMAT
  1
GRIDFORMAT_BEGIN
 90
        0
 91
        1
 62
     0
 92
       -2
340
0
 93
        0
 40
0.045
309
GRIDFORMAT_END
 95
       32
302
GRIDFORMAT
  1
GRIDFORMAT_BEGIN
 90
        0
 91
        1
 62
     0
 92
       -2
340
0
 93
        0
 40
0.045
309
GRIDFORMAT_END
309
TABLEFORMAT_END
  1
CELLSTYLE_BEGIN
 90
        1
 91
        1
300
_TITLE
309
CELLSTYLE_END
300
CELLSTYLE
  1
TABLEFORMAT_BEGIN
 90
        5
170
     1
 91
        0
 92
        0
 62
   257
 93
        1
300
CONTENTFORMAT
  1
CONTENTFORMAT_BEGIN
 90
        0
 91
        0
 92
        4
 93
        0
300

 40
0.0
140
1.0
 94
        5
 62
     0
340
11
144
0.18
309
CONTENTFORMAT_END
171
     1
301
MARGIN
  1
CELLMARGIN_BEGIN
 40
0.06
 40
0.06
 40
0.06
 40
0.06
 40
0.18
 40
0.18
309
CELLMARGIN_END
 94
        6
 95
        1
302
GRIDFORMAT
  1
GRIDFORMAT_BEGIN
 90
        0
 91
        1
 62
     0
 92
       -2
340
0
 93
        0
 40
0.045
309
GRIDFORMAT_END
 95
        2
302
GRIDFORMAT
  1
GRIDFORMAT_BEGIN
 90
        0
 91
        1
 62
     0
 92
       -2
340
0
 93
        0
 40
0.045
309
GRIDFORMAT_END
 95
        4
302
GRIDFORMAT
  1
GRIDFORMAT_BEGIN
 90
        0
 91
        1
 62
     0
 92
       -2
340
0
 93
        0
 40
0.045
309
GRIDFORMAT_END
 95
        8
302
GRIDFORMAT
  1
GRIDFORMAT_BEGIN
 90
        0
 91
        1
 62
     0
 92
       -2
340
0
 93
        0
 40
0.045
309
GRIDFORMAT_END
 95
       16
302
GRIDFORMAT
  1
GRIDFORMAT_BEGIN
 90
        0
 91
        1
 62
     0
 92
       -2
340
0
 93
        0
 40
0.045
309
GRIDFORMAT_END
 95
       32
302
GRIDFORMAT
  1
GRIDFORMAT_BEGIN
 90
        0
 91
        1
 62
     0
 92
       -2
340
0
 93
        0
 40
0.045
309
GRIDFORMAT_END
309
TABLEFORMAT_END
  1
CELLSTYLE_BEGIN
 90
        2
 91
        1
300
_HEADER
309
CELLSTYLE_END
300
CELLSTYLE
  1
TABLEFORMAT_BEGIN
 90
        5
170
     1
 91
        0
 92
        0
 62
   257
 93
        1
300
CONTENTFORMAT
  1
CONTENTFORMAT_BEGIN
 90
        0
 91
        0
 92
        4
 93
        0
300

 40
0.0
140
1.0
 94
        2
 62
     0
340
11
144
0.18
309
CONTENTFORMAT_END
171
     1
301
MARGIN
  1
CELLMARGIN_BEGIN
 40
0.06
 40
0.06
 40
0.06
 40
0.06
 40
0.18
 40
0.18
309
CELLMARGIN_END
 94
        6
 95
        1
302
GRIDFORMAT
  1
GRIDFORMAT_BEGIN
 90
        0
 91
        1
 62
     0
 92
       -2
340
0
 93
        0
 40
0.045
309
GRIDFORMAT_END
 95
        2
302
GRIDFORMAT
  1
GRIDFORMAT_BEGIN
 90
        0
 91
        1
 62
     0
 92
       -2
340
0
 93
        0
 40
0.045
309
GRIDFORMAT_END
 95
        4
302
GRIDFORMAT
  1
GRIDFORMAT_BEGIN
 90
        0
 91
        1
 62
     0
 92
       -2
340
0
 93
        0
 40
0.045
309
GRIDFORMAT_END
 95
        8
302
GRIDFORMAT
  1
GRIDFORMAT_BEGIN
 90
        0
 91
        1
 62
     0
 92
       -2
340
0
 93
        0
 40
0.045
309
GRIDFORMAT_END
 95
       16
302
GRIDFORMAT
  1
GRIDFORMAT_BEGIN
 90
        0
 91
        1
 62
     0
 92
       -2
340
0
 93
        0
 40
0.045
309
GRIDFORMAT_END
 95
       32
302
GRIDFORMAT
  1
GRIDFORMAT_BEGIN
 90
        0
 91
        1
 62
     0
 92
       -2
340
0
 93
        0
 40
0.045
309
GRIDFORMAT_END
309
TABLEFORMAT_END
  1
CELLSTYLE_BEGIN
 90
        3
 91
        2
300
_DATA
309
CELLSTYLE_END
  0
XRECORD
  5
DA3E5
102
{ACAD_REACTORS
330
D0C45
102
}
330
D0C45
100
AcDbXrecord
280
     1
102
ACAD_ROUNDTRIP_PRE2007_TABLESTYLE
 90
        4
 91
        0
  1

 92
        4
 93
        0
  2

 94
        4
 95
        0
  3

  0
ENDSEC
  0
EOF
