  0
SECTION
  2
HEADER
  9
$ACADVER
  1
AC1015
  9
$ACADMAINTVER
 70
    20
  9
$DWGCODEPAGE
  3
ANSI_936
  9
$INSBASE
 10
0.0
 20
0.0
 30
0.0
  9
$EXTMIN
 10
101897.960287436
 20
-169138.7093436667
 30
-0.0000000000000022
  9
$EXTMAX
 10
103275.3233293344
 20
-167263.8304787215
 30
0.0000000000000132
  9
$LIMMIN
 10
0.0
 20
0.0
  9
$LIMMAX
 10
12.0
 20
9.0
  9
$ORTHOMODE
 70
     0
  9
$REGENMODE
 70
     1
  9
$FILLMODE
 70
     1
  9
$QTEXTMODE
 70
     0
  9
$MIRRTEXT
 70
     0
  9
$LTSCALE
 40
1.0
  9
$ATTMODE
 70
     1
  9
$TEXTSIZE
 40
0.2
  9
$TRACEWID
 40
0.05
  9
$TEXTSTYLE
  7
Standard
  9
$CLAYER
  8
标注
  9
$CELTYPE
  6
ByLayer
  9
$CECOLOR
 62
   256
  9
$CELTSCALE
 40
5.0
  9
$DISPSILH
 70
     0
  9
$DIMSCALE
 40
1.0
  9
$DIMASZ
 40
10.0
  9
$DIMEXO
 40
7.0
  9
$DIMDLI
 40
0.38
  9
$DIMRND
 40
0.0
  9
$DIMDLE
 40
0.0
  9
$DIMEXE
 40
7.0
  9
$DIMTP
 40
0.0
  9
$DIMTM
 40
0.0
  9
$DIMTXT
 40
12.0
  9
$DIMCEN
 40
2.5
  9
$DIMTSZ
 40
0.0
  9
$DIMTOL
 70
     0
  9
$DIMLIM
 70
     0
  9
$DIMTIH
 70
     0
  9
$DIMTOH
 70
     0
  9
$DIMSE1
 70
     0
  9
$DIMSE2
 70
     0
  9
$DIMTAD
 70
     0
  9
$DIMZIN
 70
     8
  9
$DIMBLK
  1

  9
$DIMASO
 70
     1
  9
$DIMSHO
 70
     1
  9
$DIMPOST
  1

  9
$DIMAPOST
  1
"
  9
$DIMALT
 70
     0
  9
$DIMALTD
 70
     3
  9
$DIMALTF
 40
0.03937
  9
$DIMLFAC
 40
1.0
  9
$DIMTOFL
 70
     1
  9
$DIMTVP
 40
0.0
  9
$DIMTIX
 70
     0
  9
$DIMSOXD
 70
     0
  9
$DIMSAH
 70
     0
  9
$DIMBLK1
  1

  9
$DIMBLK2
  1

  9
$DIMSTYLE
  2
副本Standard
  9
$DIMCLRD
 70
   256
  9
$DIMCLRE
 70
   256
  9
$DIMCLRT
 70
   256
  9
$DIMTFAC
 40
1.0
  9
$DIMGAP
 40
0.5
  9
$DIMJUST
 70
     0
  9
$DIMSD1
 70
     0
  9
$DIMSD2
 70
     0
  9
$DIMTOLJ
 70
     1
  9
$DIMTZIN
 70
     0
  9
$DIMALTZ
 70
     0
  9
$DIMALTTZ
 70
     0
  9
$DIMUPT
 70
     0
  9
$DIMDEC
 70
     1
  9
$DIMTDEC
 70
     1
  9
$DIMALTU
 70
     7
  9
$DIMALTTD
 70
     3
  9
$DIMTXSTY
  7
Standard
  9
$DIMAUNIT
 70
     0
  9
$DIMADEC
 70
     0
  9
$DIMALTRND
 40
0.0
  9
$DIMAZIN
 70
     2
  9
$DIMDSEP
 70
    44
  9
$DIMATFIT
 70
     3
  9
$DIMFRAC
 70
     0
  9
$DIMLDRBLK
  1

  9
$DIMLUNIT
 70
     2
  9
$DIMLWD
 70
    -2
  9
$DIMLWE
 70
    -2
  9
$DIMTMOVE
 70
     0
  9
$LUNITS
 70
     2
  9
$LUPREC
 70
     4
  9
$SKETCHINC
 40
0.1
  9
$FILLETRAD
 40
120.0
  9
$AUNITS
 70
     0
  9
$AUPREC
 70
     0
  9
$MENU
  1
.
  9
$ELEVATION
 40
0.0
  9
$PELEVATION
 40
0.0
  9
$THICKNESS
 40
0.0
  9
$LIMCHECK
 70
     0
  9
$CHAMFERA
 40
26.6
  9
$CHAMFERB
 40
26.6
  9
$CHAMFERC
 40
0.0
  9
$CHAMFERD
 40
0.0
  9
$SKPOLY
 70
     0
  9
$TDCREATE
 40
2454355.343801713
  9
$TDUCREATE
 40
2454355.010468380
  9
$TDUPDATE
 40
2457938.597202431
  9
$TDUUPDATE
 40
2457938.263869097
  9
$TDINDWG
 40
8.8494529977
  9
$TDUSRTIMER
 40
8.8494529051
  9
$USRTIMER
 70
     1
  9
$ANGBASE
 50
0.0
  9
$ANGDIR
 70
     0
  9
$PDMODE
 70
     0
  9
$PDSIZE
 40
0.0
  9
$PLINEWID
 40
0.0
  9
$SPLFRAME
 70
     0
  9
$SPLINETYPE
 70
     6
  9
$SPLINESEGS
 70
     8
  9
$HANDSEED
  5
D71BB
  9
$SURFTAB1
 70
     6
  9
$SURFTAB2
 70
     6
  9
$SURFTYPE
 70
     6
  9
$SURFU
 70
     6
  9
$SURFV
 70
     6
  9
$UCSBASE
  2

  9
$UCSNAME
  2

  9
$UCSORG
 10
0.0
 20
0.0
 30
0.0
  9
$UCSXDIR
 10
1.0
 20
0.0
 30
0.0
  9
$UCSYDIR
 10
0.0
 20
1.0
 30
0.0
  9
$UCSORTHOREF
  2

  9
$UCSORTHOVIEW
 70
     0
  9
$UCSORGTOP
 10
0.0
 20
0.0
 30
0.0
  9
$UCSORGBOTTOM
 10
0.0
 20
0.0
 30
0.0
  9
$UCSORGLEFT
 10
0.0
 20
0.0
 30
0.0
  9
$UCSORGRIGHT
 10
0.0
 20
0.0
 30
0.0
  9
$UCSORGFRONT
 10
0.0
 20
0.0
 30
0.0
  9
$UCSORGBACK
 10
0.0
 20
0.0
 30
0.0
  9
$PUCSBASE
  2

  9
$PUCSNAME
  2

  9
$PUCSORG
 10
0.0
 20
0.0
 30
0.0
  9
$PUCSXDIR
 10
1.0
 20
0.0
 30
0.0
  9
$PUCSYDIR
 10
0.0
 20
1.0
 30
0.0
  9
$PUCSORTHOREF
  2

  9
$PUCSORTHOVIEW
 70
     0
  9
$PUCSORGTOP
 10
0.0
 20
0.0
 30
0.0
  9
$PUCSORGBOTTOM
 10
0.0
 20
0.0
 30
0.0
  9
$PUCSORGLEFT
 10
0.0
 20
0.0
 30
0.0
  9
$PUCSORGRIGHT
 10
0.0
 20
0.0
 30
0.0
  9
$PUCSORGFRONT
 10
0.0
 20
0.0
 30
0.0
  9
$PUCSORGBACK
 10
0.0
 20
0.0
 30
0.0
  9
$USERI1
 70
     0
  9
$USERI2
 70
     0
  9
$USERI3
 70
     0
  9
$USERI4
 70
     0
  9
$USERI5
 70
     0
  9
$USERR1
 40
0.0
  9
$USERR2
 40
0.0
  9
$USERR3
 40
0.0
  9
$USERR4
 40
0.0
  9
$USERR5
 40
2.5
  9
$WORLDVIEW
 70
     1
  9
$SHADEDGE
 70
     3
  9
$SHADEDIF
 70
    70
  9
$TILEMODE
 70
     1
  9
$MAXACTVP
 70
    64
  9
$PINSBASE
 10
0.0
 20
0.0
 30
0.0
  9
$PLIMCHECK
 70
     0
  9
$PEXTMIN
 10
0.0
 20
0.0
 30
0.0
  9
$PEXTMAX
 10
0.0
 20
0.0
 30
0.0
  9
$PLIMMIN
 10
0.0
 20
0.0
  9
$PLIMMAX
 10
12.0
 20
9.0
  9
$UNITMODE
 70
     0
  9
$VISRETAIN
 70
     1
  9
$PLINEGEN
 70
     0
  9
$PSLTSCALE
 70
     1
  9
$TREEDEPTH
 70
  3020
  9
$CMLSTYLE
  2
Standard
  9
$CMLJUST
 70
     0
  9
$CMLSCALE
 40
1.0
  9
$PROXYGRAPHICS
 70
     1
  9
$MEASUREMENT
 70
     0
  9
$CELWEIGHT
370
    -1
  9
$ENDCAPS
280
     0
  9
$JOINSTYLE
280
     0
  9
$LWDISPLAY
290
     0
  9
$INSUNITS
 70
     4
  9
$HYPERLINKBASE
  1

  9
$STYLESHEET
  1
MONOCHROME.CTB
  9
$XEDIT
290
     1
  9
$CEPSNTYPE
380
     0
  9
$PSTYLEMODE
290
     1
  9
$FINGERPRINTGUID
  2
{35BD88C0-9548-11D2-9A29-0060089B3A3F}
  9
$VERSIONGUID
  2
{65806561-51E0-451C-8E78-B5AA6850F2B0}
  9
$EXTNAMES
290
     1
  9
$PSVPSCALE
 40
0.0
  9
$OLESTARTUP
290
     0
  0
ENDSEC
  0
SECTION
  2
CLASSES
  0
CLASS
  1
ACDBDICTIONARYWDFLT
  2
AcDbDictionaryWithDefault
  3
ObjectDBX Classes
 90
        0
280
     0
281
     0
  0
CLASS
  1
ACDBPLACEHOLDER
  2
AcDbPlaceHolder
  3
ObjectDBX Classes
 90
        0
280
     0
281
     0
  0
CLASS
  1
LAYOUT
  2
AcDbLayout
  3
ObjectDBX Classes
 90
        0
280
     0
281
     0
  0
CLASS
  1
DICTIONARYVAR
  2
AcDbDictionaryVar
  3
ObjectDBX Classes
 90
        0
280
     0
281
     0
  0
CLASS
  1
SORTENTSTABLE
  2
AcDbSortentsTable
  3
ObjectDBX Classes
 90
        0
280
     0
281
     0
  0
CLASS
  1
DIMASSOC
  2
AcDbDimAssoc
  3
"AcDbDimAssoc|Product Desc:     AcDim ARX App For Dimension|Company:          Autodesk, Inc.|WEB Address:      www.autodesk.com"
 90
        0
280
     0
281
     0
  0
CLASS
  1
TABLESTYLE
  2
AcDbTableStyle
  3
ObjectDBX Classes
 90
     4095
280
     0
281
     0
  0
CLASS
  1
VLO-VL
  2
vlo_VL
  3
VL|AutoLISP based application
 90
      129
280
     0
281
     0
  0
CLASS
  1
MATERIAL
  2
AcDbMaterial
  3
ObjectDBX Classes
 90
     1153
280
     0
281
     0
  0
CLASS
  1
VISUALSTYLE
  2
AcDbVisualStyle
  3
ObjectDBX Classes
 90
     4095
280
     0
281
     0
  0
CLASS
  1
SCALE
  2
AcDbScale
  3
ObjectDBX Classes
 90
     1153
280
     0
281
     0
  0
CLASS
  1
MLEADERSTYLE
  2
AcDbMLeaderStyle
  3
ACDB_MLEADERSTYLE_CLASS
 90
     4095
280
     0
281
     0
  0
CLASS
  1
CELLSTYLEMAP
  2
AcDbCellStyleMap
  3
ObjectDBX Classes
 90
     1152
280
     0
281
     0
  0
ENDSEC
  0
SECTION
  2
TABLES
  0
TABLE
  2
VPORT
  5
8
330
0
100
AcDbSymbolTable
 70
     1
  0
VPORT
  5
CED6D
330
8
100
AcDbSymbolTableRecord
100
AcDbViewportTableRecord
  2
*Active
 70
     0
 10
0.0
 20
0.0
 11
1.0
 21
1.0
 12
102586.6418083852
 22
-168201.2699111941
 13
0.0
 23
0.0
 14
0.5
 24
0.5
 15
0.5
 25
0.5
 16
0.0
 26
0.0
 36
1.0
 17
0.0
 27
0.0
 37
0.0
 40
1888.732649661542
 41
2.241676942046855
 42
50.0
 43
0.0
 44
0.0
 50
0.0
 51
0.0
 71
     0
 72
  1000
 73
     1
 74
     3
 75
     0
 76
     0
 77
     0
 78
     0
281
     0
 65
     1
110
0.0
120
0.0
130
0.0
111
1.0
121
0.0
131
0.0
112
0.0
122
1.0
132
0.0
 79
     0
146
0.0
  0
ENDTAB
  0
TABLE
  2
LTYPE
  5
5
330
0
100
AcDbSymbolTable
 70
     5
  0
LTYPE
  5
14
330
5
100
AcDbSymbolTableRecord
100
AcDbLinetypeTableRecord
  2
ByBlock
 70
     0
  3

 72
    65
 73
     0
 40
0.0
  0
LTYPE
  5
15
330
5
100
AcDbSymbolTableRecord
100
AcDbLinetypeTableRecord
  2
ByLayer
 70
     0
  3

 72
    65
 73
     0
 40
0.0
  0
LTYPE
  5
16
330
5
100
AcDbSymbolTableRecord
100
AcDbLinetypeTableRecord
  2
Continuous
 70
     0
  3
Solid line
 72
    65
 73
     0
 40
0.0
  0
LTYPE
  5
98
330
5
100
AcDbSymbolTableRecord
100
AcDbLinetypeTableRecord
  2
HIDDEN2
 70
     0
  3
Hidden (.5x) _ _ _ _ _ _ _ _ _ _ _ _ _ _ _ _ _
 72
    65
 73
     2
 40
4.762499999999998
 49
3.174999999999998
 74
     0
 49
-1.587499999999999
 74
     0
  0
LTYPE
  5
D61F4
330
5
100
AcDbSymbolTableRecord
100
AcDbLinetypeTableRecord
  2
ACAD_ISO02W100
 70
     0
  3
ISO dash __ __ __ __ __ __ __ __ __ __ __ __ __
 72
    65
 73
     2
 40
15.0
 49
12.0
 74
     0
 49
-3.0
 74
     0
  0
LTYPE
  5
D6639
330
5
100
AcDbSymbolTableRecord
100
AcDbLinetypeTableRecord
  2
CENTER
 70
     0
  3
Center ____ _ ____ _ ____ _ ____ _ ____ _ ____
 72
    65
 73
     4
 40
50.8
 49
31.75
 74
     0
 49
-6.349999999999998
 74
     0
 49
6.349999999999998
 74
     0
 49
-6.349999999999998
 74
     0
  0
LTYPE
  5
D6E5B
330
5
100
AcDbSymbolTableRecord
100
AcDbLinetypeTableRecord
  2
CENTER2
 70
     0
  3
Center (.5x) ___ _ ___ _ ___ _ ___ _ ___ _ ___
 72
    65
 73
     4
 40
28.575
 49
19.05
 74
     0
 49
-3.174999999999998
 74
     0
 49
3.174999999999998
 74
     0
 49
-3.174999999999998
 74
     0
  0
ENDTAB
  0
TABLE
  2
LAYER
  5
2
102
{ACAD_XDICTIONARY
360
AB
102
}
330
0
100
AcDbSymbolTable
 70
     7
  0
LAYER
  5
10
102
{ACAD_XDICTIONARY
360
CF251
102
}
330
2
100
AcDbSymbolTableRecord
100
AcDbLayerTableRecord
  2
0
 70
     0
 62
     7
  6
Continuous
370
    18
390
F
  0
LAYER
  5
9D
102
{ACAD_XDICTIONARY
360
CF259
102
}
330
2
100
AcDbSymbolTableRecord
100
AcDbLayerTableRecord
  2
虚线
 70
     0
 62
     4
  6
HIDDEN2
370
     9
390
F
  0
LAYER
  5
9E
102
{ACAD_XDICTIONARY
360
CF25B
102
}
330
2
100
AcDbSymbolTableRecord
100
AcDbLayerTableRecord
  2
细实线
 70
     0
 62
     7
  6
Continuous
370
     9
390
F
  0
LAYER
  5
582
330
2
100
AcDbSymbolTableRecord
100
AcDbLayerTableRecord
  2
Defpoints
 70
     0
 62
     7
  6
Continuous
290
     0
370
     9
390
F
  0
LAYER
  5
16DF9
102
{ACAD_XDICTIONARY
360
CF25D
102
}
330
2
100
AcDbSymbolTableRecord
100
AcDbLayerTableRecord
  2
标注
 70
     0
 62
    80
  6
Continuous
370
     5
390
F
1001
AcAecLayerStandard
1000

1000

  0
LAYER
  5
D61F5
102
{ACAD_XDICTIONARY
360
D61F6
102
}
330
2
100
AcDbSymbolTableRecord
100
AcDbLayerTableRecord
  2
标注线
 70
     0
 62
     6
  6
Continuous
370
    -3
390
F
  0
LAYER
  5
D6E5C
102
{ACAD_XDICTIONARY
360
D6E5D
102
}
330
2
100
AcDbSymbolTableRecord
100
AcDbLayerTableRecord
  2
中心线
 70
     0
 62
     1
  6
CENTER2
370
    -3
390
F
  0
ENDTAB
  0
TABLE
  2
STYLE
  5
3
330
0
100
AcDbSymbolTable
 70
     2
  0
STYLE
  5
11
330
3
100
AcDbSymbolTableRecord
100
AcDbTextStyleTableRecord
  2
Standard
 70
     0
 40
0.0
 41
1.0
 50
0.0
 71
     0
 42
0.2
  3
SimSun.ttf
  4

1001
ACAD
1000
SimSun
1071
    34306
  0
STYLE
  5
9D6ED
330
3
100
AcDbSymbolTableRecord
100
AcDbTextStyleTableRecord
  2
A301
 70
     0
 40
3.5
 41
0.75
 50
0.0
 71
     0
 42
0.0
  3
SimSun.ttf
  4

1001
ACAD
1000
SimSun
1071
    34306
  0
ENDTAB
  0
TABLE
  2
VIEW
  5
6
330
0
100
AcDbSymbolTable
 70
     0
  0
ENDTAB
  0
TABLE
  2
UCS
  5
7
330
0
100
AcDbSymbolTable
 70
     0
  0
ENDTAB
  0
TABLE
  2
APPID
  5
9
330
0
100
AcDbSymbolTable
 70
    19
  0
APPID
  5
12
330
9
100
AcDbSymbolTableRecord
100
AcDbRegAppTableRecord
  2
ACAD
 70
     0
  0
APPID
  5
A5
330
9
100
AcDbSymbolTableRecord
100
AcDbRegAppTableRecord
  2
AcAecLayerStandard
 70
     0
  0
APPID
  5
A6
330
9
100
AcDbSymbolTableRecord
100
AcDbRegAppTableRecord
  2
ACAD_DSTYLE_DIMEXT_LENGTH
 70
     0
  0
APPID
  5
A7
330
9
100
AcDbSymbolTableRecord
100
AcDbRegAppTableRecord
  2
ACAD_DSTYLE_DIMEXT_ENABLED
 70
     0
  0
APPID
  5
A8
330
9
100
AcDbSymbolTableRecord
100
AcDbRegAppTableRecord
  2
ACAD_DSTYLE_DIMJOGGED_JOGANGLE_SYMBOL
 70
     0
  0
APPID
  5
A9
330
9
100
AcDbSymbolTableRecord
100
AcDbRegAppTableRecord
  2
ACAD_DSTYLE_DIMARC_LENGTH_SYMBOL
 70
     0
  0
APPID
  5
AA
330
9
100
AcDbSymbolTableRecord
100
AcDbRegAppTableRecord
  2
ACAD_PSEXT
 70
     0
  0
APPID
  5
173
330
9
100
AcDbSymbolTableRecord
100
AcDbRegAppTableRecord
  2
DCO15
 70
     0
  0
APPID
  5
11D5
330
9
100
AcDbSymbolTableRecord
100
AcDbRegAppTableRecord
  2
ACAD_EXEMPT_FROM_CAD_STANDARDS
 70
     0
  0
APPID
  5
B456
330
9
100
AcDbSymbolTableRecord
100
AcDbRegAppTableRecord
  2
ACAD_DSTYLE_DIMTEXT_FILL
 70
     0
  0
APPID
  5
B459
330
9
100
AcDbSymbolTableRecord
100
AcDbRegAppTableRecord
  2
ACAD_DSTYLE_DIM_LINETYPE
 70
     0
  0
APPID
  5
B45A
330
9
100
AcDbSymbolTableRecord
100
AcDbRegAppTableRecord
  2
ACAD_DSTYLE_DIM_EXT1_LINETYPE
 70
     0
  0
APPID
  5
B45B
330
9
100
AcDbSymbolTableRecord
100
AcDbRegAppTableRecord
  2
ACAD_DSTYLE_DIM_EXT2_LINETYPE
 70
     0
  0
APPID
  5
CEDBC
330
9
100
AcDbSymbolTableRecord
100
AcDbRegAppTableRecord
  2
ACAD_MLEADERVER
 70
     0
  0
APPID
  5
CF35C
330
9
100
AcDbSymbolTableRecord
100
AcDbRegAppTableRecord
  2
ACAD_DSTYLE_DIMRADIAL_EXTENSION
 70
     0
  0
APPID
  5
CF43A
330
9
100
AcDbSymbolTableRecord
100
AcDbRegAppTableRecord
  2
ACAD_DSTYLE_DIMJAG
 70
     0
  0
APPID
  5
CF43B
330
9
100
AcDbSymbolTableRecord
100
AcDbRegAppTableRecord
  2
ACAD_DSTYLE_DIMTALN
 70
     0
  0
APPID
  5
D5BCC
330
9
100
AcDbSymbolTableRecord
100
AcDbRegAppTableRecord
  2
ACAD_DSTYLE_DIMINSPECT
 70
     0
  0
APPID
  5
D5BCD
330
9
100
AcDbSymbolTableRecord
100
AcDbRegAppTableRecord
  2
GENIUS_GENDTOL_13
 70
     0
  0
ENDTAB
  0
TABLE
  2
DIMSTYLE
  5
A
330
0
100
AcDbSymbolTable
 70
     4
100
AcDbDimStyleTable
 71
     2
340
3BDB5
340
27
  0
DIMSTYLE
105
27
330
A
100
AcDbSymbolTableRecord
100
AcDbDimStyleTableRecord
  2
Standard
 70
     0
 41
20.0
 42
25.0
 44
8.0
 73
     0
 74
     0
 78
     8
 79
     2
140
20.0
147
5.0
172
     1
176
     3
177
     3
178
     3
179
     1
271
     1
272
     1
278
    44
340
11
1001
ACAD_DSTYLE_DIMJOGGED_JOGANGLE_SYMBOL
1070
   384
1040
0.7853981633974483
1001
ACAD_DSTYLE_DIMEXT_LENGTH
1070
   378
1040
8.0
  0
DIMSTYLE
105
3BDB5
102
{ACAD_REACTORS
330
D6F6B
330
D6F87
330
D6FA1
330
D6FCA
330
D6FD8
330
D6FFC
330
D7025
330
D703F
330
D706F
330
D7089
330
D7096
330
D70B0
330
D70CA
330
D70E2
330
D70F2
330
D7102
330
D7112
330
D7124
330
D7144
102
}
330
A
100
AcDbSymbolTableRecord
100
AcDbDimStyleTableRecord
  2
副本Standard
 70
     0
  4
"
 41
16.0
 42
7.0
 44
7.0
 73
     0
 74
     0
 78
     8
 79
     2
140
20.0
141
2.5
143
0.03937
147
1.0
171
     3
172
     1
176
   256
177
   256
178
   256
179
     1
271
     1
272
     1
273
     7
274
     3
278
    44
340
11
1001
ACAD_DSTYLE_DIMJAG
1070
   388
1040
1.5
1001
ACAD_DSTYLE_DIMTALN
1070
   392
1070
     0
  0
DIMSTYLE
105
D5BCA
330
A
100
AcDbSymbolTableRecord
100
AcDbDimStyleTableRecord
  2
ISO-25
 70
     0
 41
18.0
 42
0.0
 43
3.75
 44
3.0
 73
     0
 74
     0
 77
     1
 78
     8
 79
     2
140
18.0
141
2.5
143
0.03937007874016
147
4.0
171
     3
172
     1
176
     6
177
     6
271
     1
272
     1
274
     3
278
    44
283
     0
284
     8
340
11
371
    15
372
    15
  0
DIMSTYLE
105
D5BCB
330
A
100
AcDbSymbolTableRecord
100
AcDbDimStyleTableRecord
  2
XIAO
 70
     0
 41
3.5
 42
3.0
 43
1.0
 44
1.0
 73
     0
 74
     0
 77
     1
 78
     8
140
4.0
141
1.5
143
0.03937007874016
147
1.0
171
     3
172
     1
179
     1
271
     1
272
     1
274
     3
278
    44
283
     0
284
     8
340
11
  0
ENDTAB
  0
TABLE
  2
BLOCK_RECORD
  5
1
330
0
100
AcDbSymbolTable
 70
    20
  0
BLOCK_RECORD
  5
1F
102
{ACAD_XDICTIONARY
360
118B
102
}
330
1
100
AcDbSymbolTableRecord
100
AcDbBlockTableRecord
  2
*Model_Space
340
22
  0
BLOCK_RECORD
  5
73
330
1
100
AcDbSymbolTableRecord
100
AcDbBlockTableRecord
  2
*Paper_Space
340
74
  0
BLOCK_RECORD
  5
78
330
1
100
AcDbSymbolTableRecord
100
AcDbBlockTableRecord
  2
*Paper_Space0
340
79
  0
BLOCK_RECORD
  5
D6F6E
330
1
100
AcDbSymbolTableRecord
100
AcDbBlockTableRecord
  2
*D1
340
0
  0
BLOCK_RECORD
  5
D6F88
330
1
100
AcDbSymbolTableRecord
100
AcDbBlockTableRecord
  2
*D2
340
0
  0
BLOCK_RECORD
  5
D6FA2
330
1
100
AcDbSymbolTableRecord
100
AcDbBlockTableRecord
  2
*D3
340
0
  0
BLOCK_RECORD
  5
D6FCB
330
1
100
AcDbSymbolTableRecord
100
AcDbBlockTableRecord
  2
*D4
340
0
  0
BLOCK_RECORD
  5
D6FD9
330
1
100
AcDbSymbolTableRecord
100
AcDbBlockTableRecord
  2
*D5
340
0
  0
BLOCK_RECORD
  5
D6FFD
330
1
100
AcDbSymbolTableRecord
100
AcDbBlockTableRecord
  2
*D6
340
0
  0
BLOCK_RECORD
  5
D7026
330
1
100
AcDbSymbolTableRecord
100
AcDbBlockTableRecord
  2
*D7
340
0
  0
BLOCK_RECORD
  5
D7040
330
1
100
AcDbSymbolTableRecord
100
AcDbBlockTableRecord
  2
*D8
340
0
  0
BLOCK_RECORD
  5
D7070
330
1
100
AcDbSymbolTableRecord
100
AcDbBlockTableRecord
  2
*D9
340
0
  0
BLOCK_RECORD
  5
D708A
330
1
100
AcDbSymbolTableRecord
100
AcDbBlockTableRecord
  2
*D10
340
0
  0
BLOCK_RECORD
  5
D7097
330
1
100
AcDbSymbolTableRecord
100
AcDbBlockTableRecord
  2
*D11
340
0
  0
BLOCK_RECORD
  5
D70B1
330
1
100
AcDbSymbolTableRecord
100
AcDbBlockTableRecord
  2
*D12
340
0
  0
BLOCK_RECORD
  5
D70CB
330
1
100
AcDbSymbolTableRecord
100
AcDbBlockTableRecord
  2
*D13
340
0
  0
BLOCK_RECORD
  5
D70E3
330
1
100
AcDbSymbolTableRecord
100
AcDbBlockTableRecord
  2
*D14
340
0
  0
BLOCK_RECORD
  5
D70F3
330
1
100
AcDbSymbolTableRecord
100
AcDbBlockTableRecord
  2
*D15
340
0
  0
BLOCK_RECORD
  5
D7103
330
1
100
AcDbSymbolTableRecord
100
AcDbBlockTableRecord
  2
*D16
340
0
  0
BLOCK_RECORD
  5
D7113
330
1
100
AcDbSymbolTableRecord
100
AcDbBlockTableRecord
  2
*D17
340
0
  0
BLOCK_RECORD
  5
D7125
330
1
100
AcDbSymbolTableRecord
100
AcDbBlockTableRecord
  2
*D18
340
0
  0
BLOCK_RECORD
  5
D7145
330
1
100
AcDbSymbolTableRecord
100
AcDbBlockTableRecord
  2
*D19
340
0
  0
ENDTAB
  0
ENDSEC
  0
SECTION
  2
BLOCKS
  0
BLOCK
  5
20
330
1F
100
AcDbEntity
  8
0
100
AcDbBlockBegin
  2
*Model_Space
 70
     0
 10
0.0
 20
0.0
 30
0.0
  3
*Model_Space
  1

  0
ENDBLK
  5
21
330
1F
100
AcDbEntity
  8
0
100
AcDbBlockEnd
  0
BLOCK
  5
75
330
73
100
AcDbEntity
 67
     1
  8
0
100
AcDbBlockBegin
  2
*Paper_Space
 70
     0
 10
0.0
 20
0.0
 30
0.0
  3
*Paper_Space
  1

  0
ENDBLK
  5
76
330
73
100
AcDbEntity
 67
     1
  8
0
100
AcDbBlockEnd
  0
BLOCK
  5
7A
330
78
100
AcDbEntity
 67
     1
  8
0
100
AcDbBlockBegin
  2
*Paper_Space0
 70
     0
 10
0.0
 20
0.0
 30
0.0
  3
*Paper_Space0
  1

  0
ENDBLK
  5
7B
330
78
100
AcDbEntity
 67
     1
  8
0
100
AcDbBlockEnd
  0
BLOCK
  5
D6F6F
330
D6F6E
100
AcDbEntity
  8
0
 48
5.0
100
AcDbBlockBegin
  2
*D1
 70
     1
 10
0.0
 20
0.0
 30
0.0
  3
*D1
  1

  0
LINE
  5
D6F7D
330
D6F6E
100
AcDbEntity
  8
标注
 48
5.0
370
    -2
100
AcDbLine
 10
102940.1102737221
 20
-168880.2888326618
 30
0.0
 11
102948.4816849652
 21
-168874.8189630291
 31
0.0
  0
LINE
  5
D6F7E
330
D6F6E
100
AcDbEntity
  8
标注
 48
5.0
370
    -2
100
AcDbLine
 10
102970.2473541972
 20
-168860.5973019841
 30
0.0
 11
102978.6187654403
 21
-168855.1274323514
 31
0.0
  0
MTEXT
  5
D6F7F
102
{ACAD_XDICTIONARY
360
D71B9
102
}
330
D6F6E
100
AcDbEntity
  8
标注
 48
5.0
100
AcDbMText
 10
102924.3334890562
 20
-168890.5973640241
 30
0.0
 40
12.0
 41
0.0
 71
     5
 72
     1
  1
\A1;5-\U+22056
 11
0.8371411243102517
 21
0.5469869632711257
 31
0.0
 73
     1
 44
1.0
1001
ACAD
1000
MTEXTBEGIN
1070
    73
1070
     1
1070
    44
1040
1.0
1070
    74
1070
     0
1000
MTEXTEND
  0
LINE
  5
D6F80
330
D6F6E
100
AcDbEntity
  8
标注
 48
5.0
370
    -2
100
AcDbLine
 10
102961.8759429541
 20
-168866.0671716168
 30
0.0
 11
102956.8530962083
 21
-168869.3490933964
 31
0.0
  0
SOLID
  5
D6F81
330
D6F6E
100
AcDbEntity
  8
标注
 48
5.0
100
AcDbTrace
 10
102969.3357092584
 20
-168859.2020667769
 30
0.0
 11
102971.158999136
 21
-168861.9925371913
 31
0.0
 12
102961.8759429541
 22
-168866.0671716168
 32
0.0
 13
102961.8759429541
 23
-168866.0671716168
 33
0.0
  0
SOLID
  5
D6F82
330
D6F6E
100
AcDbEntity
  8
标注
 48
5.0
100
AcDbTrace
 10
102947.5700400264
 20
-168873.4237278219
 30
0.0
 11
102949.393329904
 21
-168876.2141982363
 31
0.0
 12
102956.8530962083
 22
-168869.3490933964
 32
0.0
 13
102956.8530962083
 23
-168869.3490933964
 33
0.0
  0
POINT
  5
D6F83
330
D6F6E
100
AcDbEntity
  8
Defpoints
 62
     0
 48
5.0
100
AcDbPoint
 10
102956.8530962083
 20
-168869.3490933964
 30
0.0
  0
POINT
  5
D6F84
330
D6F6E
100
AcDbEntity
  8
Defpoints
 62
     0
 48
5.0
100
AcDbPoint
 10
102961.8759429541
 20
-168866.0671716168
 30
0.0
  0
ENDBLK
  5
D6F70
330
D6F6E
100
AcDbEntity
  8
0
 48
5.0
100
AcDbBlockEnd
  0
BLOCK
  5
D6F89
330
D6F88
100
AcDbEntity
  8
0
 48
5.0
100
AcDbBlockBegin
  2
*D2
 70
     1
 10
0.0
 20
0.0
 30
0.0
  3
*D2
  1

  0
LINE
  5
D6F96
330
D6F88
100
AcDbEntity
  8
标注
 48
5.0
370
    -2
100
AcDbLine
 10
102720.3645195812
 20
-168874.7081325066
 30
0.0
 11
102720.3645195812
 21
-169106.6554389554
 31
0.0
  0
LINE
  5
D6F97
330
D6F88
100
AcDbEntity
  8
标注
 48
5.0
370
    -2
100
AcDbLine
 10
103198.3645195812
 20
-168874.7081325067
 30
0.0
 11
103198.3645195812
 21
-169106.6554389554
 31
0.0
  0
LINE
  5
D6F98
330
D6F88
100
AcDbEntity
  8
标注
 48
5.0
370
    -2
100
AcDbLine
 10
102730.3645195812
 20
-169099.6554389554
 30
0.0
 11
102946.8645195812
 21
-169099.6554389554
 31
0.0
  0
LINE
  5
D6F99
330
D6F88
100
AcDbEntity
  8
标注
 48
5.0
370
    -2
100
AcDbLine
 10
103188.3645195811
 20
-169099.6554389554
 30
0.0
 11
102971.8645195812
 21
-169099.6554389554
 31
0.0
  0
SOLID
  5
D6F9A
330
D6F88
100
AcDbEntity
  8
标注
 48
5.0
100
AcDbTrace
 10
102730.3645195812
 20
-169097.9887722887
 30
0.0
 11
102730.3645195812
 21
-169101.3221056221
 31
0.0
 12
102720.3645195812
 22
-169099.6554389554
 32
0.0
 13
102720.3645195812
 23
-169099.6554389554
 33
0.0
  0
SOLID
  5
D6F9B
330
D6F88
100
AcDbEntity
  8
标注
 48
5.0
100
AcDbTrace
 10
103188.3645195811
 20
-169097.9887722887
 30
0.0
 11
103188.3645195811
 21
-169101.3221056221
 31
0.0
 12
103198.3645195812
 22
-169099.6554389554
 32
0.0
 13
103198.3645195812
 23
-169099.6554389554
 33
0.0
  0
MTEXT
  5
D6F9C
330
D6F88
100
AcDbEntity
  8
标注
 48
5.0
100
AcDbMText
 10
102959.3645195812
 20
-169099.6554389554
 30
0.0
 40
12.0
 41
0.0
 71
     5
 72
     1
  1
\A1;478
 73
     1
 44
1.0
1001
ACAD
1000
MTEXTBEGIN
1070
    73
1070
     1
1070
    44
1040
1.0
1070
    74
1070
     0
1000
MTEXTEND
  0
POINT
  5
D6F9D
330
D6F88
100
AcDbEntity
  8
Defpoints
 62
     0
 48
5.0
100
AcDbPoint
 10
102720.3645195812
 20
-168867.7081325066
 30
0.0
  0
POINT
  5
D6F9E
330
D6F88
100
AcDbEntity
  8
Defpoints
 62
     0
 48
5.0
100
AcDbPoint
 10
103198.3645195812
 20
-168867.7081325067
 30
0.0
  0
POINT
  5
D6F9F
330
D6F88
100
AcDbEntity
  8
Defpoints
 62
     0
 48
5.0
100
AcDbPoint
 10
103198.3645195812
 20
-169099.6554389554
 30
0.0
  0
ENDBLK
  5
D6F8A
330
D6F88
100
AcDbEntity
  8
0
 48
5.0
100
AcDbBlockEnd
  0
BLOCK
  5
D6FA3
330
D6FA2
100
AcDbEntity
  8
0
 48
5.0
100
AcDbBlockBegin
  2
*D3
 70
     1
 10
0.0
 20
0.0
 30
0.0
  3
*D3
  1

  0
LINE
  5
D6FBF
330
D6FA2
100
AcDbEntity
  8
标注
 48
5.0
370
    -2
100
AcDbLine
 10
102734.3645195712
 20
-168860.7081325066
 30
0.0
 11
102734.3645195712
 21
-168827.2231232742
 31
0.0
  0
LINE
  5
D6FC0
330
D6FA2
100
AcDbEntity
  8
标注
 48
5.0
370
    -2
100
AcDbLine
 10
102716.3645195812
 20
-168860.7081325066
 30
0.0
 11
102716.3645195812
 21
-168827.2231232742
 31
0.0
  0
LINE
  5
D6FC1
330
D6FA2
100
AcDbEntity
  8
标注
 48
5.0
370
    -2
100
AcDbLine
 10
102744.3645195712
 20
-168834.2231232742
 30
0.0
 11
102754.3645195712
 21
-168834.2231232742
 31
0.0
  0
LINE
  5
D6FC2
330
D6FA2
100
AcDbEntity
  8
标注
 48
5.0
370
    -2
100
AcDbLine
 10
102706.3645195812
 20
-168834.2231232742
 30
0.0
 11
102696.3645195812
 21
-168834.2231232742
 31
0.0
  0
LINE
  5
D6FC3
330
D6FA2
100
AcDbEntity
  8
标注
 48
5.0
370
    -2
100
AcDbLine
 10
102734.3645195712
 20
-168834.2231232742
 30
0.0
 11
102716.3645195812
 21
-168834.2231232742
 31
0.0
  0
SOLID
  5
D6FC4
330
D6FA2
100
AcDbEntity
  8
标注
 48
5.0
100
AcDbTrace
 10
102744.3645195712
 20
-168832.5564566075
 30
0.0
 11
102744.3645195712
 21
-168835.8897899409
 31
0.0
 12
102734.3645195712
 22
-168834.2231232742
 32
0.0
 13
102734.3645195712
 23
-168834.2231232742
 33
0.0
  0
SOLID
  5
D6FC5
330
D6FA2
100
AcDbEntity
  8
标注
 48
5.0
100
AcDbTrace
 10
102706.3645195812
 20
-168832.5564566075
 30
0.0
 11
102706.3645195812
 21
-168835.8897899409
 31
0.0
 12
102716.3645195812
 22
-168834.2231232742
 32
0.0
 13
102716.3645195812
 23
-168834.2231232742
 33
0.0
  0
MTEXT
  5
D6FC6
330
D6FA2
100
AcDbEntity
  8
标注
 48
5.0
100
AcDbMText
 10
102688.7978529146
 20
-168834.2231232742
 30
0.0
 40
12.0
 41
0.0
 71
     5
 72
     1
  1
\A1;18
 73
     1
 44
1.0
1001
ACAD
1000
MTEXTBEGIN
1070
    73
1070
     1
1070
    44
1040
1.0
1070
    74
1070
     0
1000
MTEXTEND
  0
POINT
  5
D6FC7
330
D6FA2
100
AcDbEntity
  8
Defpoints
 62
     0
 48
5.0
100
AcDbPoint
 10
102734.3645195712
 20
-168867.7081325066
 30
0.0
  0
POINT
  5
D6FC8
330
D6FA2
100
AcDbEntity
  8
Defpoints
 62
     0
 48
5.0
100
AcDbPoint
 10
102716.3645195812
 20
-168867.7081325066
 30
0.0
  0
POINT
  5
D6FC9
330
D6FA2
100
AcDbEntity
  8
Defpoints
 62
     0
 48
5.0
100
AcDbPoint
 10
102716.3645195812
 20
-168834.2231232742
 30
0.0
  0
ENDBLK
  5
D6FA4
330
D6FA2
100
AcDbEntity
  8
0
 48
5.0
100
AcDbBlockEnd
  0
BLOCK
  5
D6FCC
330
D6FCB
100
AcDbEntity
  8
0
 48
5.0
100
AcDbBlockBegin
  2
*D4
 70
     1
 10
0.0
 20
0.0
 30
0.0
  3
*D4
  1

  0
LINE
  5
D6FCE
330
D6FCB
100
AcDbEntity
  8
标注
 48
5.0
370
    -2
100
AcDbLine
 10
102734.3645195712
 20
-168860.7081325066
 30
0.0
 11
102734.3645195712
 21
-168827.2231232742
 31
0.0
  0
LINE
  5
D6FCF
330
D6FCB
100
AcDbEntity
  8
标注
 48
5.0
370
    -2
100
AcDbLine
 10
102959.3645195812
 20
-168860.7081325066
 30
0.0
 11
102959.3645195812
 21
-168827.2231232742
 31
0.0
  0
LINE
  5
D6FD0
330
D6FCB
100
AcDbEntity
  8
标注
 48
5.0
370
    -2
100
AcDbLine
 10
102744.3645195712
 20
-168834.2231232742
 30
0.0
 11
102834.5311862429
 21
-168834.2231232742
 31
0.0
  0
LINE
  5
D6FD1
330
D6FCB
100
AcDbEntity
  8
标注
 48
5.0
370
    -2
100
AcDbLine
 10
102949.3645195812
 20
-168834.2231232742
 30
0.0
 11
102859.1978529096
 21
-168834.2231232742
 31
0.0
  0
SOLID
  5
D6FD2
330
D6FCB
100
AcDbEntity
  8
标注
 48
5.0
100
AcDbTrace
 10
102744.3645195712
 20
-168832.5564566075
 30
0.0
 11
102744.3645195712
 21
-168835.8897899409
 31
0.0
 12
102734.3645195712
 22
-168834.2231232742
 32
0.0
 13
102734.3645195712
 23
-168834.2231232742
 33
0.0
  0
SOLID
  5
D6FD3
330
D6FCB
100
AcDbEntity
  8
标注
 48
5.0
100
AcDbTrace
 10
102949.3645195812
 20
-168832.5564566075
 30
0.0
 11
102949.3645195812
 21
-168835.8897899409
 31
0.0
 12
102959.3645195812
 22
-168834.2231232742
 32
0.0
 13
102959.3645195812
 23
-168834.2231232742
 33
0.0
  0
MTEXT
  5
D6FD4
330
D6FCB
100
AcDbEntity
  8
标注
 48
5.0
100
AcDbMText
 10
102846.8645195762
 20
-168834.2231232742
 30
0.0
 40
12.0
 41
0.0
 71
     5
 72
     1
  1
\A1;225
 73
     1
 44
1.0
1001
ACAD
1000
MTEXTBEGIN
1070
    73
1070
     1
1070
    44
1040
1.0
1070
    74
1070
     0
1000
MTEXTEND
  0
POINT
  5
D6FD5
330
D6FCB
100
AcDbEntity
  8
Defpoints
 62
     0
 48
5.0
100
AcDbPoint
 10
102734.3645195712
 20
-168867.7081325066
 30
0.0
  0
POINT
  5
D6FD6
330
D6FCB
100
AcDbEntity
  8
Defpoints
 62
     0
 48
5.0
100
AcDbPoint
 10
102959.3645195812
 20
-168867.7081325066
 30
0.0
  0
POINT
  5
D6FD7
330
D6FCB
100
AcDbEntity
  8
Defpoints
 62
     0
 48
5.0
100
AcDbPoint
 10
102959.3645195812
 20
-168834.2231232742
 30
0.0
  0
ENDBLK
  5
D6FCD
330
D6FCB
100
AcDbEntity
  8
0
 48
5.0
100
AcDbBlockEnd
  0
BLOCK
  5
D6FDA
330
D6FD9
100
AcDbEntity
  8
0
 48
5.0
100
AcDbBlockBegin
  2
*D5
 70
     1
 10
0.0
 20
0.0
 30
0.0
  3
*D5
  1

  0
LINE
  5
D6FF2
330
D6FD9
100
AcDbEntity
  8
标注
 48
5.0
370
    -2
100
AcDbLine
 10
102734.3645195712
 20
-168860.7081325066
 30
0.0
 11
102734.3645195712
 21
-168802.2670970867
 31
0.0
  0
LINE
  5
D6FF3
330
D6FD9
100
AcDbEntity
  8
标注
 48
5.0
370
    -2
100
AcDbLine
 10
103184.3645195912
 20
-168860.7081325066
 30
0.0
 11
103184.3645195912
 21
-168802.2670970867
 31
0.0
  0
LINE
  5
D6FF4
330
D6FD9
100
AcDbEntity
  8
标注
 48
5.0
370
    -2
100
AcDbLine
 10
102744.3645195712
 20
-168809.2670970867
 30
0.0
 11
102833.0145195762
 21
-168809.2670970867
 31
0.0
  0
LINE
  5
D6FF5
330
D6FD9
100
AcDbEntity
  8
标注
 48
5.0
370
    -2
100
AcDbLine
 10
103174.3645195912
 20
-168809.2670970867
 30
0.0
 11
102858.1478529096
 21
-168809.2670970867
 31
0.0
  0
SOLID
  5
D6FF6
330
D6FD9
100
AcDbEntity
  8
标注
 48
5.0
100
AcDbTrace
 10
102744.3645195712
 20
-168807.6004304201
 30
0.0
 11
102744.3645195712
 21
-168810.9337637534
 31
0.0
 12
102734.3645195712
 22
-168809.2670970867
 32
0.0
 13
102734.3645195712
 23
-168809.2670970867
 33
0.0
  0
SOLID
  5
D6FF7
330
D6FD9
100
AcDbEntity
  8
标注
 48
5.0
100
AcDbTrace
 10
103174.3645195912
 20
-168807.6004304201
 30
0.0
 11
103174.3645195912
 21
-168810.9337637534
 31
0.0
 12
103184.3645195912
 22
-168809.2670970867
 32
0.0
 13
103184.3645195912
 23
-168809.2670970867
 33
0.0
  0
MTEXT
  5
D6FF8
330
D6FD9
100
AcDbEntity
  8
标注
 48
5.0
100
AcDbMText
 10
102845.5811862429
 20
-168809.2670970867
 30
0.0
 40
12.0
 41
0.0
 71
     5
 72
     1
  1
\A1;450
 73
     1
 44
1.0
1001
ACAD
1000
MTEXTBEGIN
1070
    73
1070
     1
1070
    44
1040
1.0
1070
    74
1070
     0
1000
MTEXTEND
  0
POINT
  5
D6FF9
330
D6FD9
100
AcDbEntity
  8
Defpoints
 62
     0
 48
5.0
100
AcDbPoint
 10
102734.3645195712
 20
-168867.7081325066
 30
0.0
  0
POINT
  5
D6FFA
330
D6FD9
100
AcDbEntity
  8
Defpoints
 62
     0
 48
5.0
100
AcDbPoint
 10
103184.3645195912
 20
-168867.7081325066
 30
0.0
  0
POINT
  5
D6FFB
330
D6FD9
100
AcDbEntity
  8
Defpoints
 62
     0
 48
5.0
100
AcDbPoint
 10
103184.3645195912
 20
-168809.2670970867
 30
0.0
  0
ENDBLK
  5
D6FDB
330
D6FD9
100
AcDbEntity
  8
0
 48
5.0
100
AcDbBlockEnd
  0
BLOCK
  5
D6FFE
330
D6FFD
100
AcDbEntity
  8
0
 48
5.0
100
AcDbBlockBegin
  2
*D6
 70
     1
 10
0.0
 20
0.0
 30
0.0
  3
*D6
  1

  0
LINE
  5
D701A
330
D6FFD
100
AcDbEntity
  8
标注
 48
5.0
370
    -2
100
AcDbLine
 10
102966.3645195812
 20
-168680.7081324966
 30
0.0
 11
102990.4026948575
 21
-168680.7081324966
 31
0.0
  0
LINE
  5
D701B
330
D6FFD
100
AcDbEntity
  8
标注
 48
5.0
370
    -2
100
AcDbLine
 10
102966.3645195812
 20
-168662.7081325066
 30
0.0
 11
102990.4026948575
 21
-168662.7081325066
 31
0.0
  0
LINE
  5
D701C
330
D6FFD
100
AcDbEntity
  8
标注
 48
5.0
370
    -2
100
AcDbLine
 10
102983.4026948575
 20
-168690.7081324967
 30
0.0
 11
102983.4026948575
 21
-168700.7081324966
 31
0.0
  0
LINE
  5
D701D
330
D6FFD
100
AcDbEntity
  8
标注
 48
5.0
370
    -2
100
AcDbLine
 10
102983.4026948575
 20
-168652.7081325066
 30
0.0
 11
102983.4026948575
 21
-168642.7081325066
 31
0.0
  0
LINE
  5
D701E
330
D6FFD
100
AcDbEntity
  8
标注
 48
5.0
370
    -2
100
AcDbLine
 10
102983.4026948575
 20
-168680.7081324966
 30
0.0
 11
102983.4026948575
 21
-168662.7081325066
 31
0.0
  0
SOLID
  5
D701F
330
D6FFD
100
AcDbEntity
  8
标注
 48
5.0
100
AcDbTrace
 10
102981.7360281908
 20
-168690.7081324967
 30
0.0
 11
102985.0693615241
 21
-168690.7081324967
 31
0.0
 12
102983.4026948575
 22
-168680.7081324966
 32
0.0
 13
102983.4026948575
 23
-168680.7081324966
 33
0.0
  0
SOLID
  5
D7020
330
D6FFD
100
AcDbEntity
  8
标注
 48
5.0
100
AcDbTrace
 10
102981.7360281908
 20
-168652.7081325066
 30
0.0
 11
102985.0693615241
 21
-168652.7081325066
 31
0.0
 12
102983.4026948575
 22
-168662.7081325066
 32
0.0
 13
102983.4026948575
 23
-168662.7081325066
 33
0.0
  0
MTEXT
  5
D7021
330
D6FFD
100
AcDbEntity
  8
标注
 48
5.0
100
AcDbMText
 10
102983.4026948575
 20
-168635.1414658399
 30
0.0
 40
12.0
 41
0.0
 71
     5
 72
     1
  1
\A1;18
 11
0.0000000000000001
 21
1.0
 31
0.0
 73
     1
 44
1.0
1001
ACAD
1000
MTEXTBEGIN
1070
    73
1070
     1
1070
    44
1040
1.0
1070
    74
1070
     0
1000
MTEXTEND
  0
POINT
  5
D7022
330
D6FFD
100
AcDbEntity
  8
Defpoints
 62
     0
 48
5.0
100
AcDbPoint
 10
102959.3645195812
 20
-168680.7081324966
 30
0.0
  0
POINT
  5
D7023
330
D6FFD
100
AcDbEntity
  8
Defpoints
 62
     0
 48
5.0
100
AcDbPoint
 10
102959.3645195812
 20
-168662.7081325066
 30
0.0
  0
POINT
  5
D7024
330
D6FFD
100
AcDbEntity
  8
Defpoints
 62
     0
 48
5.0
100
AcDbPoint
 10
102983.4026948575
 20
-168662.7081325066
 30
0.0
  0
ENDBLK
  5
D6FFF
330
D6FFD
100
AcDbEntity
  8
0
 48
5.0
100
AcDbBlockEnd
  0
BLOCK
  5
D7027
330
D7026
100
AcDbEntity
  8
0
 48
5.0
100
AcDbBlockBegin
  2
*D7
 70
     1
 10
0.0
 20
0.0
 30
0.0
  3
*D7
  1

  0
LINE
  5
D7034
330
D7026
100
AcDbEntity
  8
标注
 48
5.0
370
    -2
100
AcDbLine
 10
102966.3645195812
 20
-168680.7081324966
 30
0.0
 11
102990.4026948575
 21
-168680.7081324966
 31
0.0
  0
LINE
  5
D7035
330
D7026
100
AcDbEntity
  8
标注
 48
5.0
370
    -2
100
AcDbLine
 10
102966.3645195812
 20
-168867.7081325066
 30
0.0
 11
102990.4026948575
 21
-168867.7081325066
 31
0.0
  0
LINE
  5
D7036
330
D7026
100
AcDbEntity
  8
标注
 48
5.0
370
    -2
100
AcDbLine
 10
102983.4026948575
 20
-168690.7081324967
 30
0.0
 11
102983.4026948575
 21
-168762.3747991683
 31
0.0
  0
LINE
  5
D7037
330
D7026
100
AcDbEntity
  8
标注
 48
5.0
370
    -2
100
AcDbLine
 10
102983.4026948575
 20
-168857.7081325066
 30
0.0
 11
102983.4026948575
 21
-168786.041465835
 31
0.0
  0
SOLID
  5
D7038
330
D7026
100
AcDbEntity
  8
标注
 48
5.0
100
AcDbTrace
 10
102981.7360281908
 20
-168690.7081324967
 30
0.0
 11
102985.0693615241
 21
-168690.7081324967
 31
0.0
 12
102983.4026948575
 22
-168680.7081324966
 32
0.0
 13
102983.4026948575
 23
-168680.7081324966
 33
0.0
  0
SOLID
  5
D7039
330
D7026
100
AcDbEntity
  8
标注
 48
5.0
100
AcDbTrace
 10
102981.7360281908
 20
-168857.7081325066
 30
0.0
 11
102985.0693615241
 21
-168857.7081325066
 31
0.0
 12
102983.4026948575
 22
-168867.7081325066
 32
0.0
 13
102983.4026948575
 23
-168867.7081325066
 33
0.0
  0
MTEXT
  5
D703A
330
D7026
100
AcDbEntity
  8
标注
 48
5.0
100
AcDbMText
 10
102983.4026948575
 20
-168774.2081325016
 30
0.0
 40
12.0
 41
0.0
 71
     5
 72
     1
  1
\A1;187
 11
0.0000000000000001
 21
1.0
 31
0.0
 73
     1
 44
1.0
1001
ACAD
1000
MTEXTBEGIN
1070
    73
1070
     1
1070
    44
1040
1.0
1070
    74
1070
     0
1000
MTEXTEND
  0
POINT
  5
D703B
330
D7026
100
AcDbEntity
  8
Defpoints
 62
     0
 48
5.0
100
AcDbPoint
 10
102959.3645195812
 20
-168680.7081324966
 30
0.0
  0
POINT
  5
D703C
330
D7026
100
AcDbEntity
  8
Defpoints
 62
     0
 48
5.0
100
AcDbPoint
 10
102959.3645195812
 20
-168867.7081325066
 30
0.0
  0
POINT
  5
D703D
330
D7026
100
AcDbEntity
  8
Defpoints
 62
     0
 48
5.0
100
AcDbPoint
 10
102983.4026948575
 20
-168867.7081325066
 30
0.0
  0
ENDBLK
  5
D7028
330
D7026
100
AcDbEntity
  8
0
 48
5.0
100
AcDbBlockEnd
  0
BLOCK
  5
D7041
330
D7040
100
AcDbEntity
  8
0
 48
5.0
100
AcDbBlockBegin
  2
*D8
 70
     1
 10
0.0
 20
0.0
 30
0.0
  3
*D8
  1

  0
LINE
  5
D7063
330
D7040
100
AcDbEntity
  8
标注
 48
5.0
370
    -2
100
AcDbLine
 10
102966.3645195812
 20
-169054.7081325166
 30
0.0
 11
103020.2406117364
 21
-169054.7081325166
 31
0.0
  0
LINE
  5
D7064
330
D7040
100
AcDbEntity
  8
标注
 48
5.0
370
    -2
100
AcDbLine
 10
102966.3645195812
 20
-168680.7081324966
 30
0.0
 11
103020.2406117364
 21
-168680.7081324966
 31
0.0
  0
LINE
  5
D7065
330
D7040
100
AcDbEntity
  8
标注
 48
5.0
370
    -2
100
AcDbLine
 10
103013.2406117364
 20
-169044.7081325167
 30
0.0
 11
103013.2406117364
 21
-168787.433908254
 31
0.0
  0
LINE
  5
D7066
330
D7040
100
AcDbEntity
  8
标注
 48
5.0
370
    -2
100
AcDbLine
 10
103013.2406117364
 20
-168690.7081324967
 30
0.0
 11
103013.2406117364
 21
-168762.433908254
 31
0.0
  0
SOLID
  5
D7067
330
D7040
100
AcDbEntity
  8
标注
 48
5.0
100
AcDbTrace
 10
103011.5739450697
 20
-169044.7081325167
 30
0.0
 11
103014.9072784031
 21
-169044.7081325167
 31
0.0
 12
103013.2406117364
 22
-169054.7081325166
 32
0.0
 13
103013.2406117364
 23
-169054.7081325166
 33
0.0
  0
SOLID
  5
D7068
330
D7040
100
AcDbEntity
  8
标注
 48
5.0
100
AcDbTrace
 10
103011.5739450697
 20
-168690.7081324967
 30
0.0
 11
103014.9072784031
 21
-168690.7081324967
 31
0.0
 12
103013.2406117364
 22
-168680.7081324966
 32
0.0
 13
103013.2406117364
 23
-168680.7081324966
 33
0.0
  0
MTEXT
  5
D7069
330
D7040
100
AcDbEntity
  8
标注
 48
5.0
100
AcDbMText
 10
103013.2406117364
 20
-168774.933908254
 30
0.0
 40
12.0
 41
0.0
 71
     5
 72
     1
  1
\A1;374
 11
0.0000000000000001
 21
1.0
 31
0.0
 73
     1
 44
1.0
1001
ACAD
1000
MTEXTBEGIN
1070
    73
1070
     1
1070
    44
1040
1.0
1070
    74
1070
     0
1000
MTEXTEND
  0
POINT
  5
D706A
330
D7040
100
AcDbEntity
  8
Defpoints
 62
     0
 48
5.0
100
AcDbPoint
 10
102959.3645195812
 20
-169054.7081325166
 30
0.0
  0
POINT
  5
D706B
330
D7040
100
AcDbEntity
  8
Defpoints
 62
     0
 48
5.0
100
AcDbPoint
 10
102959.3645195812
 20
-168680.7081324966
 30
0.0
  0
POINT
  5
D706C
330
D7040
100
AcDbEntity
  8
Defpoints
 62
     0
 48
5.0
100
AcDbPoint
 10
103013.2406117364
 20
-168680.7081324966
 30
0.0
  0
ENDBLK
  5
D7042
330
D7040
100
AcDbEntity
  8
0
 48
5.0
100
AcDbBlockEnd
  0
BLOCK
  5
D7071
330
D7070
100
AcDbEntity
  8
0
 48
5.0
100
AcDbBlockBegin
  2
*D9
 70
     1
 10
0.0
 20
0.0
 30
0.0
  3
*D9
  1

  0
LINE
  5
D707E
330
D7070
100
AcDbEntity
  8
标注
 48
5.0
370
    -2
100
AcDbLine
 10
102716.3645195812
 20
-168850.9656278904
 30
0.0
 11
102716.3645195812
 21
-169127.9207235618
 31
0.0
  0
LINE
  5
D707F
330
D7070
100
AcDbEntity
  8
标注
 48
5.0
370
    -2
100
AcDbLine
 10
103202.3645195812
 20
-168874.7081325066
 30
0.0
 11
103202.3645195812
 21
-169127.9207235618
 31
0.0
  0
LINE
  5
D7080
330
D7070
100
AcDbEntity
  8
标注
 48
5.0
370
    -2
100
AcDbLine
 10
102726.3645195812
 20
-169120.9207235618
 30
0.0
 11
102946.7978529146
 21
-169120.9207235618
 31
0.0
  0
LINE
  5
D7081
330
D7070
100
AcDbEntity
  8
标注
 48
5.0
370
    -2
100
AcDbLine
 10
103192.3645195812
 20
-169120.9207235618
 30
0.0
 11
102971.9311862479
 21
-169120.9207235618
 31
0.0
  0
SOLID
  5
D7082
330
D7070
100
AcDbEntity
  8
标注
 48
5.0
100
AcDbTrace
 10
102726.3645195812
 20
-169119.2540568952
 30
0.0
 11
102726.3645195812
 21
-169122.5873902285
 31
0.0
 12
102716.3645195812
 22
-169120.9207235618
 32
0.0
 13
102716.3645195812
 23
-169120.9207235618
 33
0.0
  0
SOLID
  5
D7083
330
D7070
100
AcDbEntity
  8
标注
 48
5.0
100
AcDbTrace
 10
103192.3645195812
 20
-169119.2540568952
 30
0.0
 11
103192.3645195812
 21
-169122.5873902285
 31
0.0
 12
103202.3645195812
 22
-169120.9207235618
 32
0.0
 13
103202.3645195812
 23
-169120.9207235618
 33
0.0
  0
MTEXT
  5
D7084
330
D7070
100
AcDbEntity
  8
标注
 48
5.0
100
AcDbMText
 10
102959.3645195812
 20
-169120.9207235618
 30
0.0
 40
12.0
 41
0.0
 71
     5
 72
     1
  1
\A1;486
 73
     1
 44
1.0
1001
ACAD
1000
MTEXTBEGIN
1070
    73
1070
     1
1070
    44
1040
1.0
1070
    74
1070
     0
1000
MTEXTEND
  0
POINT
  5
D7085
330
D7070
100
AcDbEntity
  8
Defpoints
 62
     0
 48
5.0
100
AcDbPoint
 10
102716.3645195812
 20
-168843.9656278904
 30
0.0
  0
POINT
  5
D7086
330
D7070
100
AcDbEntity
  8
Defpoints
 62
     0
 48
5.0
100
AcDbPoint
 10
103202.3645195812
 20
-168867.7081325066
 30
0.0
  0
POINT
  5
D7087
330
D7070
100
AcDbEntity
  8
Defpoints
 62
     0
 48
5.0
100
AcDbPoint
 10
103202.3645195812
 20
-169120.9207235618
 30
0.0
  0
ENDBLK
  5
D7072
330
D7070
100
AcDbEntity
  8
0
 48
5.0
100
AcDbBlockEnd
  0
BLOCK
  5
D708B
330
D708A
100
AcDbEntity
  8
0
 48
5.0
100
AcDbBlockBegin
  2
*D10
 70
     1
 10
0.0
 20
0.0
 30
0.0
  3
*D10
  1

  0
LINE
  5
D708D
330
D708A
100
AcDbEntity
  8
标注
 48
5.0
370
    -2
100
AcDbLine
 10
102730.3645195812
 20
-169099.6554389554
 30
0.0
 11
102740.3645195812
 21
-169099.6554389554
 31
0.0
  0
LINE
  5
D708E
330
D708A
100
AcDbEntity
  8
标注
 48
5.0
370
    -2
100
AcDbLine
 10
102706.3645195812
 20
-169099.6554389554
 30
0.0
 11
102696.3645195812
 21
-169099.6554389554
 31
0.0
  0
LINE
  5
D708F
330
D708A
100
AcDbEntity
  8
标注
 48
5.0
370
    -2
100
AcDbLine
 10
102720.3645195812
 20
-169099.6554389554
 30
0.0
 11
102716.3645195812
 21
-169099.6554389554
 31
0.0
  0
SOLID
  5
D7090
330
D708A
100
AcDbEntity
  8
标注
 48
5.0
100
AcDbTrace
 10
102730.3645195812
 20
-169097.9887722887
 30
0.0
 11
102730.3645195812
 21
-169101.3221056221
 31
0.0
 12
102720.3645195812
 22
-169099.6554389554
 32
0.0
 13
102720.3645195812
 23
-169099.6554389554
 33
0.0
  0
SOLID
  5
D7091
330
D708A
100
AcDbEntity
  8
标注
 48
5.0
100
AcDbTrace
 10
102706.3645195812
 20
-169097.9887722887
 30
0.0
 11
102706.3645195812
 21
-169101.3221056221
 31
0.0
 12
102716.3645195812
 22
-169099.6554389554
 32
0.0
 13
102716.3645195812
 23
-169099.6554389554
 33
0.0
  0
MTEXT
  5
D7092
330
D708A
100
AcDbEntity
  8
标注
 48
5.0
100
AcDbMText
 10
102692.1978529146
 20
-169099.6554389554
 30
0.0
 40
12.0
 41
0.0
 71
     5
 72
     1
  1
\A1;4
 73
     1
 44
1.0
1001
ACAD
1000
MTEXTBEGIN
1070
    73
1070
     1
1070
    44
1040
1.0
1070
    74
1070
     0
1000
MTEXTEND
  0
POINT
  5
D7093
330
D708A
100
AcDbEntity
  8
Defpoints
 62
     0
 48
5.0
100
AcDbPoint
 10
102720.3645195812
 20
-169099.6554389554
 30
0.0
  0
POINT
  5
D7094
330
D708A
100
AcDbEntity
  8
Defpoints
 62
     0
 48
5.0
100
AcDbPoint
 10
102716.3645195812
 20
-169099.6554389554
 30
0.0
  0
POINT
  5
D7095
330
D708A
100
AcDbEntity
  8
Defpoints
 62
     0
 48
5.0
100
AcDbPoint
 10
102716.3645195812
 20
-169099.6554389554
 30
0.0
  0
ENDBLK
  5
D708C
330
D708A
100
AcDbEntity
  8
0
 48
5.0
100
AcDbBlockEnd
  0
BLOCK
  5
D7098
330
D7097
100
AcDbEntity
  8
0
 48
5.0
100
AcDbBlockBegin
  2
*D11
 70
     1
 10
0.0
 20
0.0
 30
0.0
  3
*D11
  1

  0
LINE
  5
D70D7
330
D7097
100
AcDbEntity
  8
标注
 48
5.0
370
    -2
100
AcDbLine
 10
102966.3645195812
 20
-169068.7081325066
 30
0.0
 11
103242.6229936183
 21
-169068.7081325066
 31
0.0
  0
LINE
  5
D70D8
330
D7097
100
AcDbEntity
  8
标注
 48
5.0
370
    -2
100
AcDbLine
 10
102966.3645195812
 20
-168666.7081325066
 30
0.0
 11
103242.6229936183
 21
-168666.7081325066
 31
0.0
  0
LINE
  5
D70D9
330
D7097
100
AcDbEntity
  8
标注
 48
5.0
370
    -2
100
AcDbLine
 10
103235.6229936183
 20
-169058.7081325066
 30
0.0
 11
103235.6229936183
 21
-168880.1747991733
 31
0.0
  0
LINE
  5
D70DA
330
D7097
100
AcDbEntity
  8
标注
 48
5.0
370
    -2
100
AcDbLine
 10
103235.6229936183
 20
-168676.7081325066
 30
0.0
 11
103235.6229936183
 21
-168855.2414658399
 31
0.0
  0
SOLID
  5
D70DB
330
D7097
100
AcDbEntity
  8
标注
 48
5.0
100
AcDbTrace
 10
103233.9563269516
 20
-169058.7081325066
 30
0.0
 11
103237.2896602849
 21
-169058.7081325066
 31
0.0
 12
103235.6229936183
 22
-169068.7081325066
 32
0.0
 13
103235.6229936183
 23
-169068.7081325066
 33
0.0
  0
SOLID
  5
D70DC
330
D7097
100
AcDbEntity
  8
标注
 48
5.0
100
AcDbTrace
 10
103233.9563269516
 20
-168676.7081325066
 30
0.0
 11
103237.2896602849
 21
-168676.7081325066
 31
0.0
 12
103235.6229936183
 22
-168666.7081325066
 32
0.0
 13
103235.6229936183
 23
-168666.7081325066
 33
0.0
  0
MTEXT
  5
D70DD
330
D7097
100
AcDbEntity
  8
标注
 48
5.0
100
AcDbMText
 10
103235.6229936183
 20
-168867.7081325066
 30
0.0
 40
12.0
 41
0.0
 71
     5
 72
     1
  1
\A1;402
 11
0.0000000000000001
 21
1.0
 31
0.0
 73
     1
 44
1.0
1001
ACAD
1000
MTEXTBEGIN
1070
    73
1070
     1
1070
    44
1040
1.0
1070
    74
1070
     0
1000
MTEXTEND
  0
POINT
  5
D70DE
330
D7097
100
AcDbEntity
  8
Defpoints
 62
     0
 48
5.0
100
AcDbPoint
 10
102959.3645195812
 20
-169068.7081325066
 30
0.0
  0
POINT
  5
D70DF
330
D7097
100
AcDbEntity
  8
Defpoints
 62
     0
 48
5.0
100
AcDbPoint
 10
102959.3645195812
 20
-168666.7081325066
 30
0.0
  0
POINT
  5
D70E0
330
D7097
100
AcDbEntity
  8
Defpoints
 62
     0
 48
5.0
100
AcDbPoint
 10
103235.6229936183
 20
-168666.7081325066
 30
0.0
  0
ENDBLK
  5
D7099
330
D7097
100
AcDbEntity
  8
0
 48
5.0
100
AcDbBlockEnd
  0
BLOCK
  5
D70B2
330
D70B1
100
AcDbEntity
  8
0
 48
5.0
100
AcDbBlockBegin
  2
*D12
 70
     1
 10
0.0
 20
0.0
 30
0.0
  3
*D12
  1

  0
LINE
  5
D70BF
330
D70B1
100
AcDbEntity
  8
标注
 48
5.0
370
    -2
100
AcDbLine
 10
102966.3645195812
 20
-169072.7081325066
 30
0.0
 11
103268.6836356387
 21
-169072.7081325066
 31
0.0
  0
LINE
  5
D70C0
330
D70B1
100
AcDbEntity
  8
标注
 48
5.0
370
    -2
100
AcDbLine
 10
102966.3645195811
 20
-168662.7081325066
 30
0.0
 11
103268.6836356387
 21
-168662.7081325066
 31
0.0
  0
LINE
  5
D70C1
330
D70B1
100
AcDbEntity
  8
标注
 48
5.0
370
    -2
100
AcDbLine
 10
103261.6836356387
 20
-169062.7081325066
 30
0.0
 11
103261.6836356387
 21
-168880.2747991733
 31
0.0
  0
LINE
  5
D70C2
330
D70B1
100
AcDbEntity
  8
标注
 48
5.0
370
    -2
100
AcDbLine
 10
103261.6836356387
 20
-168672.7081325066
 30
0.0
 11
103261.6836356387
 21
-168855.1414658399
 31
0.0
  0
SOLID
  5
D70C3
330
D70B1
100
AcDbEntity
  8
标注
 48
5.0
100
AcDbTrace
 10
103260.016968972
 20
-169062.7081325066
 30
0.0
 11
103263.3503023053
 21
-169062.7081325066
 31
0.0
 12
103261.6836356387
 22
-169072.7081325066
 32
0.0
 13
103261.6836356387
 23
-169072.7081325066
 33
0.0
  0
SOLID
  5
D70C4
330
D70B1
100
AcDbEntity
  8
标注
 48
5.0
100
AcDbTrace
 10
103260.016968972
 20
-168672.7081325066
 30
0.0
 11
103263.3503023053
 21
-168672.7081325066
 31
0.0
 12
103261.6836356387
 22
-168662.7081325066
 32
0.0
 13
103261.6836356387
 23
-168662.7081325066
 33
0.0
  0
MTEXT
  5
D70C5
330
D70B1
100
AcDbEntity
  8
标注
 48
5.0
100
AcDbMText
 10
103261.6836356387
 20
-168867.7081325066
 30
0.0
 40
12.0
 41
0.0
 71
     5
 72
     1
  1
\A1;410
 11
0.0000000000000001
 21
1.0
 31
0.0
 73
     1
 44
1.0
1001
ACAD
1000
MTEXTBEGIN
1070
    73
1070
     1
1070
    44
1040
1.0
1070
    74
1070
     0
1000
MTEXTEND
  0
POINT
  5
D70C6
330
D70B1
100
AcDbEntity
  8
Defpoints
 62
     0
 48
5.0
100
AcDbPoint
 10
102959.3645195812
 20
-169072.7081325066
 30
0.0
  0
POINT
  5
D70C7
330
D70B1
100
AcDbEntity
  8
Defpoints
 62
     0
 48
5.0
100
AcDbPoint
 10
102959.3645195811
 20
-168662.7081325066
 30
0.0
  0
POINT
  5
D70C8
330
D70B1
100
AcDbEntity
  8
Defpoints
 62
     0
 48
5.0
100
AcDbPoint
 10
103261.6836356387
 20
-168662.7081325066
 30
0.0
  0
ENDBLK
  5
D70B3
330
D70B1
100
AcDbEntity
  8
0
 48
5.0
100
AcDbBlockEnd
  0
BLOCK
  5
D70CC
330
D70CB
100
AcDbEntity
  8
0
 48
5.0
100
AcDbBlockBegin
  2
*D13
 70
     1
 10
0.0
 20
0.0
 30
0.0
  3
*D13
  1

  0
LINE
  5
D70CE
330
D70CB
100
AcDbEntity
  8
标注
 48
5.0
370
    -2
100
AcDbLine
 10
103235.6229936183
 20
-168676.7081325066
 30
0.0
 11
103235.6229936183
 21
-168686.7081325066
 31
0.0
  0
LINE
  5
D70CF
330
D70CB
100
AcDbEntity
  8
标注
 48
5.0
370
    -2
100
AcDbLine
 10
103235.6229936183
 20
-168652.7081325066
 30
0.0
 11
103235.6229936183
 21
-168642.7081325066
 31
0.0
  0
LINE
  5
D70D0
330
D70CB
100
AcDbEntity
  8
标注
 48
5.0
370
    -2
100
AcDbLine
 10
103235.6229936183
 20
-168666.7081325066
 30
0.0
 11
103235.6229936183
 21
-168662.7081325066
 31
0.0
  0
SOLID
  5
D70D1
330
D70CB
100
AcDbEntity
  8
标注
 48
5.0
100
AcDbTrace
 10
103233.9563269516
 20
-168676.7081325066
 30
0.0
 11
103237.2896602849
 21
-168676.7081325066
 31
0.0
 12
103235.6229936183
 22
-168666.7081325066
 32
0.0
 13
103235.6229936183
 23
-168666.7081325066
 33
0.0
  0
SOLID
  5
D70D2
330
D70CB
100
AcDbEntity
  8
标注
 48
5.0
100
AcDbTrace
 10
103233.9563269516
 20
-168652.7081325066
 30
0.0
 11
103237.2896602849
 21
-168652.7081325066
 31
0.0
 12
103235.6229936183
 22
-168662.7081325066
 32
0.0
 13
103235.6229936183
 23
-168662.7081325066
 33
0.0
  0
MTEXT
  5
D70D3
330
D70CB
100
AcDbEntity
  8
标注
 48
5.0
100
AcDbMText
 10
103235.6229936183
 20
-168638.5414658399
 30
0.0
 40
12.0
 41
0.0
 71
     5
 72
     1
  1
\A1;4
 11
0.0000000000000001
 21
1.0
 31
0.0
 73
     1
 44
1.0
1001
ACAD
1000
MTEXTBEGIN
1070
    73
1070
     1
1070
    44
1040
1.0
1070
    74
1070
     0
1000
MTEXTEND
  0
POINT
  5
D70D4
330
D70CB
100
AcDbEntity
  8
Defpoints
 62
     0
 48
5.0
100
AcDbPoint
 10
103235.6229936183
 20
-168666.7081325066
 30
0.0
  0
POINT
  5
D70D5
330
D70CB
100
AcDbEntity
  8
Defpoints
 62
     0
 48
5.0
100
AcDbPoint
 10
103235.6229936183
 20
-168662.7081325066
 30
0.0
  0
POINT
  5
D70D6
330
D70CB
100
AcDbEntity
  8
Defpoints
 62
     0
 48
5.0
100
AcDbPoint
 10
103235.6229936183
 20
-168662.7081325066
 30
0.0
  0
ENDBLK
  5
D70CD
330
D70CB
100
AcDbEntity
  8
0
 48
5.0
100
AcDbBlockEnd
  0
BLOCK
  5
D70E4
330
D70E3
100
AcDbEntity
  8
0
 48
5.0
100
AcDbBlockBegin
  2
*D14
 70
     1
 10
0.0
 20
0.0
 30
0.0
  3
*D14
  1

  0
LINE
  5
D70EC
330
D70E3
100
AcDbEntity
  8
标注
 48
5.0
370
    -2
100
AcDbLine
 10
102758.7837191861
 20
-169009.404260924
 30
0.0
 11
102750.6091881046
 21
-169015.1642124514
 31
0.0
  0
MTEXT
  5
D70ED
330
D70E3
100
AcDbEntity
  8
标注
 48
5.0
100
AcDbMText
 10
102772.5714282768
 20
-168999.689142681
 30
0.0
 40
12.0
 41
0.0
 71
     5
 72
     1
  1
\A1;R100
 11
0.8174531081430162
 21
0.5759951527463773
 31
0.0
 73
     1
 44
1.0
1001
ACAD
1000
MTEXTBEGIN
1070
    73
1070
     1
1070
    44
1040
1.0
1070
    74
1070
     0
1000
MTEXTEND
  0
SOLID
  5
D70EE
330
D70E3
100
AcDbEntity
  8
标注
 48
5.0
100
AcDbTrace
 10
102749.6491961834
 20
-169013.8017906045
 30
0.0
 11
102751.5691800259
 21
-169016.5266342983
 31
0.0
 12
102742.4346570232
 22
-169020.9241639789
 32
0.0
 13
102742.4346570232
 23
-169020.9241639789
 33
0.0
  0
POINT
  5
D70EF
330
D70E3
100
AcDbEntity
  8
Defpoints
 62
     0
 48
5.0
100
AcDbPoint
 10
102742.4346570232
 20
-169020.9241639789
 30
0.0
  0
POINT
  5
D70F0
330
D70E3
100
AcDbEntity
  8
Defpoints
 62
     0
 48
5.0
100
AcDbPoint
 10
102824.1799678375
 20
-168963.3246487043
 30
0.0
  0
ENDBLK
  5
D70E5
330
D70E3
100
AcDbEntity
  8
0
 48
5.0
100
AcDbBlockEnd
  0
BLOCK
  5
D70F4
330
D70F3
100
AcDbEntity
  8
0
 48
5.0
100
AcDbBlockBegin
  2
*D15
 70
     1
 10
0.0
 20
0.0
 30
0.0
  3
*D15
  1

  0
LINE
  5
D70FC
330
D70F3
100
AcDbEntity
  8
标注
 48
5.0
370
    -2
100
AcDbLine
 10
102928.1753224574
 20
-169048.4348626489
 30
0.0
 11
102928.0001022488
 21
-169058.4333274249
 31
0.0
  0
MTEXT
  5
D70FD
330
D70F3
100
AcDbEntity
  8
标注
 48
5.0
100
AcDbMText
 10
102928.5456211648
 20
-169027.3047737554
 30
0.0
 40
12.0
 41
0.0
 71
     5
 72
     1
  1
\A1;R1800
 11
0.0175220208561963
 21
0.9998464776079952
 31
0.0
 73
     1
 44
1.0
1001
ACAD
1000
MTEXTBEGIN
1070
    73
1070
     1
1070
    44
1040
1.0
1070
    74
1070
     0
1000
MTEXTEND
  0
SOLID
  5
D70FE
330
D70F3
100
AcDbEntity
  8
标注
 48
5.0
100
AcDbTrace
 10
102926.3336914528
 20
-169058.4041240569
 30
0.0
 11
102929.6665130448
 21
-169058.462530793
 31
0.0
 12
102927.8248820403
 22
-169068.431792201
 32
0.0
 13
102927.8248820403
 23
-169068.431792201
 33
0.0
  0
POINT
  5
D70FF
330
D70F3
100
AcDbEntity
  8
Defpoints
 62
     0
 48
5.0
100
AcDbPoint
 10
102927.8248820403
 20
-169068.431792201
 30
0.0
  0
POINT
  5
D7100
330
D70F3
100
AcDbEntity
  8
Defpoints
 62
     0
 48
5.0
100
AcDbPoint
 10
102959.3645195814
 20
-167268.7081325067
 30
0.0
  0
ENDBLK
  5
D70F5
330
D70F3
100
AcDbEntity
  8
0
 48
5.0
100
AcDbBlockEnd
  0
BLOCK
  5
D7104
330
D7103
100
AcDbEntity
  8
0
 48
5.0
100
AcDbBlockBegin
  2
*D16
 70
     1
 10
0.0
 20
0.0
 30
0.0
  3
*D16
  1

  0
LINE
  5
D710C
330
D7103
100
AcDbEntity
  8
标注
 48
5.0
370
    -2
100
AcDbLine
 10
103145.6284775642
 20
-169024.8948871172
 30
0.0
 11
103152.0134033441
 21
-169032.5911669189
 31
0.0
  0
MTEXT
  5
D710D
330
D7103
100
AcDbEntity
  8
标注
 48
5.0
100
AcDbMText
 10
103134.8592360821
 20
-169011.9138285185
 30
0.0
 40
12.0
 41
0.0
 71
     5
 72
     1
  1
\A1;R100
 11
0.6384925779924944
 21
-0.7696279801621681
 31
0.0
 73
     1
 44
1.0
1001
ACAD
1000
MTEXTBEGIN
1070
    73
1070
     1
1070
    44
1040
1.0
1070
    74
1070
     0
1000
MTEXTEND
  0
SOLID
  5
D710E
330
D7103
100
AcDbEntity
  8
标注
 48
5.0
100
AcDbTrace
 10
103153.2961166444
 20
-169031.5270126222
 30
0.0
 11
103150.7306900439
 21
-169033.6553212155
 31
0.0
 12
103158.3983291241
 22
-169040.2874467205
 32
0.0
 13
103158.3983291241
 23
-169040.2874467205
 33
0.0
  0
POINT
  5
D710F
330
D7103
100
AcDbEntity
  8
Defpoints
 62
     0
 48
5.0
100
AcDbPoint
 10
103158.3983291241
 20
-169040.2874467205
 30
0.0
  0
POINT
  5
D7110
330
D7103
100
AcDbEntity
  8
Defpoints
 62
     0
 48
5.0
100
AcDbPoint
 10
103094.5490713248
 20
-168963.3246487042
 30
0.0
  0
ENDBLK
  5
D7105
330
D7103
100
AcDbEntity
  8
0
 48
5.0
100
AcDbBlockEnd
  0
BLOCK
  5
D7114
330
D7113
100
AcDbEntity
  8
0
 48
5.0
100
AcDbBlockBegin
  2
*D17
 70
     1
 10
0.0
 20
0.0
 30
0.0
  3
*D17
  1

  0
LINE
  5
D711D
330
D7113
100
AcDbEntity
  8
标注
 48
5.0
370
    -2
100
AcDbLine
 10
103178.188006427
 20
-168888.9647201425
 30
0.0
 11
103188.186627418
 21
-168889.1307872335
 31
0.0
  0
MTEXT
  5
D711E
330
D7113
100
AcDbEntity
  8
标注
 48
5.0
100
AcDbMText
 10
103157.0575873994
 20
-168888.6137650238
 30
0.0
 40
12.0
 41
0.0
 71
     5
 72
     1
  1
\A1;R1300
 11
0.9998620990982615
 21
-0.0166067090905451
 31
0.0
 73
     1
 44
1.0
1001
ACAD
1000
MTEXTBEGIN
1070
    73
1070
     1
1070
    44
1040
1.0
1070
    74
1070
     0
1000
MTEXTEND
  0
SOLID
  5
D711F
330
D7113
100
AcDbEntity
  8
标注
 48
5.0
100
AcDbTrace
 10
103188.2143052665
 20
-168887.4643504016
 30
0.0
 11
103188.1589495695
 21
-168890.7972240652
 31
0.0
 12
103198.185248409
 22
-168889.2968543244
 32
0.0
 13
103198.185248409
 23
-168889.2968543244
 33
0.0
  0
ARC
  5
D7120
330
D7113
100
AcDbEntity
  8
标注
 48
5.0
370
    -2
100
AcDbCircle
 10
101898.3645195812
 20
-168867.7081325067
 30
0.0
 40
1299.999999999985
100
AcDbArc
 50
358.7399461819485
 51
359.6914842641628
  0
POINT
  5
D7121
330
D7113
100
AcDbEntity
  8
Defpoints
 62
     0
 48
5.0
100
AcDbPoint
 10
103198.185248409
 20
-168889.2968543244
 30
0.0
  0
POINT
  5
D7122
330
D7113
100
AcDbEntity
  8
Defpoints
 62
     0
 48
5.0
100
AcDbPoint
 10
101898.3645195812
 20
-168867.7081325067
 30
0.0
  0
ENDBLK
  5
D7115
330
D7113
100
AcDbEntity
  8
0
 48
5.0
100
AcDbBlockEnd
  0
BLOCK
  5
D7126
330
D7125
100
AcDbEntity
  8
0
 48
5.0
100
AcDbBlockBegin
  2
*D18
 70
     1
 10
0.0
 20
0.0
 30
0.0
  3
*D18
  1

  0
LINE
  5
D712E
330
D7125
100
AcDbEntity
  8
标注
 48
5.0
370
    -2
100
AcDbLine
 10
103147.1473354724
 20
-168711.8137380395
 30
0.0
 11
103153.7221184908
 21
-168704.2790032558
 31
0.0
  0
MTEXT
  5
D712F
330
D7125
100
AcDbEntity
  8
标注
 48
5.0
100
AcDbMText
 10
103136.0578681147
 20
-168724.5223240413
 30
0.0
 40
12.0
 41
0.0
 71
     5
 72
     1
  1
\A1;R100
 11
0.6574783018437163
 21
0.7534734783684846
 31
0.0
 73
     1
 44
1.0
1001
ACAD
1000
MTEXTBEGIN
1070
    73
1070
     1
1070
    44
1040
1.0
1070
    74
1070
     0
1000
MTEXTEND
  0
SOLID
  5
D7130
330
D7125
100
AcDbEntity
  8
标注
 48
5.0
100
AcDbTrace
 10
103152.4663293602
 20
-168703.1832060861
 30
0.0
 11
103154.9779076214
 21
-168705.3748004255
 31
0.0
 12
103160.2969015092
 22
-168696.7442684721
 32
0.0
 13
103160.2969015092
 23
-168696.7442684721
 33
0.0
  0
POINT
  5
D7131
330
D7125
100
AcDbEntity
  8
Defpoints
 62
     0
 48
5.0
100
AcDbPoint
 10
103160.2969015092
 20
-168696.7442684721
 30
0.0
  0
POINT
  5
D7132
330
D7125
100
AcDbEntity
  8
Defpoints
 62
     0
 48
5.0
100
AcDbPoint
 10
103094.5490713249
 20
-168772.091616309
 30
0.0
  0
ENDBLK
  5
D7127
330
D7125
100
AcDbEntity
  8
0
 48
5.0
100
AcDbBlockEnd
  0
BLOCK
  5
D7146
330
D7145
100
AcDbEntity
  8
0
 48
5.0
100
AcDbBlockBegin
  2
*D19
 70
     1
 10
0.0
 20
0.0
 30
0.0
  3
*D19
  1

  0
LINE
  5
D714E
330
D7145
100
AcDbEntity
  8
标注
 48
5.0
370
    -2
100
AcDbLine
 10
102776.7082713859
 20
-168707.6987748124
 30
0.0
 11
102770.7743093295
 21
-168699.6496696253
 31
0.0
  0
MTEXT
  5
D714F
330
D7145
100
AcDbEntity
  8
标注
 48
5.0
100
AcDbMText
 10
102786.7168873878
 20
-168721.2749322279
 30
0.0
 40
12.0
 41
0.0
 71
     5
 72
     1
  1
\A1;R100
 11
0.5933962056454544
 21
-0.8049105187072523
 31
0.0
 73
     1
 44
1.0
1001
ACAD
1000
MTEXTBEGIN
1070
    73
1070
     1
1070
    44
1040
1.0
1070
    74
1070
     0
1000
MTEXTEND
  0
SOLID
  5
D7150
330
D7145
100
AcDbEntity
  8
标注
 48
5.0
100
AcDbTrace
 10
102772.1158268606
 20
-168698.6606759492
 30
0.0
 11
102769.4327917983
 21
-168700.6386633014
 31
0.0
 12
102764.840347273
 22
-168691.6005644382
 32
0.0
 13
102764.840347273
 23
-168691.6005644382
 33
0.0
  0
POINT
  5
D7151
330
D7145
100
AcDbEntity
  8
Defpoints
 62
     0
 48
5.0
100
AcDbPoint
 10
102764.840347273
 20
-168691.6005644382
 30
0.0
  0
POINT
  5
D7152
330
D7145
100
AcDbEntity
  8
Defpoints
 62
     0
 48
5.0
100
AcDbPoint
 10
102824.1799678375
 20
-168772.091616309
 30
0.0
  0
ENDBLK
  5
D7147
330
D7145
100
AcDbEntity
  8
0
 48
5.0
100
AcDbBlockEnd
  0
ENDSEC
  0
SECTION
  2
ENTITIES
  0
LWPOLYLINE
  5
D6F44
102
{ACAD_REACTORS
330
D6FA0
330
D70AF
330
D70F1
330
D7101
330
D7111
330
D7123
330
D7133
330
D7153
102
}
330
1F
100
AcDbEntity
  8
虚线
 48
5.0
100
AcDbPolyline
 90
       12
 70
     1
 43
0.0
 10
103198.3645195812
 20
-168867.7081325066
 42
0.0199438903445454
 10
103194.2311173035
 20
-168764.1235732925
 42
0.3682692741387056
 10
103102.5011037804
 20
-168672.4082918268
 42
0.0199037205888535
 10
102959.3645195812
 20
-168666.7081325066
 42
0.0199037205888535
 10
102816.227935382
 20
-168672.4082918268
 42
0.3682692741387056
 10
102724.4979218589
 20
-168764.1235732925
 42
0.0199438903445453
 10
102720.3645195812
 20
-168867.7081325066
 42
0.0199438903445453
 10
102724.4979218589
 20
-168971.2926917207
 42
0.3682692741387056
 10
102816.227935382
 20
-169063.0079731865
 42
0.0199037205888535
 10
102959.3645195812
 20
-169068.7081325066
 42
0.0199037205888535
 10
103102.5011037804
 20
-169063.0079731865
 42
0.3682692741387057
 10
103194.2311173035
 20
-168971.2926917207
 42
0.0199438903445453
  0
LWPOLYLINE
  5
D6F63
102
{ACAD_REACTORS
330
D6FBE
330
D7019
330
D7088
330
D70C9
102
}
330
1F
100
AcDbEntity
  8
0
100
AcDbPolyline
 90
       12
 70
     1
 43
0.0
 10
103202.3645195812
 20
-168867.7081325066
 42
0.0199438903445452
 10
103198.2183991427
 20
-168763.8048515718
 42
0.3682692741387546
 10
103102.8191850786
 20
-168668.4209588475
 42
0.0199037205888531
 10
102959.3645195812
 20
-168662.7081325066
 42
0.0199037205888532
 10
102815.9098540838
 20
-168668.4209588475
 42
0.3682692741387547
 10
102720.5106400198
 20
-168763.8048515718
 42
0.0199438903445451
 10
102716.3645195812
 20
-168867.7081325066
 42
0.0199438903445451
 10
102720.5106400198
 20
-168971.6114134414
 42
0.3682692741387546
 10
102815.9098540838
 20
-169066.9953061658
 42
0.0199037205888532
 10
102959.3645195812
 20
-169072.7081325066
 42
0.0199037205888532
 10
103102.8191850786
 20
-169066.9953061657
 42
0.3682692741387549
 10
103198.2183991427
 20
-168971.6114134414
 42
0.0199438903445451
  0
LINE
  5
D6F68
330
1F
100
AcDbEntity
  8
虚线
 48
5.0
100
AcDbLine
 10
102737.3645195712
 20
-168867.7081325066
 30
0.0
 11
102956.3645195812
 21
-168867.7081325066
 31
0.0
  0
LINE
  5
D6F69
330
1F
100
AcDbEntity
  8
虚线
 48
5.0
100
AcDbLine
 10
102959.3645195812
 20
-169051.7081325166
 30
0.0
 11
102959.3645195812
 21
-168870.7081325066
 31
0.0
  0
CIRCLE
  5
D6F6A
102
{ACAD_REACTORS
330
D6F6D
330
D703E
102
}
330
1F
100
AcDbEntity
  8
0
100
AcDbCircle
 10
102959.3645195812
 20
-168867.7081325066
 30
0.0
 40
3.0
  0
DIMENSION
  5
D6F6B
102
{ACAD_XDICTIONARY
360
D6F6C
102
}
102
{ACAD_REACTORS
330
D6F6D
102
}
330
1F
100
AcDbEntity
  8
标注
 48
5.0
100
AcDbDimension
  2
*D1
 10
102961.8759429541
 20
-168866.0671716168
 30
0.0
 11
102924.3334890562
 21
-168890.5973640241
 31
0.0
 70
    35
  1
5-<>
 71
     5
 42
5.999999999941792
  3
副本Standard
100
AcDbDiametricDimension
 15
102956.8530962083
 25
-168869.3490933964
 35
0.0
 40
0.0
1001
ACAD_DSTYLE_DIMRADIAL_EXTENSION
1070
   387
1070
     1
1070
   388
1040
0.0
1070
   390
1040
0.0
1001
ACAD_DSTYLE_DIMINSPECT
1070
   396
1000
100%
1070
   395
1000

1070
   394
1070
    33
1070
   393
1070
     0
1001
ACAD
1000
DSTYLE
1002
{
1070
    41
1040
10.0
1070
    49
1040
8.0
1070
   140
1040
12.0
1070
   147
1040
0.5
1070
   179
1070
     0
1070
   288
1070
     1
1070
   345
1005
15
1002
}
  0
CIRCLE
  5
D6F79
102
{ACAD_REACTORS
330
D7019
102
}
330
1F
100
AcDbEntity
  8
0
100
AcDbCircle
 10
102959.3645195812
 20
-168680.7081324966
 30
0.0
 40
3.0
  0
CIRCLE
  5
D6F7A
102
{ACAD_REACTORS
330
D6FBE
102
}
330
1F
100
AcDbEntity
  8
0
100
AcDbCircle
 10
102734.3645195712
 20
-168867.7081325066
 30
0.0
 40
3.0
  0
CIRCLE
  5
D6F7B
102
{ACAD_REACTORS
330
D6FF1
102
}
330
1F
100
AcDbEntity
  8
0
100
AcDbCircle
 10
103184.3645195912
 20
-168867.7081325066
 30
0.0
 40
3.0
  0
CIRCLE
  5
D6F7C
102
{ACAD_REACTORS
330
D7058
102
}
330
1F
100
AcDbEntity
  8
0
100
AcDbCircle
 10
102959.3645195812
 20
-169054.7081325166
 30
0.0
 40
3.0
  0
LINE
  5
D6F85
330
1F
100
AcDbEntity
  8
虚线
 48
5.0
100
AcDbLine
 10
102959.3645195812
 20
-168864.7081325066
 30
0.0
 11
102959.3645195812
 21
-168683.7081324966
 31
0.0
  0
LINE
  5
D6F86
330
1F
100
AcDbEntity
  8
虚线
 48
5.0
100
AcDbLine
 10
102962.3645195812
 20
-168867.7081325066
 30
0.0
 11
103181.3645195912
 21
-168867.7081325066
 31
0.0
  0
DIMENSION
  5
D6F87
102
{ACAD_XDICTIONARY
360
D6F95
102
}
102
{ACAD_REACTORS
330
D6FA0
102
}
330
1F
100
AcDbEntity
  8
标注
 48
5.0
100
AcDbDimension
  2
*D2
 10
103198.3645195812
 20
-169099.6554389554
 30
0.0
 11
102959.3645195812
 21
-169099.6554389554
 31
0.0
 70
    32
 71
     5
 42
478.0
  3
副本Standard
100
AcDbAlignedDimension
 13
102720.3645195812
 23
-168867.7081325066
 33
0.0
 14
103198.3645195812
 24
-168867.7081325067
 34
0.0
100
AcDbRotatedDimension
1001
ACAD
1000
DSTYLE
1002
{
1070
    41
1040
10.0
1070
    49
1040
8.0
1070
   140
1040
12.0
1070
   147
1040
0.5
1070
   179
1070
     0
1070
   345
1005
15
1002
}
  0
DIMENSION
  5
D6FA1
102
{ACAD_XDICTIONARY
360
D6FB1
102
}
102
{ACAD_REACTORS
330
D6FBE
102
}
330
1F
100
AcDbEntity
  8
标注
 48
5.0
100
AcDbDimension
  2
*D3
 10
102716.3645195812
 20
-168834.2231232742
 30
0.0
 11
102688.7978529146
 21
-168834.2231232742
 31
0.0
 70
   160
 71
     5
 42
17.99999999000283
  3
副本Standard
100
AcDbAlignedDimension
 13
102734.3645195712
 23
-168867.7081325066
 33
0.0
 14
102716.3645195812
 24
-168867.7081325066
 34
0.0
100
AcDbRotatedDimension
1001
ACAD
1000
DSTYLE
1002
{
1070
    41
1040
10.0
1070
    49
1040
8.0
1070
   140
1040
12.0
1070
   147
1040
0.5
1070
   179
1070
     0
1070
   345
1005
15
1002
}
  0
DIMENSION
  5
D6FCA
330
1F
100
AcDbEntity
  8
标注
 48
5.0
100
AcDbDimension
  2
*D4
 10
102959.3645195812
 20
-168834.2231232742
 30
0.0
 11
102846.8645195762
 21
-168834.2231232742
 31
0.0
 70
    32
 71
     5
 42
225.0000000099826
  3
副本Standard
100
AcDbAlignedDimension
 13
102734.3645195712
 23
-168867.7081325066
 33
0.0
 14
102959.3645195812
 24
-168867.7081325066
 34
0.0
100
AcDbRotatedDimension
1001
ACAD
1000
DSTYLE
1002
{
1070
    41
1040
10.0
1070
    49
1040
8.0
1070
   140
1040
12.0
1070
   147
1040
0.5
1070
   179
1070
     0
1070
   345
1005
15
1002
}
  0
DIMENSION
  5
D6FD8
102
{ACAD_XDICTIONARY
360
D6FE6
102
}
102
{ACAD_REACTORS
330
D6FF1
102
}
330
1F
100
AcDbEntity
  8
标注
 48
5.0
100
AcDbDimension
  2
*D5
 10
103184.3645195912
 20
-168809.2670970867
 30
0.0
 11
102845.5811862429
 21
-168809.2670970867
 31
0.0
 70
   160
 71
     5
 42
450.0000000199943
  3
副本Standard
100
AcDbAlignedDimension
 13
102734.3645195712
 23
-168867.7081325066
 33
0.0
 14
103184.3645195912
 24
-168867.7081325066
 34
0.0
100
AcDbRotatedDimension
1001
ACAD
1000
DSTYLE
1002
{
1070
    41
1040
10.0
1070
    49
1040
8.0
1070
   140
1040
12.0
1070
   147
1040
0.5
1070
   179
1070
     0
1070
   345
1005
15
1002
}
  0
DIMENSION
  5
D6FFC
102
{ACAD_XDICTIONARY
360
D700C
102
}
102
{ACAD_REACTORS
330
D7019
102
}
330
1F
100
AcDbEntity
  8
标注
 48
5.0
100
AcDbDimension
  2
*D6
 10
102983.4026948575
 20
-168662.7081325066
 30
0.0
 11
102983.4026948575
 21
-168635.1414658399
 31
0.0
 70
   160
 71
     5
 42
17.99999999001738
  3
副本Standard
100
AcDbAlignedDimension
 13
102959.3645195812
 23
-168680.7081324966
 33
0.0
 14
102959.3645195812
 24
-168662.7081325066
 34
0.0
 50
90.0
100
AcDbRotatedDimension
1001
ACAD
1000
DSTYLE
1002
{
1070
    41
1040
10.0
1070
    49
1040
8.0
1070
   140
1040
12.0
1070
   147
1040
0.5
1070
   179
1070
     0
1070
   345
1005
15
1002
}
  0
DIMENSION
  5
D7025
102
{ACAD_XDICTIONARY
360
D7033
102
}
102
{ACAD_REACTORS
330
D703E
102
}
330
1F
100
AcDbEntity
  8
标注
 48
5.0
100
AcDbDimension
  2
*D7
 10
102983.4026948575
 20
-168867.7081325066
 30
0.0
 11
102983.4026948575
 21
-168774.2081325016
 31
0.0
 70
    32
 71
     5
 42
187.0000000099826
  3
副本Standard
100
AcDbAlignedDimension
 13
102959.3645195812
 23
-168680.7081324966
 33
0.0
 14
102959.3645195812
 24
-168867.7081325066
 34
0.0
 50
90.0
100
AcDbRotatedDimension
1001
ACAD
1000
DSTYLE
1002
{
1070
    41
1040
10.0
1070
    49
1040
8.0
1070
   140
1040
12.0
1070
   147
1040
0.5
1070
   179
1070
     0
1070
   345
1005
15
1002
}
  0
DIMENSION
  5
D703F
102
{ACAD_XDICTIONARY
360
D704D
102
}
102
{ACAD_REACTORS
330
D7058
102
}
330
1F
100
AcDbEntity
  8
标注
 48
5.0
100
AcDbDimension
  2
*D8
 10
103013.2406117364
 20
-168680.7081324966
 30
0.0
 11
103013.2406117364
 21
-168774.933908254
 31
0.0
 70
   160
 71
     5
 42
374.0000000199943
  3
副本Standard
100
AcDbAlignedDimension
 13
102959.3645195812
 23
-169054.7081325166
 33
0.0
 14
102959.3645195812
 24
-168680.7081324966
 34
0.0
 50
90.0
100
AcDbRotatedDimension
1001
ACAD
1000
DSTYLE
1002
{
1070
    41
1040
10.0
1070
    49
1040
8.0
1070
   140
1040
12.0
1070
   147
1040
0.5
1070
   179
1070
     0
1070
   345
1005
15
1002
}
  0
DIMENSION
  5
D706F
102
{ACAD_XDICTIONARY
360
D707D
102
}
102
{ACAD_REACTORS
330
D7088
102
}
330
1F
100
AcDbEntity
  8
标注
 48
5.0
100
AcDbDimension
  2
*D9
 10
103202.3645195812
 20
-169120.9207235618
 30
0.0
 11
102959.3645195812
 21
-169120.9207235618
 31
0.0
 70
    32
 71
     5
 42
486.0
  3
副本Standard
100
AcDbAlignedDimension
 13
102716.3645195812
 23
-168843.9656278904
 33
0.0
 14
103202.3645195812
 24
-168867.7081325066
 34
0.0
100
AcDbRotatedDimension
1001
ACAD
1000
DSTYLE
1002
{
1070
    41
1040
10.0
1070
    49
1040
8.0
1070
   140
1040
12.0
1070
   147
1040
0.5
1070
   179
1070
     0
1070
   345
1005
15
1002
}
  0
DIMENSION
  5
D7089
330
1F
100
AcDbEntity
  8
标注
 48
5.0
100
AcDbDimension
  2
*D10
 10
102716.3645195812
 20
-169099.6554389554
 30
0.0
 11
102692.1978529146
 21
-169099.6554389554
 31
0.0
 70
    32
 71
     5
 42
4.0
  3
副本Standard
100
AcDbAlignedDimension
 13
102720.3645195812
 23
-169099.6554389554
 33
0.0
 14
102716.3645195812
 24
-169099.6554389554
 34
0.0
100
AcDbRotatedDimension
1001
ACAD
1000
DSTYLE
1002
{
1070
    41
1040
10.0
1070
    49
1040
8.0
1070
   140
1040
12.0
1070
   147
1040
0.5
1070
   179
1070
     0
1070
   345
1005
15
1002
}
  0
DIMENSION
  5
D7096
102
{ACAD_XDICTIONARY
360
D70A4
102
}
102
{ACAD_REACTORS
330
D70AF
102
}
330
1F
100
AcDbEntity
  8
标注
 48
5.0
100
AcDbDimension
  2
*D11
 10
103235.6229936183
 20
-168666.7081325066
 30
0.0
 11
103235.6229936183
 21
-168867.7081325066
 31
0.0
 70
   160
 71
     5
 42
402.0
  3
副本Standard
100
AcDbAlignedDimension
 13
102959.3645195812
 23
-169068.7081325066
 33
0.0
 14
102959.3645195812
 24
-168666.7081325066
 34
0.0
 50
90.0
100
AcDbRotatedDimension
1001
ACAD
1000
DSTYLE
1002
{
1070
    41
1040
10.0
1070
    49
1040
8.0
1070
   140
1040
12.0
1070
   147
1040
0.5
1070
   179
1070
     0
1070
   345
1005
15
1002
}
  0
DIMENSION
  5
D70B0
102
{ACAD_XDICTIONARY
360
D70BE
102
}
102
{ACAD_REACTORS
330
D70C9
102
}
330
1F
100
AcDbEntity
  8
标注
 48
5.0
100
AcDbDimension
  2
*D12
 10
103261.6836356387
 20
-168662.7081325066
 30
0.0
 11
103261.6836356387
 21
-168867.7081325066
 31
0.0
 70
    32
 71
     5
 42
410.0
  3
副本Standard
100
AcDbAlignedDimension
 13
102959.3645195812
 23
-169072.7081325066
 33
0.0
 14
102959.3645195811
 24
-168662.7081325066
 34
0.0
 50
90.0
100
AcDbRotatedDimension
1001
ACAD
1000
DSTYLE
1002
{
1070
    41
1040
10.0
1070
    49
1040
8.0
1070
   140
1040
12.0
1070
   147
1040
0.5
1070
   179
1070
     0
1070
   345
1005
15
1002
}
  0
DIMENSION
  5
D70CA
330
1F
100
AcDbEntity
  8
标注
 48
5.0
100
AcDbDimension
  2
*D13
 10
103235.6229936183
 20
-168662.7081325066
 30
0.0
 11
103235.6229936183
 21
-168638.5414658399
 31
0.0
 70
    32
 71
     5
 42
4.0
  3
副本Standard
100
AcDbAlignedDimension
 13
103235.6229936183
 23
-168666.7081325066
 33
0.0
 14
103235.6229936183
 24
-168662.7081325066
 34
0.0
 50
90.0
100
AcDbRotatedDimension
1001
ACAD
1000
DSTYLE
1002
{
1070
    41
1040
10.0
1070
    49
1040
8.0
1070
   140
1040
12.0
1070
   147
1040
0.5
1070
   179
1070
     0
1070
   345
1005
15
1002
}
  0
DIMENSION
  5
D70E2
102
{ACAD_XDICTIONARY
360
D70EB
102
}
102
{ACAD_REACTORS
330
D70F1
102
}
330
1F
100
AcDbEntity
  8
标注
 48
5.0
100
AcDbDimension
  2
*D14
 10
102824.1799678375
 20
-168963.3246487043
 30
0.0
 11
102772.5714282768
 21
-168999.689142681
 31
0.0
 70
   164
 71
     5
 42
99.99999999998545
  3
副本Standard
100
AcDbRadialDimension
 15
102742.4346570232
 25
-169020.9241639789
 35
0.0
 40
0.0
1001
ACAD
1000
DSTYLE
1002
{
1070
    41
1040
10.0
1070
    49
1040
8.0
1070
   140
1040
12.0
1070
   147
1040
0.5
1070
   179
1070
     0
1070
   288
1070
     1
1070
   345
1005
15
1002
}
1001
ACAD_DSTYLE_DIMRADIAL_EXTENSION
1070
   387
1070
     1
1070
   388
1040
3.221357640348723
1070
   390
1040
4.632784608891047
  0
DIMENSION
  5
D70F2
102
{ACAD_XDICTIONARY
360
D70FB
102
}
102
{ACAD_REACTORS
330
D7101
102
}
330
1F
100
AcDbEntity
  8
标注
 48
5.0
100
AcDbDimension
  2
*D15
 10
102959.3645195814
 20
-167268.7081325067
 30
0.0
 11
102928.5456211648
 21
-169027.3047737554
 31
0.0
 70
   164
 71
     5
 42
1799.999999999942
  3
副本Standard
100
AcDbRadialDimension
 15
102927.8248820403
 25
-169068.431792201
 35
0.0
 40
0.0
1001
ACAD
1000
DSTYLE
1002
{
1070
    41
1040
10.0
1070
    49
1040
8.0
1070
   140
1040
12.0
1070
   147
1040
0.5
1070
   179
1070
     0
1070
   288
1070
     1
1070
   345
1005
15
1002
}
1001
ACAD_DSTYLE_DIMRADIAL_EXTENSION
1070
   387
1070
     1
1070
   388
1040
4.632784608890951
1070
   390
1040
4.712388980384631
  0
DIMENSION
  5
D7102
102
{ACAD_XDICTIONARY
360
D710B
102
}
102
{ACAD_REACTORS
330
D7111
102
}
330
1F
100
AcDbEntity
  8
标注
 48
5.0
100
AcDbDimension
  2
*D16
 10
103094.5490713248
 20
-168963.3246487042
 30
0.0
 11
103134.8592360821
 21
-169011.9138285185
 31
0.0
 70
   164
 71
     5
 42
99.9999999999418
  3
副本Standard
100
AcDbRadialDimension
 15
103158.3983291241
 25
-169040.2874467205
 35
0.0
 40
0.0
1001
ACAD
1000
DSTYLE
1002
{
1070
    41
1040
10.0
1070
    49
1040
8.0
1070
   140
1040
12.0
1070
   147
1040
0.5
1070
   179
1070
     0
1070
   288
1070
     1
1070
   345
1005
15
1002
}
1001
ACAD_DSTYLE_DIMRADIAL_EXTENSION
1070
   387
1070
     1
1070
   388
1040
4.791993351878329
1070
   390
1040
6.203420320420653
  0
DIMENSION
  5
D7112
102
{ACAD_XDICTIONARY
360
D711C
102
}
102
{ACAD_REACTORS
330
D7123
102
}
330
1F
100
AcDbEntity
  8
标注
 48
5.0
100
AcDbDimension
  2
*D17
 10
101898.3645195812
 20
-168867.7081325067
 30
0.0
 11
103157.0575873994
 21
-168888.6137650238
 31
0.0
 70
   164
 71
     5
 42
1299.999999999985
  3
副本Standard
100
AcDbRadialDimension
 15
103198.185248409
 25
-168889.2968543244
 35
0.0
 40
0.0
1001
ACAD
1000
DSTYLE
1002
{
1070
    41
1040
10.0
1070
    49
1040
8.0
1070
   140
1040
12.0
1070
   147
1040
0.5
1070
   179
1070
     0
1070
   288
1070
     1
1070
   345
1005
15
1002
}
1001
ACAD_DSTYLE_DIMRADIAL_EXTENSION
1070
   387
1070
     1
1070
   388
1040
0.0000000000000448
1070
   390
1040
0.0797649867589541
  0
DIMENSION
  5
D7124
102
{ACAD_XDICTIONARY
360
D712D
102
}
102
{ACAD_REACTORS
330
D7133
102
}
330
1F
100
AcDbEntity
  8
标注
 48
5.0
100
AcDbDimension
  2
*D18
 10
103094.5490713249
 20
-168772.091616309
 30
0.0
 11
103136.0578681147
 21
-168724.5223240413
 31
0.0
 70
   164
 71
     5
 42
99.99999999997092
  3
副本Standard
100
AcDbRadialDimension
 15
103160.2969015092
 25
-168696.7442684721
 35
0.0
 40
0.0
1001
ACAD
1000
DSTYLE
1002
{
1070
    41
1040
10.0
1070
    49
1040
8.0
1070
   140
1040
12.0
1070
   147
1040
0.5
1070
   179
1070
     0
1070
   288
1070
     1
1070
   345
1005
15
1002
}
1001
ACAD_DSTYLE_DIMRADIAL_EXTENSION
1070
   387
1070
     1
1070
   388
1040
0.0797649867589317
1070
   390
1040
1.491191955301254
  0
DIMENSION
  5
D7144
102
{ACAD_XDICTIONARY
360
D714D
102
}
102
{ACAD_REACTORS
330
D7153
102
}
330
1F
100
AcDbEntity
  8
标注
 48
5.0
100
AcDbDimension
  2
*D19
 10
102824.1799678375
 20
-168772.091616309
 30
0.0
 11
102786.7168873878
 21
-168721.2749322279
 31
0.0
 70
   164
 71
     5
 42
100.0
  3
副本Standard
100
AcDbRadialDimension
 15
102764.840347273
 25
-168691.6005644382
 35
0.0
 40
0.0
1001
ACAD
1000
DSTYLE
1002
{
1070
    41
1040
10.0
1070
    49
1040
8.0
1070
   140
1040
12.0
1070
   147
1040
0.5
1070
   179
1070
     0
1070
   288
1070
     1
1070
   345
1005
15
1002
}
1001
ACAD_DSTYLE_DIMRADIAL_EXTENSION
1070
   387
1070
     1
1070
   388
1040
1.650400698288536
1070
   390
1040
3.061827666830861
  0
ENDSEC
  0
SECTION
  2
OBJECTS
  0
DICTIONARY
  5
C
330
0
100
AcDbDictionary
281
     1
  3
ACAD_2007HEADERVARS_RT
350
D71AF
  3
ACAD_COLOR
350
6C
  3
ACAD_GROUP
350
D
  3
ACAD_LAYOUT
350
1A
  3
ACAD_MATERIAL
350
6B
  3
ACAD_MLEADERSTYLE
350
CEDBA
  3
ACAD_MLINESTYLE
350
17
  3
ACAD_PLOTSETTINGS
350
19
  3
ACAD_PLOTSTYLENAME
350
E
  3
ACAD_SCALELIST
350
CED98
  3
ACAD_TABLESTYLE
350
FAF
  3
ACAD_VISUALSTYLE
350
CED87
  3
AcadDim
350
100FD
  3
ACDB_RECOMPOSE_DATA
350
D0C4C
  3
AcDbVariableDictionary
350
59
  3
ASE_INDEX_DICTIONARY
350
C2668
  3
DWGPROPS
350
D71AE
  3
lxx_dict
350
A9D16
  0
DICTIONARY
  5
AB
330
2
100
AcDbDictionary
280
     1
281
     1
  3
ACAD_LAYERFILTERS
360
176
  3
ACAD_LAYERSTATES
360
AC
  0
DICTIONARY
  5
CF251
330
10
100
AcDbDictionary
280
     1
281
     1
  3
ADSK_XREC_LAYER_RECONCILED
360
CF252
  0
DICTIONARY
  5
CF259
330
9D
100
AcDbDictionary
280
     1
281
     1
  3
ADSK_XREC_LAYER_RECONCILED
360
CF25A
  0
DICTIONARY
  5
CF25B
330
9E
100
AcDbDictionary
280
     1
281
     1
  3
ADSK_XREC_LAYER_RECONCILED
360
CF25C
  0
DICTIONARY
  5
CF25D
330
16DF9
100
AcDbDictionary
280
     1
281
     1
  3
ADSK_XREC_LAYER_RECONCILED
360
CF25E
  0
DICTIONARY
  5
D61F6
330
D61F5
100
AcDbDictionary
280
     1
281
     1
  0
DICTIONARY
  5
D6E5D
330
D6E5C
100
AcDbDictionary
280
     1
281
     1
  0
DICTIONARY
  5
118B
330
1F
100
AcDbDictionary
280
     1
281
     1
  3
ACAD_SORTENTS
360
118C
  0
DICTIONARY
  5
D71B9
330
D6F7F
100
AcDbDictionary
280
     1
281
     1
  3
ACAD_MTEXT_RT
360
D71BA
  0
DICTIONARY
  5
D6F6C
330
D6F6B
100
AcDbDictionary
280
     1
281
     1
  3
ACAD_DIMASSOC
360
D6F6D
  0
DICTIONARY
  5
D6F95
330
D6F87
100
AcDbDictionary
280
     1
281
     1
  3
ACAD_DIMASSOC
360
D6FA0
  0
DICTIONARY
  5
D6FB1
330
D6FA1
100
AcDbDictionary
280
     1
281
     1
  3
ACAD_DIMASSOC
360
D6FBE
  0
DICTIONARY
  5
D6FE6
330
D6FD8
100
AcDbDictionary
280
     1
281
     1
  3
ACAD_DIMASSOC
360
D6FF1
  0
DICTIONARY
  5
D700C
330
D6FFC
100
AcDbDictionary
280
     1
281
     1
  3
ACAD_DIMASSOC
360
D7019
  0
DICTIONARY
  5
D7033
330
D7025
100
AcDbDictionary
280
     1
281
     1
  3
ACAD_DIMASSOC
360
D703E
  0
DICTIONARY
  5
D704D
330
D703F
100
AcDbDictionary
280
     1
281
     1
  3
ACAD_DIMASSOC
360
D7058
  0
DICTIONARY
  5
D707D
330
D706F
100
AcDbDictionary
280
     1
281
     1
  3
ACAD_DIMASSOC
360
D7088
  0
DICTIONARY
  5
D70A4
330
D7096
100
AcDbDictionary
280
     1
281
     1
  3
ACAD_DIMASSOC
360
D70AF
  0
DICTIONARY
  5
D70BE
330
D70B0
100
AcDbDictionary
280
     1
281
     1
  3
ACAD_DIMASSOC
360
D70C9
  0
DICTIONARY
  5
D70EB
330
D70E2
100
AcDbDictionary
280
     1
281
     1
  3
ACAD_DIMASSOC
360
D70F1
  0
DICTIONARY
  5
D70FB
330
D70F2
100
AcDbDictionary
280
     1
281
     1
  3
ACAD_DIMASSOC
360
D7101
  0
DICTIONARY
  5
D710B
330
D7102
100
AcDbDictionary
280
     1
281
     1
  3
ACAD_DIMASSOC
360
D7111
  0
DICTIONARY
  5
D711C
330
D7112
100
AcDbDictionary
280
     1
281
     1
  3
ACAD_DIMASSOC
360
D7123
  0
DICTIONARY
  5
D712D
330
D7124
100
AcDbDictionary
280
     1
281
     1
  3
ACAD_DIMASSOC
360
D7133
  0
DICTIONARY
  5
D714D
330
D7144
100
AcDbDictionary
280
     1
281
     1
  3
ACAD_DIMASSOC
360
D7153
  0
DICTIONARY
  5
D71AF
102
{ACAD_REACTORS
330
C
102
}
330
C
100
AcDbDictionary
281
     1
  3
DIMFXL
350
D71B0
  3
DIMLTYPE
350
D71B1
  0
DICTIONARY
  5
6C
102
{ACAD_REACTORS
330
C
102
}
330
C
100
AcDbDictionary
281
     1
  0
DICTIONARY
  5
D
102
{ACAD_REACTORS
330
C
102
}
330
C
100
AcDbDictionary
281
     1
  0
DICTIONARY
  5
1A
102
{ACAD_REACTORS
330
C
102
}
330
C
100
AcDbDictionary
281
     1
  3
Model
350
22
  3
布局1
350
74
  3
布局2
350
79
  0
DICTIONARY
  5
6B
102
{ACAD_REACTORS
330
C
102
}
330
C
100
AcDbDictionary
281
     1
  3
ByBlock
350
CED77
  3
ByLayer
350
CED6F
  3
Global
350
CED7F
  0
DICTIONARY
  5
CEDBA
102
{ACAD_REACTORS
330
C
102
}
330
C
100
AcDbDictionary
281
     1
  3
Standard
350
CEDBB
  0
DICTIONARY
  5
17
102
{ACAD_REACTORS
330
C
102
}
330
C
100
AcDbDictionary
281
     1
  3
Standard
350
18
  0
DICTIONARY
  5
19
102
{ACAD_REACTORS
330
C
102
}
330
C
100
AcDbDictionary
281
     1
  0
ACDBDICTIONARYWDFLT
  5
E
102
{ACAD_REACTORS
330
C
102
}
330
C
100
AcDbDictionary
281
     1
  3
Normal
350
F
100
AcDbDictionaryWithDefault
340
F
  0
DICTIONARY
  5
CED98
102
{ACAD_REACTORS
330
C
102
}
330
C
100
AcDbDictionary
281
     1
  3
A0
350
CED99
  3
A1
350
CED9A
  3
A2
350
CED9B
  3
A3
350
CED9C
  3
A4
350
CED9D
  3
A5
350
CED9E
  3
A6
350
CED9F
  3
A7
350
CEDA0
  3
A8
350
CEDA1
  3
A9
350
CEDA2
  3
B0
350
CEDA3
  3
B1
350
CEDA4
  3
B2
350
CEDA5
  3
B3
350
CEDA6
  3
B4
350
CEDA7
  3
B5
350
CEDA8
  3
B6
350
CEDA9
  3
B7
350
CEDAA
  3
B8
350
CEDAB
  3
B9
350
CEDAC
  3
C0
350
CEDAD
  3
C1
350
CEDAE
  3
C2
350
CEDAF
  3
C3
350
CEDB0
  3
C4
350
CEDB1
  3
C5
350
CEDB2
  3
C6
350
CEDB3
  3
C7
350
CEDB4
  3
C8
350
CEDB5
  3
C9
350
CEDB6
  3
D0
350
CEDB7
  3
D1
350
CEDB8
  3
D2
350
CEDB9
  0
DICTIONARY
  5
FAF
102
{ACAD_REACTORS
330
C
102
}
330
C
100
AcDbDictionary
281
     1
  3
Standard
350
FB0
  0
DICTIONARY
  5
CED87
102
{ACAD_REACTORS
330
C
102
}
330
C
100
AcDbDictionary
281
     1
  3
2dWireframe
350
CED8D
  3
3D Hidden
350
CED8F
  3
3dWireframe
350
CED8E
  3
Basic
350
CED8C
  3
Brighten
350
CED93
  3
ColorChange
350
CED97
  3
Conceptual
350
CED90
  3
Dim
350
CED92
  3
Facepattern
350
CED96
  3
Flat
350
CED88
  3
FlatWithEdges
350
CED89
  3
Gouraud
350
CED8A
  3
GouraudWithEdges
350
CED8B
  3
Linepattern
350
CED95
  3
Realistic
350
CED91
  3
Thicken
350
CED94
  0
XRECORD
  5
100FD
102
{ACAD_REACTORS
330
C
102
}
330
C
100
AcDbXrecord
280
     1
 90
   990106
  3

 60
     0
 61
     0
 62
     1
 63
     3
 64
     0
 65
     0
 66
     0
 67
     3
 68
     1
 69
     0
 70
     0
 71
     0
 72
     0
 40
0.0
170
     0
  0
XRECORD
  5
D0C4C
102
{ACAD_REACTORS
330
C
102
}
330
C
100
AcDbXrecord
280
     1
 90
        1
330
FB0
  0
DICTIONARY
  5
59
102
{ACAD_REACTORS
330
C
102
}
330
C
100
AcDbDictionary
281
     1
  3
CANNOSCALE
350
D0C4F
  3
CMLEADERSTYLE
350
D0C4D
  3
CTABLESTYLE
350
100D
  3
DIMASSOC
350
5A
  3
HIDETEXT
350
5E
  3
INDEXCTL
350
D717C
  3
LIGHTINGUNITS
350
D0C50
  3
MSLTSCALE
350
D0C4E
  3
SORTENTS
350
D717B
  0
DICTIONARY
  5
C2668
102
{ACAD_REACTORS
330
C
102
}
330
C
100
AcDbDictionary
281
     1
  3
ASEBlockHierarchyIndexRecord
350
C2669
1001
DCO15
1040
1779131318.625
  0
XRECORD
  5
D71AE
102
{ACAD_REACTORS
330
C
102
}
330
C
100
AcDbXrecord
280
     1
  1
DWGPROPS COOKIE
  2

  3

  4

  6

  7

  8
Administrator
  9

300
=
301
=
302
=
303
=
304
=
305
=
306
=
307
=
308
=
309
=
 40
8.849452997685185
 41
2454355.343801713
 42
2457938.597202431
  1

 90
        0
  0
DICTIONARY
  5
A9D16
102
{ACAD_REACTORS
330
C
102
}
330
C
100
AcDbDictionary
281
     1
  3
lxx_dimth
350
A9D17
  0
DICTIONARY
  5
176
102
{ACAD_REACTORS
330
AB
102
}
330
AB
100
AcDbDictionary
281
     1
  0
DICTIONARY
  5
AC
102
{ACAD_REACTORS
330
AB
102
}
330
AB
100
AcDbDictionary
281
     1
  0
XRECORD
  5
CF252
102
{ACAD_REACTORS
330
CF251
102
}
330
CF251
100
AcDbXrecord
280
     1
290
     1
  0
XRECORD
  5
CF25A
102
{ACAD_REACTORS
330
CF259
102
}
330
CF259
100
AcDbXrecord
280
     1
290
     1
  0
XRECORD
  5
CF25C
102
{ACAD_REACTORS
330
CF25B
102
}
330
CF25B
100
AcDbXrecord
280
     1
290
     1
  0
XRECORD
  5
CF25E
102
{ACAD_REACTORS
330
CF25D
102
}
330
CF25D
100
AcDbXrecord
280
     1
290
     1
  0
SORTENTSTABLE
  5
118C
102
{ACAD_REACTORS
330
118B
102
}
330
118B
100
AcDbSortentsTable
330
1F
331
D6F68
  5
D6F68
331
D6F79
  5
D6F7B
331
D6F69
  5
D6F6A
331
D6F63
  5
D6F63
331
D6F7A
  5
D6F7C
331
D6F6A
  5
D6F79
331
D6F44
  5
D6F44
331
D6F7B
  5
D6F85
331
D6F6B
  5
D6F7A
331
D6F7C
  5
D6F86
331
D6F85
  5
D6F6B
331
D6F86
  5
D6F69
  0
XRECORD
  5
D71BA
102
{ACAD_REACTORS
330
D71B9
102
}
330
D71B9
100
AcDbXrecord
280
     1
 40
5922.0
  1
\A1;5-\U+22056
  0
DIMASSOC
  5
D6F6D
102
{ACAD_REACTORS
330
D6F6C
102
}
330
D6F6C
100
AcDbDimAssoc
330
D6F6B
 90
        2
 70
     0
 71
     0
  1
AcDbOsnapPointRef
 72
     3
331
D6F6A
 73
     2
 91
        0
 40
0.0
 10
0.0
 20
0.0
 30
0.0
 75
     0
  0
DIMASSOC
  5
D6FA0
102
{ACAD_REACTORS
330
D6F95
102
}
330
D6F95
100
AcDbDimAssoc
330
D6F87
 90
        3
 70
     0
 71
     0
  1
AcDbOsnapPointRef
 72
     1
331
D6F44
 73
     2
 91
        6
 40
3.141592653589748
 10
0.0
 20
0.0
 30
2.000000000000000E+50
 75
     0
  1
AcDbOsnapPointRef
 72
     8
331
D6F44
 73
     2
 91
       12
 40
6.283185307179517
 10
0.0
 20
0.0
 30
0.0
 75
     1
  1
AcDbOsnapPointRef
 72
     1
331
D6F44
 73
     2
 91
        6
 40
3.141592653589748
 10
0.0
 20
0.0
 30
2.000000000000000E+50
 75
     0
  0
DIMASSOC
  5
D6FBE
102
{ACAD_REACTORS
330
D6FB1
102
}
330
D6FB1
100
AcDbDimAssoc
330
D6FA1
 90
        3
 70
     0
 71
     0
  1
AcDbOsnapPointRef
 72
     3
331
D6F7A
 73
     2
 91
        0
 40
0.0
 10
0.0
 20
0.0
 30
0.0
 75
     0
  1
AcDbOsnapPointRef
 72
     1
331
D6F63
 73
     2
 91
        6
 40
3.141592653589748
 10
0.0
 20
0.0
 30
2.000000000000000E+50
 75
     0
  0
DIMASSOC
  5
D6FF1
102
{ACAD_REACTORS
330
D6FE6
102
}
330
D6FE6
100
AcDbDimAssoc
330
D6FD8
 90
        2
 70
     0
 71
     0
  1
AcDbOsnapPointRef
 72
     3
331
D6F7B
 73
     2
 91
        0
 40
0.0
 10
0.0
 20
0.0
 30
0.0
 75
     0
  0
DIMASSOC
  5
D7019
102
{ACAD_REACTORS
330
D700C
102
}
330
D700C
100
AcDbDimAssoc
330
D6FFC
 90
        3
 70
     0
 71
     0
  1
AcDbOsnapPointRef
 72
     3
331
D6F79
 73
     2
 91
        0
 40
0.0
 10
0.0
 20
0.0
 30
0.0
 75
     0
  1
AcDbOsnapPointRef
 72
     1
331
D6F63
 73
     2
 91
        3
 40
1.570796326794944
 10
0.0
 20
0.0
 30
2.000000000000000E+50
 75
     0
  0
DIMASSOC
  5
D703E
102
{ACAD_REACTORS
330
D7033
102
}
330
D7033
100
AcDbDimAssoc
330
D7025
 90
        2
 70
     0
 71
     0
  1
AcDbOsnapPointRef
 72
     3
331
D6F6A
 73
     2
 91
        0
 40
0.0
 10
0.0
 20
0.0
 30
0.0
 75
     0
  0
DIMASSOC
  5
D7058
102
{ACAD_REACTORS
330
D704D
102
}
330
D704D
100
AcDbDimAssoc
330
D703F
 90
        1
 70
     0
 71
     0
  1
AcDbOsnapPointRef
 72
     3
331
D6F7C
 73
     2
 91
        0
 40
0.0
 10
0.0
 20
0.0
 30
0.0
 75
     0
  0
DIMASSOC
  5
D7088
102
{ACAD_REACTORS
330
D707D
102
}
330
D707D
100
AcDbDimAssoc
330
D706F
 90
        2
 70
     0
 71
     0
  1
AcDbOsnapPointRef
 72
     1
331
D6F63
 73
     2
 91
       12
 40
6.283185307179541
 10
0.0
 20
0.0
 30
2.000000000000000E+50
 75
     0
  0
DIMASSOC
  5
D70AF
102
{ACAD_REACTORS
330
D70A4
102
}
330
D70A4
100
AcDbDimAssoc
330
D7096
 90
        3
 70
     0
 71
     0
  1
AcDbOsnapPointRef
 72
     1
331
D6F44
 73
     2
 91
        9
 40
4.712388980384631
 10
0.0
 20
0.0
 30
2.000000000000000E+50
 75
     0
  1
AcDbOsnapPointRef
 72
     8
331
D6F44
 73
     2
 91
        4
 40
1.570796326794969
 10
0.0
 20
0.0
 30
0.0
 75
     1
  1
AcDbOsnapPointRef
 72
     1
331
D6F44
 73
     2
 91
        9
 40
4.712388980384631
 10
0.0
 20
0.0
 30
2.000000000000000E+50
 75
     0
  0
DIMASSOC
  5
D70C9
102
{ACAD_REACTORS
330
D70BE
102
}
330
D70BE
100
AcDbDimAssoc
330
D70B0
 90
        3
 70
     0
 71
     0
  1
AcDbOsnapPointRef
 72
     1
331
D6F63
 73
     2
 91
        9
 40
4.712388980384737
 10
0.0
 20
0.0
 30
2.000000000000000E+50
 75
     0
  1
AcDbOsnapPointRef
 72
     8
331
D6F63
 73
     2
 91
        4
 40
1.570796326795098
 10
0.0
 20
0.0
 30
0.0
 75
     1
  1
AcDbOsnapPointRef
 72
     1
331
D6F63
 73
     2
 91
        9
 40
4.712388980384737
 10
0.0
 20
0.0
 30
2.000000000000000E+50
 75
     0
  0
DIMASSOC
  5
D70F1
102
{ACAD_REACTORS
330
D70EB
102
}
330
D70EB
100
AcDbDimAssoc
330
D70E2
 90
        2
 70
     0
 71
     0
  1
AcDbOsnapPointRef
 72
     3
331
D6F44
 73
     2
 91
        8
 40
0.0
 10
0.0
 20
0.0
 30
0.0
 75
     0
  0
DIMASSOC
  5
D7101
102
{ACAD_REACTORS
330
D70FB
102
}
330
D70FB
100
AcDbDimAssoc
330
D70F2
 90
        2
 70
     0
 71
     0
  1
AcDbOsnapPointRef
 72
     3
331
D6F44
 73
     2
 91
        9
 40
0.0
 10
0.0
 20
0.0
 30
0.0
 75
     0
  0
DIMASSOC
  5
D7111
102
{ACAD_REACTORS
330
D710B
102
}
330
D710B
100
AcDbDimAssoc
330
D7102
 90
        2
 70
     0
 71
     0
  1
AcDbOsnapPointRef
 72
     3
331
D6F44
 73
     2
 91
       11
 40
0.0
 10
0.0
 20
0.0
 30
0.0
 75
     0
  0
DIMASSOC
  5
D7123
102
{ACAD_REACTORS
330
D711C
102
}
330
D711C
100
AcDbDimAssoc
330
D7112
 90
        2
 70
     0
 71
     0
  1
AcDbOsnapPointRef
 72
     3
331
D6F44
 73
     2
 91
        1
 40
0.0
 10
0.0
 20
0.0
 30
0.0
 75
     0
  0
DIMASSOC
  5
D7133
102
{ACAD_REACTORS
330
D712D
102
}
330
D712D
100
AcDbDimAssoc
330
D7124
 90
        2
 70
     0
 71
     0
  1
AcDbOsnapPointRef
 72
     3
331
D6F44
 73
     2
 91
        2
 40
0.0
 10
0.0
 20
0.0
 30
0.0
 75
     0
  0
DIMASSOC
  5
D7153
102
{ACAD_REACTORS
330
D714D
102
}
330
D714D
100
AcDbDimAssoc
330
D7144
 90
        2
 70
     0
 71
     0
  1
AcDbOsnapPointRef
 72
     3
331
D6F44
 73
     2
 91
        5
 40
0.0
 10
0.0
 20
0.0
 30
0.0
 75
     0
  0
XRECORD
  5
D71B0
102
{ACAD_REACTORS
330
D71AF
102
}
330
D71AF
100
AcDbXrecord
280
     1
 40
8.0
  0
XRECORD
  5
D71B1
102
{ACAD_REACTORS
330
D71AF
102
}
330
D71AF
100
AcDbXrecord
280
     1
340
15
  0
LAYOUT
  5
22
102
{ACAD_XDICTIONARY
360
D71B2
102
}
102
{ACAD_REACTORS
330
1A
102
}
330
1A
100
AcDbPlotSettings
  1

  2
\\PC-201204061032\Canon LBP2900
  4
A4
  6

 40
5.873749732971191
 41
6.805091857910156
 42
5.873748779296875
 43
4.857757568359375
 44
209.9733276367186
 45
296.9259948730469
 46
-5.889999999999998
 47
-5.87
 48
85766.02374884076
 49
-163980.7810393121
140
88736.02374884079
141
-161880.7810393122
142
1.0
143
10.0
 70
 11940
 72
     1
 73
     1
 74
     4
  7
yanxiu.ctb
 75
     0
147
0.1
148
-85766.02374884076
149
163980.7810393121
100
AcDbLayout
  1
Model
 70
     1
 71
     0
 10
0.0
 20
0.0
 11
12.0
 21
9.0
 12
0.0
 22
0.0
 32
0.0
 14
0.0
 24
0.0
 34
0.0
 15
0.0
 25
0.0
 35
0.0
146
0.0
 13
0.0
 23
0.0
 33
0.0
 16
1.0
 26
0.0
 36
0.0
 17
0.0
 27
1.0
 37
0.0
 76
     0
330
1F
331
CED6D
  0
LAYOUT
  5
74
102
{ACAD_XDICTIONARY
360
D71B4
102
}
102
{ACAD_REACTORS
330
1A
102
}
330
1A
100
AcDbPlotSettings
  1

  2
\\ADSCCNDC1\hq601xrx1
  4

  6

 40
0.0
 41
0.0
 42
0.0
 43
0.0
 44
0.0
 45
0.0
 46
0.0
 47
0.0
 48
0.0
 49
0.0
140
0.0
141
0.0
142
1.0
143
1.0
 70
   688
 72
     0
 73
     0
 74
     5
  7
yanxiu.ctb
 75
    16
147
1.0
148
0.0
149
0.0
100
AcDbLayout
  1
布局1
 70
     1
 71
     1
 10
0.0
 20
0.0
 11
12.0
 21
9.0
 12
0.0
 22
0.0
 32
0.0
 14
0.0
 24
0.0
 34
0.0
 15
0.0
 25
0.0
 35
0.0
146
0.0
 13
0.0
 23
0.0
 33
0.0
 16
1.0
 26
0.0
 36
0.0
 17
0.0
 27
1.0
 37
0.0
 76
     0
330
73
  0
LAYOUT
  5
79
102
{ACAD_XDICTIONARY
360
D71B6
102
}
102
{ACAD_REACTORS
330
1A
102
}
330
1A
100
AcDbPlotSettings
  1

  2
\\ADSCCNDC1\hq601xrx1
  4

  6

 40
0.0
 41
0.0
 42
0.0
 43
0.0
 44
0.0
 45
0.0
 46
0.0
 47
0.0
 48
0.0
 49
0.0
140
0.0
141
0.0
142
1.0
143
1.0
 70
   688
 72
     0
 73
     0
 74
     5
  7
yanxiu.ctb
 75
    16
147
1.0
148
0.0
149
0.0
100
AcDbLayout
  1
布局2
 70
     1
 71
     2
 10
0.0
 20
0.0
 11
12.0
 21
9.0
 12
0.0
 22
0.0
 32
0.0
 14
0.0
 24
0.0
 34
0.0
 15
0.0
 25
0.0
 35
0.0
146
0.0
 13
0.0
 23
0.0
 33
0.0
 16
1.0
 26
0.0
 36
0.0
 17
0.0
 27
1.0
 37
0.0
 76
     0
330
78
  0
MATERIAL
  5
CED77
102
{ACAD_XDICTIONARY
360
CED78
102
}
102
{ACAD_REACTORS
330
6B
102
}
330
6B
100
AcDbMaterial
  1
ByBlock
 72
     0
 43
0.0208333333333333
 43
0.0
 43
0.0
 43
0.0
 43
0.0
 43
0.0208333333333333
 43
0.0
 43
0.0
 43
0.0
 43
0.0
 43
1.0
 43
0.0
 43
0.0
 43
0.0
 43
0.0
 43
1.0
 77
     0
 47
0.0208333333333333
 47
0.0
 47
0.0
 47
0.0
 47
0.0
 47
0.0208333333333333
 47
0.0
 47
0.0
 47
0.0
 47
0.0
 47
1.0
 47
0.0
 47
0.0
 47
0.0
 47
0.0
 47
1.0
171
     0
 49
0.0208333333333333
 49
0.0
 49
0.0
 49
0.0
 49
0.0
 49
0.0208333333333333
 49
0.0
 49
0.0
 49
0.0
 49
0.0
 49
1.0
 49
0.0
 49
0.0
 49
0.0
 49
0.0
 49
1.0
175
     0
142
0.0208333333333333
142
0.0
142
0.0
142
0.0
142
0.0
142
0.0208333333333333
142
0.0
142
0.0
142
0.0
142
0.0
142
1.0
142
0.0
142
0.0
142
0.0
142
0.0
142
1.0
179
     0
144
0.0208333333333333
144
0.0
144
0.0
144
0.0
144
0.0
144
0.0208333333333333
144
0.0
144
0.0
144
0.0
144
0.0
144
1.0
144
0.0
144
0.0
144
0.0
144
0.0
144
1.0
147
0.0208333333333333
147
0.0
147
0.0
147
0.0
147
0.0
147
0.0208333333333333
147
0.0
147
0.0
147
0.0
147
0.0
147
1.0
147
0.0
147
0.0
147
0.0
147
0.0
147
1.0
  0
MATERIAL
  5
CED6F
102
{ACAD_XDICTIONARY
360
CED70
102
}
102
{ACAD_REACTORS
330
6B
102
}
330
6B
100
AcDbMaterial
  1
ByLayer
 72
     0
 43
0.0208333333333333
 43
0.0
 43
0.0
 43
0.0
 43
0.0
 43
0.0208333333333333
 43
0.0
 43
0.0
 43
0.0
 43
0.0
 43
1.0
 43
0.0
 43
0.0
 43
0.0
 43
0.0
 43
1.0
 77
     0
 47
0.0208333333333333
 47
0.0
 47
0.0
 47
0.0
 47
0.0
 47
0.0208333333333333
 47
0.0
 47
0.0
 47
0.0
 47
0.0
 47
1.0
 47
0.0
 47
0.0
 47
0.0
 47
0.0
 47
1.0
171
     0
 49
0.0208333333333333
 49
0.0
 49
0.0
 49
0.0
 49
0.0
 49
0.0208333333333333
 49
0.0
 49
0.0
 49
0.0
 49
0.0
 49
1.0
 49
0.0
 49
0.0
 49
0.0
 49
0.0
 49
1.0
175
     0
142
0.0208333333333333
142
0.0
142
0.0
142
0.0
142
0.0
142
0.0208333333333333
142
0.0
142
0.0
142
0.0
142
0.0
142
1.0
142
0.0
142
0.0
142
0.0
142
0.0
142
1.0
179
     0
144
0.0208333333333333
144
0.0
144
0.0
144
0.0
144
0.0
144
0.0208333333333333
144
0.0
144
0.0
144
0.0
144
0.0
144
1.0
144
0.0
144
0.0
144
0.0
144
0.0
144
1.0
147
0.0208333333333333
147
0.0
147
0.0
147
0.0
147
0.0
147
0.0208333333333333
147
0.0
147
0.0
147
0.0
147
0.0
147
1.0
147
0.0
147
0.0
147
0.0
147
0.0
147
1.0
  0
MATERIAL
  5
CED7F
102
{ACAD_XDICTIONARY
360
CED80
102
}
102
{ACAD_REACTORS
330
6B
102
}
330
6B
100
AcDbMaterial
  1
Global
 72
     0
 43
0.0208333333333333
 43
0.0
 43
0.0
 43
0.0
 43
0.0
 43
0.0208333333333333
 43
0.0
 43
0.0
 43
0.0
 43
0.0
 43
1.0
 43
0.0
 43
0.0
 43
0.0
 43
0.0
 43
1.0
 77
     0
 47
0.0208333333333333
 47
0.0
 47
0.0
 47
0.0
 47
0.0
 47
0.0208333333333333
 47
0.0
 47
0.0
 47
0.0
 47
0.0
 47
1.0
 47
0.0
 47
0.0
 47
0.0
 47
0.0
 47
1.0
171
     0
 49
0.0208333333333333
 49
0.0
 49
0.0
 49
0.0
 49
0.0
 49
0.0208333333333333
 49
0.0
 49
0.0
 49
0.0
 49
0.0
 49
1.0
 49
0.0
 49
0.0
 49
0.0
 49
0.0
 49
1.0
175
     0
142
0.0208333333333333
142
0.0
142
0.0
142
0.0
142
0.0
142
0.0208333333333333
142
0.0
142
0.0
142
0.0
142
0.0
142
1.0
142
0.0
142
0.0
142
0.0
142
0.0
142
1.0
179
     0
144
0.0208333333333333
144
0.0
144
0.0
144
0.0
144
0.0
144
0.0208333333333333
144
0.0
144
0.0
144
0.0
144
0.0
144
1.0
144
0.0
144
0.0
144
0.0
144
0.0
144
1.0
147
0.0208333333333333
147
0.0
147
0.0
147
0.0
147
0.0
147
0.0208333333333333
147
0.0
147
0.0
147
0.0
147
0.0
147
1.0
147
0.0
147
0.0
147
0.0
147
0.0
147
1.0
  0
MLEADERSTYLE
  5
CEDBB
102
{ACAD_REACTORS
330
CEDBA
102
}
330
CEDBA
100
AcDbMLeaderStyle
170
     2
171
     1
172
     0
 90
        2
 40
0.0
 41
0.0
173
     1
 91
-1056964608
340
14
 92
       -2
290
     1
 42
0.09
291
     1
 43
0.36
  3
Standard
 44
0.18
300

342
11
174
     1
178
     6
175
     1
176
     0
 93
-1056964608
 45
0.18
292
     0
297
     0
 46
0.18
 94
-1056964608
 47
1.0
 49
1.0
140
1.0
293
     1
141
0.0
294
     1
177
     0
142
1.0
295
     0
296
     0
143
0.125
1001
ACAD_MLEADERVER
1070
     2
  0
MLINESTYLE
  5
18
102
{ACAD_REACTORS
330
17
102
}
330
17
100
AcDbMlineStyle
  2
STANDARD
 70
     0
  3

 62
   256
 51
90.0
 52
90.0
 71
     2
 49
0.5
 62
   256
  6
BYLAYER
 49
-0.5
 62
   256
  6
BYLAYER
  0
ACDBPLACEHOLDER
  5
F
102
{ACAD_REACTORS
330
E
102
}
330
E
  0
SCALE
  5
CED99
102
{ACAD_REACTORS
330
CED98
102
}
330
CED98
100
AcDbScale
 70
     0
300
1:1
140
1.0
141
1.0
290
     1
  0
SCALE
  5
CED9A
102
{ACAD_REACTORS
330
CED98
102
}
330
CED98
100
AcDbScale
 70
     0
300
1:2
140
1.0
141
2.0
290
     0
  0
SCALE
  5
CED9B
102
{ACAD_REACTORS
330
CED98
102
}
330
CED98
100
AcDbScale
 70
     0
300
1:4
140
1.0
141
4.0
290
     0
  0
SCALE
  5
CED9C
102
{ACAD_REACTORS
330
CED98
102
}
330
CED98
100
AcDbScale
 70
     0
300
1:5
140
1.0
141
5.0
290
     0
  0
SCALE
  5
CED9D
102
{ACAD_REACTORS
330
CED98
102
}
330
CED98
100
AcDbScale
 70
     0
300
1:8
140
1.0
141
8.0
290
     0
  0
SCALE
  5
CED9E
102
{ACAD_REACTORS
330
CED98
102
}
330
CED98
100
AcDbScale
 70
     0
300
1:10
140
1.0
141
10.0
290
     0
  0
SCALE
  5
CED9F
102
{ACAD_REACTORS
330
CED98
102
}
330
CED98
100
AcDbScale
 70
     0
300
1:16
140
1.0
141
16.0
290
     0
  0
SCALE
  5
CEDA0
102
{ACAD_REACTORS
330
CED98
102
}
330
CED98
100
AcDbScale
 70
     0
300
1:20
140
1.0
141
20.0
290
     0
  0
SCALE
  5
CEDA1
102
{ACAD_REACTORS
330
CED98
102
}
330
CED98
100
AcDbScale
 70
     0
300
1:30
140
1.0
141
30.0
290
     0
  0
SCALE
  5
CEDA2
102
{ACAD_REACTORS
330
CED98
102
}
330
CED98
100
AcDbScale
 70
     0
300
1:40
140
1.0
141
40.0
290
     0
  0
SCALE
  5
CEDA3
102
{ACAD_REACTORS
330
CED98
102
}
330
CED98
100
AcDbScale
 70
     0
300
1:50
140
1.0
141
50.0
290
     0
  0
SCALE
  5
CEDA4
102
{ACAD_REACTORS
330
CED98
102
}
330
CED98
100
AcDbScale
 70
     0
300
1:100
140
1.0
141
100.0
290
     0
  0
SCALE
  5
CEDA5
102
{ACAD_REACTORS
330
CED98
102
}
330
CED98
100
AcDbScale
 70
     0
300
2:1
140
2.0
141
1.0
290
     0
  0
SCALE
  5
CEDA6
102
{ACAD_REACTORS
330
CED98
102
}
330
CED98
100
AcDbScale
 70
     0
300
4:1
140
4.0
141
1.0
290
     0
  0
SCALE
  5
CEDA7
102
{ACAD_REACTORS
330
CED98
102
}
330
CED98
100
AcDbScale
 70
     0
300
8:1
140
8.0
141
1.0
290
     0
  0
SCALE
  5
CEDA8
102
{ACAD_REACTORS
330
CED98
102
}
330
CED98
100
AcDbScale
 70
     0
300
10:1
140
10.0
141
1.0
290
     0
  0
SCALE
  5
CEDA9
102
{ACAD_REACTORS
330
CED98
102
}
330
CED98
100
AcDbScale
 70
     0
300
100:1
140
100.0
141
1.0
290
     0
  0
SCALE
  5
CEDAA
102
{ACAD_REACTORS
330
CED98
102
}
330
CED98
100
AcDbScale
 70
     0
300
1/128" = 1'-0"
140
0.0078125
141
12.0
290
     0
  0
SCALE
  5
CEDAB
102
{ACAD_REACTORS
330
CED98
102
}
330
CED98
100
AcDbScale
 70
     0
300
1/64" = 1'-0"
140
0.015625
141
12.0
290
     0
  0
SCALE
  5
CEDAC
102
{ACAD_REACTORS
330
CED98
102
}
330
CED98
100
AcDbScale
 70
     0
300
1/32" = 1'-0"
140
0.03125
141
12.0
290
     0
  0
SCALE
  5
CEDAD
102
{ACAD_REACTORS
330
CED98
102
}
330
CED98
100
AcDbScale
 70
     0
300
1/16" = 1'-0"
140
0.0625
141
12.0
290
     0
  0
SCALE
  5
CEDAE
102
{ACAD_REACTORS
330
CED98
102
}
330
CED98
100
AcDbScale
 70
     0
300
3/32" = 1'-0"
140
0.09375
141
12.0
290
     0
  0
SCALE
  5
CEDAF
102
{ACAD_REACTORS
330
CED98
102
}
330
CED98
100
AcDbScale
 70
     0
300
1/8" = 1'-0"
140
0.125
141
12.0
290
     0
  0
SCALE
  5
CEDB0
102
{ACAD_REACTORS
330
CED98
102
}
330
CED98
100
AcDbScale
 70
     0
300
3/16" = 1'-0"
140
0.1875
141
12.0
290
     0
  0
SCALE
  5
CEDB1
102
{ACAD_REACTORS
330
CED98
102
}
330
CED98
100
AcDbScale
 70
     0
300
1/4" = 1'-0"
140
0.25
141
12.0
290
     0
  0
SCALE
  5
CEDB2
102
{ACAD_REACTORS
330
CED98
102
}
330
CED98
100
AcDbScale
 70
     0
300
3/8" = 1'-0"
140
0.375
141
12.0
290
     0
  0
SCALE
  5
CEDB3
102
{ACAD_REACTORS
330
CED98
102
}
330
CED98
100
AcDbScale
 70
     0
300
1/2" = 1'-0"
140
0.5
141
12.0
290
     0
  0
SCALE
  5
CEDB4
102
{ACAD_REACTORS
330
CED98
102
}
330
CED98
100
AcDbScale
 70
     0
300
3/4" = 1'-0"
140
0.75
141
12.0
290
     0
  0
SCALE
  5
CEDB5
102
{ACAD_REACTORS
330
CED98
102
}
330
CED98
100
AcDbScale
 70
     0
300
1" = 1'-0"
140
1.0
141
12.0
290
     0
  0
SCALE
  5
CEDB6
102
{ACAD_REACTORS
330
CED98
102
}
330
CED98
100
AcDbScale
 70
     0
300
1-1/2" = 1'-0"
140
1.5
141
12.0
290
     0
  0
SCALE
  5
CEDB7
102
{ACAD_REACTORS
330
CED98
102
}
330
CED98
100
AcDbScale
 70
     0
300
3" = 1'-0"
140
3.0
141
12.0
290
     0
  0
SCALE
  5
CEDB8
102
{ACAD_REACTORS
330
CED98
102
}
330
CED98
100
AcDbScale
 70
     0
300
6" = 1'-0"
140
6.0
141
12.0
290
     0
  0
SCALE
  5
CEDB9
102
{ACAD_REACTORS
330
CED98
102
}
330
CED98
100
AcDbScale
 70
     0
300
1'-0" = 1'-0"
140
12.0
141
12.0
290
     0
  0
TABLESTYLE
  5
FB0
102
{ACAD_XDICTIONARY
360
D0C45
102
}
102
{ACAD_REACTORS
330
FAF
102
}
330
FAF
100
AcDbTableStyle
  3
Standard
 70
     0
 71
     0
 40
0.06
 41
0.06
280
     0
281
     0
  7
Standard
140
0.18
170
     2
 62
     0
 63
     7
283
     0
274
    -2
284
     1
 64
     0
275
    -2
285
     1
 65
     0
276
    -2
286
     1
 66
     0
277
    -2
287
     1
 67
     0
278
    -2
288
     1
 68
     0
279
    -2
289
     1
 69
     0
  7
Standard
140
0.25
170
     5
 62
     0
 63
     7
283
     0
274
    -2
284
     1
 64
     0
275
    -2
285
     1
 65
     0
276
    -2
286
     1
 66
     0
277
    -2
287
     1
 67
     0
278
    -2
288
     1
 68
     0
279
    -2
289
     1
 69
     0
  7
Standard
140
0.18
170
     5
 62
     0
 63
     7
283
     0
274
    -2
284
     1
 64
     0
275
    -2
285
     1
 65
     0
276
    -2
286
     1
 66
     0
277
    -2
287
     1
 67
     0
278
    -2
288
     1
 68
     0
279
    -2
289
     1
 69
     0
  0
VISUALSTYLE
  5
CED8D
102
{ACAD_REACTORS
330
CED87
102
}
330
CED87
100
AcDbVisualStyle
  2
2dWireframe
 70
     4
 71
     0
 72
     2
 73
     0
 90
        0
 40
-0.6
 41
-30.0
 62
     5
 63
     7
 74
     1
 91
        4
 64
     7
 65
   257
 75
     1
175
     1
 42
1.0
 92
        0
 66
   257
 43
1.0
 76
     1
 77
     6
 78
     2
 67
     7
 79
     5
170
     0
171
     0
290
     0
174
     0
 93
        1
 44
0.0
173
     0
291
     0
 45
0.0
1001
ACAD
1000
AcDbSavedByObjectVersion
1070
     0
1000
AcDbSavedByObjectVersion
1070
     0
  0
VISUALSTYLE
  5
CED8F
102
{ACAD_REACTORS
330
CED87
102
}
330
CED87
100
AcDbVisualStyle
  2
3D Hidden
 70
     6
 71
     1
 72
     2
 73
     2
 90
        0
 40
-0.6
 41
-30.0
 62
     5
 63
     7
 74
     2
 91
        2
 64
     7
 65
   257
 75
     2
175
     1
 42
40.0
 92
        0
 66
   257
 43
1.0
 76
     1
 77
     6
 78
     2
 67
     7
 79
     3
170
     0
171
     0
290
     0
174
     0
 93
        1
 44
0.0
173
     0
291
     0
 45
0.0
1001
ACAD
1000
AcDbSavedByObjectVersion
1070
     0
1000
AcDbSavedByObjectVersion
1070
     0
  0
VISUALSTYLE
  5
CED8E
102
{ACAD_REACTORS
330
CED87
102
}
330
CED87
100
AcDbVisualStyle
  2
3dWireframe
 70
     5
 71
     0
 72
     2
 73
     0
 90
        0
 40
-0.6
 41
-30.0
 62
     5
 63
     7
 74
     1
 91
        4
 64
     7
 65
   257
 75
     1
175
     1
 42
1.0
 92
        0
 66
   257
 43
1.0
 76
     1
 77
     6
 78
     2
 67
     7
 79
     5
170
     0
171
     0
290
     0
174
     0
 93
        1
 44
0.0
173
     0
291
     0
 45
0.0
1001
ACAD
1000
AcDbSavedByObjectVersion
1070
     0
1000
AcDbSavedByObjectVersion
1070
     0
  0
VISUALSTYLE
  5
CED8C
102
{ACAD_REACTORS
330
CED87
102
}
330
CED87
100
AcDbVisualStyle
  2
Basic
 70
     7
 71
     1
 72
     0
 73
     1
 90
        0
 40
-0.6
 41
-30.0
 62
     5
 63
     7
 74
     0
 91
        4
 64
     7
 65
   257
 75
     1
175
     1
 42
1.0
 92
        8
 66
     7
 43
1.0
 76
     1
 77
     6
 78
     2
 67
     7
 79
     5
170
     0
171
     0
290
     0
174
     0
 93
        1
 44
0.0
173
     0
291
     1
 45
0.0
1001
ACAD
1000
AcDbSavedByObjectVersion
1070
     0
1000
AcDbSavedByObjectVersion
1070
     0
  0
VISUALSTYLE
  5
CED93
102
{ACAD_REACTORS
330
CED87
102
}
330
CED87
100
AcDbVisualStyle
  2
Brighten
 70
    12
 71
     2
 72
     2
 73
     0
 90
        0
 40
-0.6
 41
-30.0
 62
     5
 63
     7
 74
     1
 91
        4
 64
     7
 65
   257
 75
     1
175
     1
 42
1.0
 92
        8
 66
     7
 43
1.0
 76
     1
 77
     6
 78
     2
 67
     7
 79
     5
170
     0
171
     0
290
     0
174
     0
 93
        1
 44
50.0
173
     0
291
     1
 45
0.0
1001
ACAD
1000
AcDbSavedByObjectVersion
1070
     0
1000
AcDbSavedByObjectVersion
1070
     0
  0
VISUALSTYLE
  5
CED97
102
{ACAD_REACTORS
330
CED87
102
}
330
CED87
100
AcDbVisualStyle
  2
ColorChange
 70
    16
 71
     2
 72
     2
 73
     3
 90
        0
 40
-0.6
 41
-30.0
 62
     5
 63
     8
 74
     1
 91
        4
 64
     7
 65
   257
 75
     1
175
     1
 42
1.0
 92
        8
 66
     8
 43
1.0
 76
     1
 77
     6
 78
     2
 67
     7
 79
     5
170
     0
171
     0
290
     0
174
     0
 93
        1
 44
0.0
173
     0
291
     1
 45
0.0
1001
ACAD
1000
AcDbSavedByObjectVersion
1070
     0
1000
AcDbSavedByObjectVersion
1070
     0
  0
VISUALSTYLE
  5
CED90
102
{ACAD_REACTORS
330
CED87
102
}
330
CED87
100
AcDbVisualStyle
  2
Conceptual
 70
     9
 71
     3
 72
     2
 73
     0
 90
        0
 40
-0.6
 41
-30.0
 62
     5
 63
     7
 74
     2
 91
        2
 64
     7
 65
   257
 75
     1
175
     1
 42
40.0
 92
        8
 66
     7
 43
1.0
 76
     1
 77
     6
 78
     2
 67
     7
 79
     3
170
     0
171
     0
290
     0
174
     0
 93
        1
 44
0.0
173
     0
291
     0
 45
0.0
1001
ACAD
1000
AcDbSavedByObjectVersion
1070
     0
1000
AcDbSavedByObjectVersion
1070
     0
  0
VISUALSTYLE
  5
CED92
102
{ACAD_REACTORS
330
CED87
102
}
330
CED87
100
AcDbVisualStyle
  2
Dim
 70
    11
 71
     2
 72
     2
 73
     0
 90
        0
 40
-0.6
 41
-30.0
 62
     5
 63
     7
 74
     1
 91
        4
 64
     7
 65
   257
 75
     1
175
     1
 42
1.0
 92
        8
 66
     7
 43
1.0
 76
     1
 77
     6
 78
     2
 67
     7
 79
     5
170
     0
171
     0
290
     0
174
     0
 93
        1
 44
-50.0
173
     0
291
     1
 45
0.0
1001
ACAD
1000
AcDbSavedByObjectVersion
1070
     0
1000
AcDbSavedByObjectVersion
1070
     0
  0
VISUALSTYLE
  5
CED96
102
{ACAD_REACTORS
330
CED87
102
}
330
CED87
100
AcDbVisualStyle
  2
Facepattern
 70
    15
 71
     2
 72
     2
 73
     0
 90
        0
 40
-0.6
 41
-30.0
 62
     5
 63
     7
 74
     1
 91
        4
 64
     7
 65
   257
 75
     1
175
     1
 42
1.0
 92
        8
 66
     7
 43
1.0
 76
     1
 77
     6
 78
     2
 67
     7
 79
     5
170
     0
171
     0
290
     0
174
     0
 93
        1
 44
0.0
173
     0
291
     1
 45
0.0
1001
ACAD
1000
AcDbSavedByObjectVersion
1070
     0
1000
AcDbSavedByObjectVersion
1070
     0
  0
VISUALSTYLE
  5
CED88
102
{ACAD_REACTORS
330
CED87
102
}
330
CED87
100
AcDbVisualStyle
  2
Flat
 70
     0
 71
     2
 72
     1
 73
     1
 90
        2
 40
-0.6
 41
30.0
 62
     5
 63
     7
 74
     0
 91
        4
 64
     7
 65
   257
 75
     1
175
     1
 42
1.0
 92
        8
 66
     7
 43
1.0
 76
     1
 77
     6
 78
     2
 67
     7
 79
     5
170
     0
171
     0
290
     0
174
     0
 93
       13
 44
0.0
173
     0
291
     1
 45
0.0
1001
ACAD
1000
AcDbSavedByObjectVersion
1070
     0
1000
AcDbSavedByObjectVersion
1070
     0
  0
VISUALSTYLE
  5
CED89
102
{ACAD_REACTORS
330
CED87
102
}
330
CED87
100
AcDbVisualStyle
  2
FlatWithEdges
 70
     1
 71
     2
 72
     1
 73
     1
 90
        2
 40
-0.6
 41
30.0
 62
     5
 63
     7
 74
     1
 91
        4
 64
     7
 65
   257
 75
     1
175
     1
 42
1.0
 92
        0
 66
   257
 43
1.0
 76
     1
 77
     6
 78
     2
 67
     7
 79
     5
170
     0
171
     0
290
     0
174
     0
 93
       13
 44
0.0
173
     0
291
     1
 45
0.0
1001
ACAD
1000
AcDbSavedByObjectVersion
1070
     0
1000
AcDbSavedByObjectVersion
1070
     0
  0
VISUALSTYLE
  5
CED8A
102
{ACAD_REACTORS
330
CED87
102
}
330
CED87
100
AcDbVisualStyle
  2
Gouraud
 70
     2
 71
     2
 72
     2
 73
     1
 90
        2
 40
-0.6
 41
30.0
 62
     5
 63
     7
 74
     0
 91
        4
 64
     7
 65
   257
 75
     1
175
     1
 42
1.0
 92
        0
 66
     7
 43
1.0
 76
     1
 77
     6
 78
     2
 67
     7
 79
     5
170
     0
171
     0
290
     0
174
     0
 93
       13
 44
0.0
173
     0
291
     1
 45
0.0
1001
ACAD
1000
AcDbSavedByObjectVersion
1070
     0
1000
AcDbSavedByObjectVersion
1070
     0
  0
VISUALSTYLE
  5
CED8B
102
{ACAD_REACTORS
330
CED87
102
}
330
CED87
100
AcDbVisualStyle
  2
GouraudWithEdges
 70
     3
 71
     2
 72
     2
 73
     1
 90
        2
 40
-0.6
 41
30.0
 62
     5
 63
     7
 74
     1
 91
        4
 64
     7
 65
   257
 75
     1
175
     1
 42
1.0
 92
        0
 66
   257
 43
1.0
 76
     1
 77
     6
 78
     2
 67
     7
 79
     5
170
     0
171
     0
290
     0
174
     0
 93
       13
 44
0.0
173
     0
291
     1
 45
0.0
1001
ACAD
1000
AcDbSavedByObjectVersion
1070
     0
1000
AcDbSavedByObjectVersion
1070
     0
  0
VISUALSTYLE
  5
CED95
102
{ACAD_REACTORS
330
CED87
102
}
330
CED87
100
AcDbVisualStyle
  2
Linepattern
 70
    14
 71
     2
 72
     2
 73
     0
 90
        0
 40
-0.6
 41
-30.0
 62
     5
 63
     7
 74
     1
 91
        4
 64
     7
 65
   257
 75
     7
175
     7
 42
1.0
 92
        8
 66
     7
 43
1.0
 76
     1
 77
     6
 78
     2
 67
     7
 79
     5
170
     0
171
     0
290
     0
174
     0
 93
        1
 44
0.0
173
     0
291
     1
 45
0.0
1001
ACAD
1000
AcDbSavedByObjectVersion
1070
     0
1000
AcDbSavedByObjectVersion
1070
     0
  0
VISUALSTYLE
  5
CED91
102
{ACAD_REACTORS
330
CED87
102
}
330
CED87
100
AcDbVisualStyle
  2
Realistic
 70
     8
 71
     2
 72
     2
 73
     0
 90
        0
 40
-0.6
 41
-30.0
 62
     5
 63
     7
 74
     1
 91
        0
 64
     7
 65
   257
 75
     1
175
     1
 42
1.0
 92
        8
 66
     8
 43
1.0
 76
     1
 77
     6
 78
     2
 67
     7
 79
     5
170
     0
171
     0
290
     0
174
     0
 93
       13
 44
0.0
173
     0
291
     0
 45
0.0
1001
ACAD
1000
AcDbSavedByObjectVersion
1070
     0
1000
AcDbSavedByObjectVersion
1070
     0
  0
VISUALSTYLE
  5
CED94
102
{ACAD_REACTORS
330
CED87
102
}
330
CED87
100
AcDbVisualStyle
  2
Thicken
 70
    13
 71
     2
 72
     2
 73
     0
 90
        0
 40
-0.6
 41
-30.0
 62
     5
 63
     7
 74
     1
 91
        4
 64
     7
 65
   257
 75
     1
175
     1
 42
1.0
 92
       12
 66
     7
 43
1.0
 76
     1
 77
     6
 78
     2
 67
     7
 79
     5
170
     0
171
     0
290
     0
174
     0
 93
        1
 44
0.0
173
     0
291
     1
 45
0.0
1001
ACAD
1000
AcDbSavedByObjectVersion
1070
     0
1000
AcDbSavedByObjectVersion
1070
     0
  0
DICTIONARYVAR
  5
D0C4F
102
{ACAD_REACTORS
330
59
102
}
330
59
100
DictionaryVariables
280
     0
  1
1:1
  0
DICTIONARYVAR
  5
D0C4D
102
{ACAD_REACTORS
330
59
102
}
330
59
100
DictionaryVariables
280
     0
  1
STANDARD
  0
DICTIONARYVAR
  5
100D
102
{ACAD_REACTORS
330
59
102
}
330
59
100
DictionaryVariables
280
     0
  1
STANDARD
  0
DICTIONARYVAR
  5
5A
102
{ACAD_REACTORS
330
59
102
}
330
59
100
DictionaryVariables
280
     0
  1
2
  0
DICTIONARYVAR
  5
5E
102
{ACAD_REACTORS
330
59
102
}
330
59
100
DictionaryVariables
280
     0
  1
1
  0
DICTIONARYVAR
  5
D717C
102
{ACAD_REACTORS
330
59
102
}
330
59
100
DictionaryVariables
280
     0
  1
0
  0
DICTIONARYVAR
  5
D0C50
102
{ACAD_REACTORS
330
59
102
}
330
59
100
DictionaryVariables
280
     0
  1
0
  0
DICTIONARYVAR
  5
D0C4E
102
{ACAD_REACTORS
330
59
102
}
330
59
100
DictionaryVariables
280
     0
  1
0
  0
DICTIONARYVAR
  5
D717B
102
{ACAD_REACTORS
330
59
102
}
330
59
100
DictionaryVariables
280
     0
  1
127
  0
XRECORD
  5
C2669
102
{ACAD_REACTORS
330
C2668
102
}
330
C2668
100
AcDbXrecord
280
     1
330
0
330
0
330
0
330
0
330
0
330
0
330
0
330
0
330
0
330
0
330
0
330
0
330
0
330
0
330
0
330
0
330
0
330
0
330
0
330
0
330
0
330
0
330
0
330
0
330
0
330
0
330
0
330
0
330
0
330
0
330
0
330
0
330
0
  0
VLO-VL
  5
A9D17
102
{ACAD_REACTORS
330
A9D16
102
}
330
A9D16
100
vlo_VL
 90
   -64512
 91
       12
 92
        1
 40
2.5
300
(&VLO-R . 0)
  0
DICTIONARY
  5
D71B2
330
22
100
AcDbDictionary
280
     1
281
     1
  3
ACAD_XREC_ROUNDTRIP
360
D71B3
  0
DICTIONARY
  5
D71B4
330
74
100
AcDbDictionary
280
     1
281
     1
  3
ACAD_XREC_ROUNDTRIP
360
D71B5
  0
DICTIONARY
  5
D71B6
330
79
100
AcDbDictionary
280
     1
281
     1
  3
ACAD_XREC_ROUNDTRIP
360
D71B7
  0
DICTIONARY
  5
CED78
330
CED77
100
AcDbDictionary
280
     1
281
     1
  3
ACAD_XREC_ROUNDTRIP
360
D719D
  3
BUMPTILE
360
CED7A
  3
DIFFUSETILE
360
CED79
  3
OPACITYTILE
360
CED7D
  3
REFLECTIONTILE
360
CED7C
  3
REFRACTIONTILE
360
CED7E
  3
SPECULARTILE
360
CED7B
  0
DICTIONARY
  5
CED70
330
CED6F
100
AcDbDictionary
280
     1
281
     1
  3
ACAD_XREC_ROUNDTRIP
360
D719C
  3
BUMPTILE
360
CED72
  3
DIFFUSETILE
360
CED71
  3
OPACITYTILE
360
CED75
  3
REFLECTIONTILE
360
CED74
  3
REFRACTIONTILE
360
CED76
  3
SPECULARTILE
360
CED73
  0
DICTIONARY
  5
CED80
330
CED7F
100
AcDbDictionary
280
     1
281
     1
  3
ACAD_XREC_ROUNDTRIP
360
D719E
  3
BUMPTILE
360
CED82
  3
DIFFUSETILE
360
CED81
  3
OPACITYTILE
360
CED85
  3
REFLECTIONTILE
360
CED84
  3
REFRACTIONTILE
360
CED86
  3
SPECULARTILE
360
CED83
  0
DICTIONARY
  5
D0C45
330
FB0
100
AcDbDictionary
280
     1
281
     1
  3
ACAD_ROUNDTRIP_2008_TABLESTYLE_CELLSTYLEMAP
360
D71AD
  3
ACAD_XREC_ROUNDTRIP
360
D71B8
  0
XRECORD
  5
D71B3
102
{ACAD_REACTORS
330
D71B2
102
}
330
D71B2
100
AcDbXrecord
280
     1
102
SHADEPLOT
 70
     0
102
SHADEPLOTRESLEVEL
 70
     2
102
SHADEPLOTCUSTOMDPI
 70
   300
  0
XRECORD
  5
D71B5
102
{ACAD_REACTORS
330
D71B4
102
}
330
D71B4
100
AcDbXrecord
280
     1
102
SHADEPLOT
 70
     0
102
SHADEPLOTRESLEVEL
 70
     2
102
SHADEPLOTCUSTOMDPI
 70
   300
  0
XRECORD
  5
D71B7
102
{ACAD_REACTORS
330
D71B6
102
}
330
D71B6
100
AcDbXrecord
280
     1
102
SHADEPLOT
 70
     0
102
SHADEPLOTRESLEVEL
 70
     2
102
SHADEPLOTCUSTOMDPI
 70
   300
  0
XRECORD
  5
D719D
102
{ACAD_REACTORS
330
CED78
102
}
330
CED78
100
AcDbXrecord
280
     1
102
MATERIAL
148
0.0
149
0.0
149
0.0
 93
        0
 94
      127
282
     0
 72
     0
 77
     0
171
     0
175
     0
179
     0
273
     0
  0
XRECORD
  5
CED7A
102
{ACAD_REACTORS
330
CED78
102
}
330
CED78
100
AcDbXrecord
280
     1
270
     1
271
     1
  0
XRECORD
  5
CED79
102
{ACAD_REACTORS
330
CED78
102
}
330
CED78
100
AcDbXrecord
280
     1
270
     1
271
     1
  0
XRECORD
  5
CED7D
102
{ACAD_REACTORS
330
CED78
102
}
330
CED78
100
AcDbXrecord
280
     1
270
     1
271
     1
  0
XRECORD
  5
CED7C
102
{ACAD_REACTORS
330
CED78
102
}
330
CED78
100
AcDbXrecord
280
     1
270
     1
271
     1
  0
XRECORD
  5
CED7E
102
{ACAD_REACTORS
330
CED78
102
}
330
CED78
100
AcDbXrecord
280
     1
270
     1
271
     1
  0
XRECORD
  5
CED7B
102
{ACAD_REACTORS
330
CED78
102
}
330
CED78
100
AcDbXrecord
280
     1
270
     1
271
     1
  0
XRECORD
  5
D719C
102
{ACAD_REACTORS
330
CED70
102
}
330
CED70
100
AcDbXrecord
280
     1
102
MATERIAL
148
0.0
149
0.0
149
0.0
 93
        0
 94
      127
282
     0
 72
     0
 77
     0
171
     0
175
     0
179
     0
273
     0
  0
XRECORD
  5
CED72
102
{ACAD_REACTORS
330
CED70
102
}
330
CED70
100
AcDbXrecord
280
     1
270
     1
271
     1
  0
XRECORD
  5
CED71
102
{ACAD_REACTORS
330
CED70
102
}
330
CED70
100
AcDbXrecord
280
     1
270
     1
271
     1
  0
XRECORD
  5
CED75
102
{ACAD_REACTORS
330
CED70
102
}
330
CED70
100
AcDbXrecord
280
     1
270
     1
271
     1
  0
XRECORD
  5
CED74
102
{ACAD_REACTORS
330
CED70
102
}
330
CED70
100
AcDbXrecord
280
     1
270
     1
271
     1
  0
XRECORD
  5
CED76
102
{ACAD_REACTORS
330
CED70
102
}
330
CED70
100
AcDbXrecord
280
     1
270
     1
271
     1
  0
XRECORD
  5
CED73
102
{ACAD_REACTORS
330
CED70
102
}
330
CED70
100
AcDbXrecord
280
     1
270
     1
271
     1
  0
XRECORD
  5
D719E
102
{ACAD_REACTORS
330
CED80
102
}
330
CED80
100
AcDbXrecord
280
     1
102
MATERIAL
148
0.0
149
0.0
149
0.0
 93
        0
 94
      127
282
     0
 72
     0
 77
     0
171
     0
175
     0
179
     0
273
     0
  0
XRECORD
  5
CED82
102
{ACAD_REACTORS
330
CED80
102
}
330
CED80
100
AcDbXrecord
280
     1
270
     1
271
     1
  0
XRECORD
  5
CED81
102
{ACAD_REACTORS
330
CED80
102
}
330
CED80
100
AcDbXrecord
280
     1
270
     1
271
     1
  0
XRECORD
  5
CED85
102
{ACAD_REACTORS
330
CED80
102
}
330
CED80
100
AcDbXrecord
280
     1
270
     1
271
     1
  0
XRECORD
  5
CED84
102
{ACAD_REACTORS
330
CED80
102
}
330
CED80
100
AcDbXrecord
280
     1
270
     1
271
     1
  0
XRECORD
  5
CED86
102
{ACAD_REACTORS
330
CED80
102
}
330
CED80
100
AcDbXrecord
280
     1
270
     1
271
     1
  0
XRECORD
  5
CED83
102
{ACAD_REACTORS
330
CED80
102
}
330
CED80
100
AcDbXrecord
280
     1
270
     1
271
     1
  0
CELLSTYLEMAP
  5
D71AD
102
{ACAD_REACTORS
330
D0C45
102
}
330
D0C45
100
AcDbCellStyleMap
 90
        3
300
CELLSTYLE
  1
TABLEFORMAT_BEGIN
 90
        5
170
     1
 91
        0
 92
    32768
 62
   257
 93
        1
300
CONTENTFORMAT
  1
CONTENTFORMAT_BEGIN
 90
        0
 91
        0
 92
        4
 93
        0
300

 40
0.0
140
1.0
 94
        5
 62
     0
340
11
144
0.25
309
CONTENTFORMAT_END
171
     1
301
MARGIN
  1
CELLMARGIN_BEGIN
 40
0.06
 40
0.06
 40
0.06
 40
0.06
 40
0.18
 40
0.18
309
CELLMARGIN_END
 94
        6
 95
        1
302
GRIDFORMAT
  1
GRIDFORMAT_BEGIN
 90
        0
 91
        1
 62
     0
 92
       -2
340
0
 93
        0
 40
0.045
309
GRIDFORMAT_END
 95
        2
302
GRIDFORMAT
  1
GRIDFORMAT_BEGIN
 90
        0
 91
        1
 62
     0
 92
       -2
340
0
 93
        0
 40
0.045
309
GRIDFORMAT_END
 95
        4
302
GRIDFORMAT
  1
GRIDFORMAT_BEGIN
 90
        0
 91
        1
 62
     0
 92
       -2
340
0
 93
        0
 40
0.045
309
GRIDFORMAT_END
 95
        8
302
GRIDFORMAT
  1
GRIDFORMAT_BEGIN
 90
        0
 91
        1
 62
     0
 92
       -2
340
0
 93
        0
 40
0.045
309
GRIDFORMAT_END
 95
       16
302
GRIDFORMAT
  1
GRIDFORMAT_BEGIN
 90
        0
 91
        1
 62
     0
 92
       -2
340
0
 93
        0
 40
0.045
309
GRIDFORMAT_END
 95
       32
302
GRIDFORMAT
  1
GRIDFORMAT_BEGIN
 90
        0
 91
        1
 62
     0
 92
       -2
340
0
 93
        0
 40
0.045
309
GRIDFORMAT_END
309
TABLEFORMAT_END
  1
CELLSTYLE_BEGIN
 90
        1
 91
        1
300
_TITLE
309
CELLSTYLE_END
300
CELLSTYLE
  1
TABLEFORMAT_BEGIN
 90
        5
170
     1
 91
        0
 92
        0
 62
   257
 93
        1
300
CONTENTFORMAT
  1
CONTENTFORMAT_BEGIN
 90
        0
 91
        0
 92
        4
 93
        0
300

 40
0.0
140
1.0
 94
        5
 62
     0
340
11
144
0.18
309
CONTENTFORMAT_END
171
     1
301
MARGIN
  1
CELLMARGIN_BEGIN
 40
0.06
 40
0.06
 40
0.06
 40
0.06
 40
0.18
 40
0.18
309
CELLMARGIN_END
 94
        6
 95
        1
302
GRIDFORMAT
  1
GRIDFORMAT_BEGIN
 90
        0
 91
        1
 62
     0
 92
       -2
340
0
 93
        0
 40
0.045
309
GRIDFORMAT_END
 95
        2
302
GRIDFORMAT
  1
GRIDFORMAT_BEGIN
 90
        0
 91
        1
 62
     0
 92
       -2
340
0
 93
        0
 40
0.045
309
GRIDFORMAT_END
 95
        4
302
GRIDFORMAT
  1
GRIDFORMAT_BEGIN
 90
        0
 91
        1
 62
     0
 92
       -2
340
0
 93
        0
 40
0.045
309
GRIDFORMAT_END
 95
        8
302
GRIDFORMAT
  1
GRIDFORMAT_BEGIN
 90
        0
 91
        1
 62
     0
 92
       -2
340
0
 93
        0
 40
0.045
309
GRIDFORMAT_END
 95
       16
302
GRIDFORMAT
  1
GRIDFORMAT_BEGIN
 90
        0
 91
        1
 62
     0
 92
       -2
340
0
 93
        0
 40
0.045
309
GRIDFORMAT_END
 95
       32
302
GRIDFORMAT
  1
GRIDFORMAT_BEGIN
 90
        0
 91
        1
 62
     0
 92
       -2
340
0
 93
        0
 40
0.045
309
GRIDFORMAT_END
309
TABLEFORMAT_END
  1
CELLSTYLE_BEGIN
 90
        2
 91
        1
300
_HEADER
309
CELLSTYLE_END
300
CELLSTYLE
  1
TABLEFORMAT_BEGIN
 90
        5
170
     1
 91
        0
 92
        0
 62
   257
 93
        1
300
CONTENTFORMAT
  1
CONTENTFORMAT_BEGIN
 90
        0
 91
        0
 92
        4
 93
        0
300

 40
0.0
140
1.0
 94
        2
 62
     0
340
11
144
0.18
309
CONTENTFORMAT_END
171
     1
301
MARGIN
  1
CELLMARGIN_BEGIN
 40
0.06
 40
0.06
 40
0.06
 40
0.06
 40
0.18
 40
0.18
309
CELLMARGIN_END
 94
        6
 95
        1
302
GRIDFORMAT
  1
GRIDFORMAT_BEGIN
 90
        0
 91
        1
 62
     0
 92
       -2
340
0
 93
        0
 40
0.045
309
GRIDFORMAT_END
 95
        2
302
GRIDFORMAT
  1
GRIDFORMAT_BEGIN
 90
        0
 91
        1
 62
     0
 92
       -2
340
0
 93
        0
 40
0.045
309
GRIDFORMAT_END
 95
        4
302
GRIDFORMAT
  1
GRIDFORMAT_BEGIN
 90
        0
 91
        1
 62
     0
 92
       -2
340
0
 93
        0
 40
0.045
309
GRIDFORMAT_END
 95
        8
302
GRIDFORMAT
  1
GRIDFORMAT_BEGIN
 90
        0
 91
        1
 62
     0
 92
       -2
340
0
 93
        0
 40
0.045
309
GRIDFORMAT_END
 95
       16
302
GRIDFORMAT
  1
GRIDFORMAT_BEGIN
 90
        0
 91
        1
 62
     0
 92
       -2
340
0
 93
        0
 40
0.045
309
GRIDFORMAT_END
 95
       32
302
GRIDFORMAT
  1
GRIDFORMAT_BEGIN
 90
        0
 91
        1
 62
     0
 92
       -2
340
0
 93
        0
 40
0.045
309
GRIDFORMAT_END
309
TABLEFORMAT_END
  1
CELLSTYLE_BEGIN
 90
        3
 91
        2
300
_DATA
309
CELLSTYLE_END
  0
XRECORD
  5
D71B8
102
{ACAD_REACTORS
330
D0C45
102
}
330
D0C45
100
AcDbXrecord
280
     1
102
ACAD_ROUNDTRIP_PRE2007_TABLESTYLE
 90
        4
 91
        0
  1

 92
        4
 93
        0
  2

 94
        4
 95
        0
  3

  0
ENDSEC
  0
EOF
