  0
SECTION
  2
HEADER
  9
$ACADVER
  1
AC1015
  9
$ACADMAINTVER
 70
    20
  9
$DWGCODEPAGE
  3
ANSI_936
  9
$INSBASE
 10
0.0
 20
0.0
 30
0.0
  9
$EXTMIN
 10
107522.9018935106
 20
-169407.371472074
 30
-0.0000000000000022
  9
$EXTMAX
 10
108939.9141759057
 20
-168217.8133962115
 30
0.0000000000000132
  9
$LIMMIN
 10
0.0
 20
0.0
  9
$LIMMAX
 10
12.0
 20
9.0
  9
$ORTHOMODE
 70
     1
  9
$REGENMODE
 70
     1
  9
$FILLMODE
 70
     1
  9
$QTEXTMODE
 70
     0
  9
$MIRRTEXT
 70
     0
  9
$LTSCALE
 40
1.0
  9
$ATTMODE
 70
     1
  9
$TEXTSIZE
 40
0.2
  9
$TRACEWID
 40
0.05
  9
$TEXTSTYLE
  7
Standard
  9
$CLAYER
  8
标注
  9
$CELTYPE
  6
ByLayer
  9
$CECOLOR
 62
   256
  9
$CELTSCALE
 40
5.0
  9
$DISPSILH
 70
     0
  9
$DIMSCALE
 40
1.0
  9
$DIMASZ
 40
16.0
  9
$DIMEXO
 40
7.0
  9
$DIMDLI
 40
0.38
  9
$DIMRND
 40
0.0
  9
$DIMDLE
 40
0.0
  9
$DIMEXE
 40
7.0
  9
$DIMTP
 40
0.0
  9
$DIMTM
 40
0.0
  9
$DIMTXT
 40
20.0
  9
$DIMCEN
 40
2.5
  9
$DIMTSZ
 40
0.0
  9
$DIMTOL
 70
     0
  9
$DIMLIM
 70
     0
  9
$DIMTIH
 70
     0
  9
$DIMTOH
 70
     0
  9
$DIMSE1
 70
     0
  9
$DIMSE2
 70
     0
  9
$DIMTAD
 70
     0
  9
$DIMZIN
 70
     8
  9
$DIMBLK
  1

  9
$DIMASO
 70
     1
  9
$DIMSHO
 70
     1
  9
$DIMPOST
  1

  9
$DIMAPOST
  1
"
  9
$DIMALT
 70
     0
  9
$DIMALTD
 70
     3
  9
$DIMALTF
 40
0.03937
  9
$DIMLFAC
 40
1.0
  9
$DIMTOFL
 70
     1
  9
$DIMTVP
 40
0.0
  9
$DIMTIX
 70
     0
  9
$DIMSOXD
 70
     0
  9
$DIMSAH
 70
     0
  9
$DIMBLK1
  1

  9
$DIMBLK2
  1

  9
$DIMSTYLE
  2
副本Standard
  9
$DIMCLRD
 70
   256
  9
$DIMCLRE
 70
   256
  9
$DIMCLRT
 70
   256
  9
$DIMTFAC
 40
1.0
  9
$DIMGAP
 40
1.0
  9
$DIMJUST
 70
     0
  9
$DIMSD1
 70
     0
  9
$DIMSD2
 70
     0
  9
$DIMTOLJ
 70
     1
  9
$DIMTZIN
 70
     0
  9
$DIMALTZ
 70
     0
  9
$DIMALTTZ
 70
     0
  9
$DIMUPT
 70
     0
  9
$DIMDEC
 70
     1
  9
$DIMTDEC
 70
     1
  9
$DIMALTU
 70
     7
  9
$DIMALTTD
 70
     3
  9
$DIMTXSTY
  7
Standard
  9
$DIMAUNIT
 70
     0
  9
$DIMADEC
 70
     1
  9
$DIMALTRND
 40
0.0
  9
$DIMAZIN
 70
     2
  9
$DIMDSEP
 70
    44
  9
$DIMATFIT
 70
     3
  9
$DIMFRAC
 70
     0
  9
$DIMLDRBLK
  1

  9
$DIMLUNIT
 70
     2
  9
$DIMLWD
 70
    -2
  9
$DIMLWE
 70
    -2
  9
$DIMTMOVE
 70
     0
  9
$LUNITS
 70
     2
  9
$LUPREC
 70
     4
  9
$SKETCHINC
 40
0.1
  9
$FILLETRAD
 40
30.0
  9
$AUNITS
 70
     0
  9
$AUPREC
 70
     0
  9
$MENU
  1
.
  9
$ELEVATION
 40
0.0
  9
$PELEVATION
 40
0.0
  9
$THICKNESS
 40
0.0
  9
$LIMCHECK
 70
     0
  9
$CHAMFERA
 40
26.6
  9
$CHAMFERB
 40
26.6
  9
$CHAMFERC
 40
0.0
  9
$CHAMFERD
 40
0.0
  9
$SKPOLY
 70
     0
  9
$TDCREATE
 40
2454355.343801713
  9
$TDUCREATE
 40
2454355.010468380
  9
$TDUPDATE
 40
2457938.596395347
  9
$TDUUPDATE
 40
2457938.263062014
  9
$TDINDWG
 40
9.0061066319
  9
$TDUSRTIMER
 40
9.0061064352
  9
$USRTIMER
 70
     1
  9
$ANGBASE
 50
0.0
  9
$ANGDIR
 70
     0
  9
$PDMODE
 70
     0
  9
$PDSIZE
 40
0.0
  9
$PLINEWID
 40
0.0
  9
$SPLFRAME
 70
     0
  9
$SPLINETYPE
 70
     6
  9
$SPLINESEGS
 70
     8
  9
$HANDSEED
  5
D8CC9
  9
$SURFTAB1
 70
     6
  9
$SURFTAB2
 70
     6
  9
$SURFTYPE
 70
     6
  9
$SURFU
 70
     6
  9
$SURFV
 70
     6
  9
$UCSBASE
  2

  9
$UCSNAME
  2

  9
$UCSORG
 10
0.0
 20
0.0
 30
0.0
  9
$UCSXDIR
 10
1.0
 20
0.0
 30
0.0
  9
$UCSYDIR
 10
0.0
 20
1.0
 30
0.0
  9
$UCSORTHOREF
  2

  9
$UCSORTHOVIEW
 70
     0
  9
$UCSORGTOP
 10
0.0
 20
0.0
 30
0.0
  9
$UCSORGBOTTOM
 10
0.0
 20
0.0
 30
0.0
  9
$UCSORGLEFT
 10
0.0
 20
0.0
 30
0.0
  9
$UCSORGRIGHT
 10
0.0
 20
0.0
 30
0.0
  9
$UCSORGFRONT
 10
0.0
 20
0.0
 30
0.0
  9
$UCSORGBACK
 10
0.0
 20
0.0
 30
0.0
  9
$PUCSBASE
  2

  9
$PUCSNAME
  2

  9
$PUCSORG
 10
0.0
 20
0.0
 30
0.0
  9
$PUCSXDIR
 10
1.0
 20
0.0
 30
0.0
  9
$PUCSYDIR
 10
0.0
 20
1.0
 30
0.0
  9
$PUCSORTHOREF
  2

  9
$PUCSORTHOVIEW
 70
     0
  9
$PUCSORGTOP
 10
0.0
 20
0.0
 30
0.0
  9
$PUCSORGBOTTOM
 10
0.0
 20
0.0
 30
0.0
  9
$PUCSORGLEFT
 10
0.0
 20
0.0
 30
0.0
  9
$PUCSORGRIGHT
 10
0.0
 20
0.0
 30
0.0
  9
$PUCSORGFRONT
 10
0.0
 20
0.0
 30
0.0
  9
$PUCSORGBACK
 10
0.0
 20
0.0
 30
0.0
  9
$USERI1
 70
     0
  9
$USERI2
 70
     0
  9
$USERI3
 70
     0
  9
$USERI4
 70
     0
  9
$USERI5
 70
     0
  9
$USERR1
 40
0.0
  9
$USERR2
 40
0.0
  9
$USERR3
 40
0.0
  9
$USERR4
 40
0.0
  9
$USERR5
 40
2.5
  9
$WORLDVIEW
 70
     1
  9
$SHADEDGE
 70
     3
  9
$SHADEDIF
 70
    70
  9
$TILEMODE
 70
     1
  9
$MAXACTVP
 70
    64
  9
$PINSBASE
 10
0.0
 20
0.0
 30
0.0
  9
$PLIMCHECK
 70
     0
  9
$PEXTMIN
 10
0.0
 20
0.0
 30
0.0
  9
$PEXTMAX
 10
0.0
 20
0.0
 30
0.0
  9
$PLIMMIN
 10
0.0
 20
0.0
  9
$PLIMMAX
 10
12.0
 20
9.0
  9
$UNITMODE
 70
     0
  9
$VISRETAIN
 70
     1
  9
$PLINEGEN
 70
     0
  9
$PSLTSCALE
 70
     1
  9
$TREEDEPTH
 70
  3020
  9
$CMLSTYLE
  2
Standard
  9
$CMLJUST
 70
     0
  9
$CMLSCALE
 40
1.0
  9
$PROXYGRAPHICS
 70
     1
  9
$MEASUREMENT
 70
     0
  9
$CELWEIGHT
370
    -1
  9
$ENDCAPS
280
     0
  9
$JOINSTYLE
280
     0
  9
$LWDISPLAY
290
     0
  9
$INSUNITS
 70
     4
  9
$HYPERLINKBASE
  1

  9
$STYLESHEET
  1
MONOCHROME.CTB
  9
$XEDIT
290
     1
  9
$CEPSNTYPE
380
     0
  9
$PSTYLEMODE
290
     1
  9
$FINGERPRINTGUID
  2
{35BD88C0-9548-11D2-9A29-0060089B3A3F}
  9
$VERSIONGUID
  2
{46267CDC-24E2-4FAA-957E-5B7ABF25B7B8}
  9
$EXTNAMES
290
     1
  9
$PSVPSCALE
 40
0.0
  9
$OLESTARTUP
290
     0
  0
ENDSEC
  0
SECTION
  2
CLASSES
  0
CLASS
  1
ACDBDICTIONARYWDFLT
  2
AcDbDictionaryWithDefault
  3
ObjectDBX Classes
 90
        0
280
     0
281
     0
  0
CLASS
  1
ACDBPLACEHOLDER
  2
AcDbPlaceHolder
  3
ObjectDBX Classes
 90
        0
280
     0
281
     0
  0
CLASS
  1
LAYOUT
  2
AcDbLayout
  3
ObjectDBX Classes
 90
        0
280
     0
281
     0
  0
CLASS
  1
DICTIONARYVAR
  2
AcDbDictionaryVar
  3
ObjectDBX Classes
 90
        0
280
     0
281
     0
  0
CLASS
  1
SORTENTSTABLE
  2
AcDbSortentsTable
  3
ObjectDBX Classes
 90
        0
280
     0
281
     0
  0
CLASS
  1
DIMASSOC
  2
AcDbDimAssoc
  3
"AcDbDimAssoc|Product Desc:     AcDim ARX App For Dimension|Company:          Autodesk, Inc.|WEB Address:      www.autodesk.com"
 90
        0
280
     0
281
     0
  0
CLASS
  1
TABLESTYLE
  2
AcDbTableStyle
  3
ObjectDBX Classes
 90
     4095
280
     0
281
     0
  0
CLASS
  1
VLO-VL
  2
vlo_VL
  3
VL|AutoLISP based application
 90
      129
280
     0
281
     0
  0
CLASS
  1
MATERIAL
  2
AcDbMaterial
  3
ObjectDBX Classes
 90
     1153
280
     0
281
     0
  0
CLASS
  1
VISUALSTYLE
  2
AcDbVisualStyle
  3
ObjectDBX Classes
 90
     4095
280
     0
281
     0
  0
CLASS
  1
SCALE
  2
AcDbScale
  3
ObjectDBX Classes
 90
     1153
280
     0
281
     0
  0
CLASS
  1
MLEADERSTYLE
  2
AcDbMLeaderStyle
  3
ACDB_MLEADERSTYLE_CLASS
 90
     4095
280
     0
281
     0
  0
CLASS
  1
CELLSTYLEMAP
  2
AcDbCellStyleMap
  3
ObjectDBX Classes
 90
     1152
280
     0
281
     0
  0
ENDSEC
  0
SECTION
  2
TABLES
  0
TABLE
  2
VPORT
  5
8
330
0
100
AcDbSymbolTable
 70
     1
  0
VPORT
  5
CED6D
330
8
100
AcDbSymbolTableRecord
100
AcDbViewportTableRecord
  2
*Active
 70
     0
 10
0.0
 20
0.0
 11
1.0
 21
1.0
 12
108231.4080347081
 22
-168812.5924341427
 13
0.0
 23
0.0
 14
0.5
 24
0.5
 15
0.5
 25
0.5
 16
0.0
 26
0.0
 36
1.0
 17
0.0
 27
0.0
 37
0.0
 40
1198.347913861449
 41
2.241676942046855
 42
50.0
 43
0.0
 44
0.0
 50
0.0
 51
0.0
 71
     0
 72
  1000
 73
     1
 74
     3
 75
     0
 76
     0
 77
     0
 78
     0
281
     0
 65
     1
110
0.0
120
0.0
130
0.0
111
1.0
121
0.0
131
0.0
112
0.0
122
1.0
132
0.0
 79
     0
146
0.0
  0
ENDTAB
  0
TABLE
  2
LTYPE
  5
5
330
0
100
AcDbSymbolTable
 70
     3
  0
LTYPE
  5
14
330
5
100
AcDbSymbolTableRecord
100
AcDbLinetypeTableRecord
  2
ByBlock
 70
     0
  3

 72
    65
 73
     0
 40
0.0
  0
LTYPE
  5
15
330
5
100
AcDbSymbolTableRecord
100
AcDbLinetypeTableRecord
  2
ByLayer
 70
     0
  3

 72
    65
 73
     0
 40
0.0
  0
LTYPE
  5
16
330
5
100
AcDbSymbolTableRecord
100
AcDbLinetypeTableRecord
  2
Continuous
 70
     0
  3
Solid line
 72
    65
 73
     0
 40
0.0
  0
LTYPE
  5
98
330
5
100
AcDbSymbolTableRecord
100
AcDbLinetypeTableRecord
  2
HIDDEN2
 70
     0
  3
Hidden (.5x) _ _ _ _ _ _ _ _ _ _ _ _ _ _ _ _ _
 72
    65
 73
     2
 40
4.762499999999998
 49
3.174999999999998
 74
     0
 49
-1.587499999999999
 74
     0
  0
ENDTAB
  0
TABLE
  2
LAYER
  5
2
102
{ACAD_XDICTIONARY
360
AB
102
}
330
0
100
AcDbSymbolTable
 70
     9
  0
LAYER
  5
10
102
{ACAD_XDICTIONARY
360
CF251
102
}
330
2
100
AcDbSymbolTableRecord
100
AcDbLayerTableRecord
  2
0
 70
     0
 62
     7
  6
Continuous
370
    18
390
F
  0
LAYER
  5
9D
102
{ACAD_XDICTIONARY
360
CF259
102
}
330
2
100
AcDbSymbolTableRecord
100
AcDbLayerTableRecord
  2
虚线
 70
     0
 62
     4
  6
HIDDEN2
370
     9
390
F
  0
LAYER
  5
9E
102
{ACAD_XDICTIONARY
360
CF25B
102
}
330
2
100
AcDbSymbolTableRecord
100
AcDbLayerTableRecord
  2
细实线
 70
     0
 62
     7
  6
Continuous
370
     9
390
F
  0
LAYER
  5
582
330
2
100
AcDbSymbolTableRecord
100
AcDbLayerTableRecord
  2
Defpoints
 70
     0
 62
     7
  6
Continuous
290
     0
370
     9
390
F
  0
LAYER
  5
16DF9
102
{ACAD_XDICTIONARY
360
CF25D
102
}
330
2
100
AcDbSymbolTableRecord
100
AcDbLayerTableRecord
  2
标注
 70
     0
 62
    80
  6
Continuous
370
     5
390
F
1001
AcAecLayerStandard
1000

1000

  0
ENDTAB
  0
TABLE
  2
STYLE
  5
3
330
0
100
AcDbSymbolTable
 70
     2
  0
STYLE
  5
11
330
3
100
AcDbSymbolTableRecord
100
AcDbTextStyleTableRecord
  2
Standard
 70
     0
 40
0.0
 41
1.0
 50
0.0
 71
     0
 42
0.2
  3
SimSun.ttf
  4

1001
ACAD
1000
SimSun
1071
    34306
  0
ENDTAB
  0
TABLE
  2
VIEW
  5
6
330
0
100
AcDbSymbolTable
 70
     0
  0
ENDTAB
  0
TABLE
  2
UCS
  5
7
330
0
100
AcDbSymbolTable
 70
     0
  0
ENDTAB
  0
TABLE
  2
APPID
  5
9
330
0
100
AcDbSymbolTable
 70
    21
  0
APPID
  5
12
330
9
100
AcDbSymbolTableRecord
100
AcDbRegAppTableRecord
  2
ACAD
 70
     0
  0
APPID
  5
A5
330
9
100
AcDbSymbolTableRecord
100
AcDbRegAppTableRecord
  2
AcAecLayerStandard
 70
     0
  0
APPID
  5
A6
330
9
100
AcDbSymbolTableRecord
100
AcDbRegAppTableRecord
  2
ACAD_DSTYLE_DIMEXT_LENGTH
 70
     0
  0
APPID
  5
A7
330
9
100
AcDbSymbolTableRecord
100
AcDbRegAppTableRecord
  2
ACAD_DSTYLE_DIMEXT_ENABLED
 70
     0
  0
APPID
  5
A8
330
9
100
AcDbSymbolTableRecord
100
AcDbRegAppTableRecord
  2
ACAD_DSTYLE_DIMJOGGED_JOGANGLE_SYMBOL
 70
     0
  0
APPID
  5
A9
330
9
100
AcDbSymbolTableRecord
100
AcDbRegAppTableRecord
  2
ACAD_DSTYLE_DIMARC_LENGTH_SYMBOL
 70
     0
  0
APPID
  5
AA
330
9
100
AcDbSymbolTableRecord
100
AcDbRegAppTableRecord
  2
ACAD_PSEXT
 70
     0
  0
APPID
  5
173
330
9
100
AcDbSymbolTableRecord
100
AcDbRegAppTableRecord
  2
DCO15
 70
     0
  0
APPID
  5
11D5
330
9
100
AcDbSymbolTableRecord
100
AcDbRegAppTableRecord
  2
ACAD_EXEMPT_FROM_CAD_STANDARDS
 70
     0
  0
APPID
  5
B456
330
9
100
AcDbSymbolTableRecord
100
AcDbRegAppTableRecord
  2
ACAD_DSTYLE_DIMTEXT_FILL
 70
     0
  0
APPID
  5
B459
330
9
100
AcDbSymbolTableRecord
100
AcDbRegAppTableRecord
  2
ACAD_DSTYLE_DIM_LINETYPE
 70
     0
  0
APPID
  5
B45A
330
9
100
AcDbSymbolTableRecord
100
AcDbRegAppTableRecord
  2
ACAD_DSTYLE_DIM_EXT1_LINETYPE
 70
     0
  0
APPID
  5
B45B
330
9
100
AcDbSymbolTableRecord
100
AcDbRegAppTableRecord
  2
ACAD_DSTYLE_DIM_EXT2_LINETYPE
 70
     0
  0
APPID
  5
CEDBC
330
9
100
AcDbSymbolTableRecord
100
AcDbRegAppTableRecord
  2
ACAD_MLEADERVER
 70
     0
  0
APPID
  5
CF35C
330
9
100
AcDbSymbolTableRecord
100
AcDbRegAppTableRecord
  2
ACAD_DSTYLE_DIMRADIAL_EXTENSION
 70
     0
  0
APPID
  5
CF43A
330
9
100
AcDbSymbolTableRecord
100
AcDbRegAppTableRecord
  2
ACAD_DSTYLE_DIMJAG
 70
     0
  0
APPID
  5
CF43B
330
9
100
AcDbSymbolTableRecord
100
AcDbRegAppTableRecord
  2
ACAD_DSTYLE_DIMTALN
 70
     0
  0
APPID
  5
D5B2B
330
9
100
AcDbSymbolTableRecord
100
AcDbRegAppTableRecord
  2
ACAD_DSTYLE_DIMBREAK
 70
     0
  0
APPID
  5
D6B9C
330
9
100
AcDbSymbolTableRecord
100
AcDbRegAppTableRecord
  2
AcDbBlockRepETag
 70
     0
  0
APPID
  5
D7458
330
9
100
AcDbSymbolTableRecord
100
AcDbRegAppTableRecord
  2
ACAD_DSTYLE_DIMINSPECT
 70
     0
  0
APPID
  5
D7459
330
9
100
AcDbSymbolTableRecord
100
AcDbRegAppTableRecord
  2
GENIUS_GENDTOL_13
 70
     0
  0
ENDTAB
  0
TABLE
  2
DIMSTYLE
  5
A
330
0
100
AcDbSymbolTable
 70
    11
100
AcDbDimStyleTable
 71
     2
340
3BDB5
340
27
  0
DIMSTYLE
105
27
330
A
100
AcDbSymbolTableRecord
100
AcDbDimStyleTableRecord
  2
Standard
 70
     0
 41
20.0
 42
25.0
 44
8.0
 73
     0
 74
     0
 78
     8
 79
     2
140
20.0
147
5.0
172
     1
176
     3
177
     3
178
     3
179
     1
271
     1
272
     1
278
    44
340
11
1001
ACAD_DSTYLE_DIMJOGGED_JOGANGLE_SYMBOL
1070
   384
1040
0.7853981633974483
1001
ACAD_DSTYLE_DIMEXT_LENGTH
1070
   378
1040
8.0
  0
DIMSTYLE
105
3BDB5
102
{ACAD_REACTORS
330
D8501
330
D8502
330
D8505
330
D8506
330
D8509
330
D850D
330
D8510
330
D8511
330
D8512
330
D8516
330
D8513
330
D8514
330
D8515
330
D871F
330
D8739
330
D8753
330
D8770
330
D8780
330
D886B
330
D8885
330
D88A9
330
D88DF
330
D8A2E
330
D8A55
330
D8C21
102
}
330
A
100
AcDbSymbolTableRecord
100
AcDbDimStyleTableRecord
  2
副本Standard
 70
     0
  4
"
 41
16.0
 42
7.0
 44
7.0
 73
     0
 74
     0
 78
     8
 79
     2
140
20.0
141
2.5
143
0.03937
147
1.0
171
     3
172
     1
176
   256
177
   256
178
   256
179
     1
271
     1
272
     1
273
     7
274
     3
278
    44
340
11
1001
ACAD_DSTYLE_DIMJAG
1070
   388
1040
1.5
1001
ACAD_DSTYLE_DIMTALN
1070
   392
1070
     0
  0
ENDTAB
  0
TABLE
  2
BLOCK_RECORD
  5
1
330
0
100
AcDbSymbolTable
 70
    51
  0
BLOCK_RECORD
  5
1F
102
{ACAD_XDICTIONARY
360
118B
102
}
330
1
100
AcDbSymbolTableRecord
100
AcDbBlockTableRecord
  2
*Model_Space
340
22
  0
BLOCK_RECORD
  5
73
330
1
100
AcDbSymbolTableRecord
100
AcDbBlockTableRecord
  2
*Paper_Space
340
74
  0
BLOCK_RECORD
  5
78
330
1
100
AcDbSymbolTableRecord
100
AcDbBlockTableRecord
  2
*Paper_Space0
340
79
  0
BLOCK_RECORD
  5
D8517
330
1
100
AcDbSymbolTableRecord
100
AcDbBlockTableRecord
  2
*D3
340
0
  0
BLOCK_RECORD
  5
D8524
330
1
100
AcDbSymbolTableRecord
100
AcDbBlockTableRecord
  2
*D4
340
0
  0
BLOCK_RECORD
  5
D854B
330
1
100
AcDbSymbolTableRecord
100
AcDbBlockTableRecord
  2
*D5
340
0
  0
BLOCK_RECORD
  5
D8558
330
1
100
AcDbSymbolTableRecord
100
AcDbBlockTableRecord
  2
*D6
340
0
  0
BLOCK_RECORD
  5
D857F
330
1
100
AcDbSymbolTableRecord
100
AcDbBlockTableRecord
  2
*D7
340
0
  0
BLOCK_RECORD
  5
D85B0
330
1
100
AcDbSymbolTableRecord
100
AcDbBlockTableRecord
  2
*D8
340
0
  0
BLOCK_RECORD
  5
D85D6
330
1
100
AcDbSymbolTableRecord
100
AcDbBlockTableRecord
  2
*D9
340
0
  0
BLOCK_RECORD
  5
D85DE
330
1
100
AcDbSymbolTableRecord
100
AcDbBlockTableRecord
  2
*D10
340
0
  0
BLOCK_RECORD
  5
D85E6
330
1
100
AcDbSymbolTableRecord
100
AcDbBlockTableRecord
  2
*D11
340
0
  0
BLOCK_RECORD
  5
D85EE
330
1
100
AcDbSymbolTableRecord
100
AcDbBlockTableRecord
  2
*D12
340
0
  0
BLOCK_RECORD
  5
D85F6
330
1
100
AcDbSymbolTableRecord
100
AcDbBlockTableRecord
  2
*D13
340
0
  0
BLOCK_RECORD
  5
D85FE
330
1
100
AcDbSymbolTableRecord
100
AcDbBlockTableRecord
  2
*D14
340
0
  0
BLOCK_RECORD
  5
D8606
330
1
100
AcDbSymbolTableRecord
100
AcDbBlockTableRecord
  2
*D15
340
0
  0
BLOCK_RECORD
  5
D8720
330
1
100
AcDbSymbolTableRecord
100
AcDbBlockTableRecord
  2
*D16
340
0
  0
BLOCK_RECORD
  5
D873A
330
1
100
AcDbSymbolTableRecord
100
AcDbBlockTableRecord
  2
*D17
340
0
  0
BLOCK_RECORD
  5
D8754
330
1
100
AcDbSymbolTableRecord
100
AcDbBlockTableRecord
  2
*D18
340
0
  0
BLOCK_RECORD
  5
D8771
330
1
100
AcDbSymbolTableRecord
100
AcDbBlockTableRecord
  2
*D19
340
0
  0
BLOCK_RECORD
  5
D8781
330
1
100
AcDbSymbolTableRecord
100
AcDbBlockTableRecord
  2
*D20
340
0
  0
BLOCK_RECORD
  5
D886C
330
1
100
AcDbSymbolTableRecord
100
AcDbBlockTableRecord
  2
*D21
340
0
  0
BLOCK_RECORD
  5
D8886
330
1
100
AcDbSymbolTableRecord
100
AcDbBlockTableRecord
  2
*D22
340
0
  0
BLOCK_RECORD
  5
D88AA
330
1
100
AcDbSymbolTableRecord
100
AcDbBlockTableRecord
  2
*D23
340
0
  0
BLOCK_RECORD
  5
D88E0
330
1
100
AcDbSymbolTableRecord
100
AcDbBlockTableRecord
  2
*D24
340
0
  0
BLOCK_RECORD
  5
D8A2F
330
1
100
AcDbSymbolTableRecord
100
AcDbBlockTableRecord
  2
*D25
340
0
  0
BLOCK_RECORD
  5
D8A56
330
1
100
AcDbSymbolTableRecord
100
AcDbBlockTableRecord
  2
*D26
340
0
  0
BLOCK_RECORD
  5
D8C22
330
1
100
AcDbSymbolTableRecord
100
AcDbBlockTableRecord
  2
*D48
340
0
  0
ENDTAB
  0
ENDSEC
  0
SECTION
  2
BLOCKS
  0
BLOCK
  5
20
330
1F
100
AcDbEntity
  8
0
100
AcDbBlockBegin
  2
*Model_Space
 70
     0
 10
0.0
 20
0.0
 30
0.0
  3
*Model_Space
  1

  0
ENDBLK
  5
21
330
1F
100
AcDbEntity
  8
0
100
AcDbBlockEnd
  0
BLOCK
  5
75
330
73
100
AcDbEntity
 67
     1
  8
0
100
AcDbBlockBegin
  2
*Paper_Space
 70
     0
 10
0.0
 20
0.0
 30
0.0
  3
*Paper_Space
  1

  0
ENDBLK
  5
76
330
73
100
AcDbEntity
 67
     1
  8
0
100
AcDbBlockEnd
  0
BLOCK
  5
7A
330
78
100
AcDbEntity
 67
     1
  8
0
100
AcDbBlockBegin
  2
*Paper_Space0
 70
     0
 10
0.0
 20
0.0
 30
0.0
  3
*Paper_Space0
  1

  0
ENDBLK
  5
7B
330
78
100
AcDbEntity
 67
     1
  8
0
100
AcDbBlockEnd
  0
BLOCK
  5
D8518
330
D8517
100
AcDbEntity
  8
0
 48
5.0
100
AcDbBlockBegin
  2
*D3
 70
     1
 10
0.0
 20
0.0
 30
0.0
  3
*D3
  1

  0
LINE
  5
D8937
330
D8517
100
AcDbEntity
  8
标注
  6
ByBlock
 48
5.0
370
    -2
100
AcDbLine
 10
108015.7679611033
 20
-168926.9585319657
 30
0.0
 11
108015.7679611033
 21
-169082.1184474508
 31
0.0
  0
LINE
  5
D8938
330
D8517
100
AcDbEntity
  8
标注
  6
ByBlock
 48
5.0
370
    -2
100
AcDbLine
 10
108827.7679611033
 20
-168809.4585319657
 30
0.0
 11
108827.7679611033
 21
-169082.1184474508
 31
0.0
  0
LINE
  5
D8939
330
D8517
100
AcDbEntity
  8
标注
  6
ByBlock
 48
5.0
370
    -2
100
AcDbLine
 10
108031.7679611034
 20
-169075.1184474508
 30
0.0
 11
108404.2141219968
 21
-169075.1184474508
 31
0.0
  0
LINE
  5
D893A
330
D8517
100
AcDbEntity
  8
标注
  6
ByBlock
 48
5.0
370
    -2
100
AcDbLine
 10
108811.7679611033
 20
-169075.1184474508
 30
0.0
 11
108445.8807886634
 21
-169075.1184474508
 31
0.0
  0
SOLID
  5
D893B
330
D8517
100
AcDbEntity
  8
标注
 48
5.0
100
AcDbTrace
 10
108031.7679611034
 20
-169072.4517807842
 30
0.0
 11
108031.7679611034
 21
-169077.7851141175
 31
0.0
 12
108015.7679611033
 22
-169075.1184474508
 32
0.0
 13
108015.7679611033
 23
-169075.1184474508
 33
0.0
  0
SOLID
  5
D893C
330
D8517
100
AcDbEntity
  8
标注
 48
5.0
100
AcDbTrace
 10
108811.7679611033
 20
-169072.4517807842
 30
0.0
 11
108811.7679611033
 21
-169077.7851141175
 31
0.0
 12
108827.7679611033
 22
-169075.1184474508
 32
0.0
 13
108827.7679611033
 23
-169075.1184474508
 33
0.0
  0
MTEXT
  5
D893D
330
D8517
100
AcDbEntity
  8
标注
 48
5.0
100
AcDbMText
 10
108425.0474553301
 20
-169075.1184474508
 30
0.0
 40
20.0
 41
0.0
 71
     5
 72
     1
  1
\A1;812
 73
     1
 44
1.0
1001
ACAD
1000
MTEXTBEGIN
1070
    73
1070
     1
1070
    44
1040
1.0
1070
    74
1070
     0
1000
MTEXTEND
  0
POINT
  5
D893E
330
D8517
100
AcDbEntity
  8
Defpoints
 62
     0
 48
5.0
100
AcDbPoint
 10
108015.7679611033
 20
-168919.9585319657
 30
0.0
  0
POINT
  5
D893F
330
D8517
100
AcDbEntity
  8
Defpoints
 62
     0
 48
5.0
100
AcDbPoint
 10
108827.7679611033
 20
-168802.4585319657
 30
0.0
  0
POINT
  5
D8940
330
D8517
100
AcDbEntity
  8
Defpoints
 62
     0
 48
5.0
100
AcDbPoint
 10
108827.7679611033
 20
-169075.1184474508
 30
0.0
  0
ENDBLK
  5
D8519
330
D8517
100
AcDbEntity
  8
0
 48
5.0
100
AcDbBlockEnd
  0
BLOCK
  5
D8525
330
D8524
100
AcDbEntity
  8
0
 48
5.0
100
AcDbBlockBegin
  2
*D4
 70
     1
 10
0.0
 20
0.0
 30
0.0
  3
*D4
  1

  0
LINE
  5
D8941
330
D8524
100
AcDbEntity
  8
标注
  6
ByBlock
 48
5.0
370
    -2
100
AcDbLine
 10
108011.7679611033
 20
-168926.9585319657
 30
0.0
 11
108011.7679611033
 21
-169131.9922659688
 31
0.0
  0
LINE
  5
D8942
330
D8524
100
AcDbEntity
  8
标注
  6
ByBlock
 48
5.0
370
    -2
100
AcDbLine
 10
108831.7679611034
 20
-168809.4585319657
 30
0.0
 11
108831.7679611034
 21
-169131.9922659688
 31
0.0
  0
LINE
  5
D8943
330
D8524
100
AcDbEntity
  8
标注
  6
ByBlock
 48
5.0
370
    -2
100
AcDbLine
 10
108027.7679611033
 20
-169124.9922659687
 30
0.0
 11
108402.709717638
 21
-169124.9922659687
 31
0.0
  0
LINE
  5
D8944
330
D8524
100
AcDbEntity
  8
标注
  6
ByBlock
 48
5.0
370
    -2
100
AcDbLine
 10
108815.7679611033
 20
-169124.9922659687
 30
0.0
 11
108444.709717638
 21
-169124.9922659687
 31
0.0
  0
SOLID
  5
D8945
330
D8524
100
AcDbEntity
  8
标注
 48
5.0
100
AcDbTrace
 10
108027.7679611033
 20
-169122.3255993021
 30
0.0
 11
108027.7679611033
 21
-169127.6589326354
 31
0.0
 12
108011.7679611033
 22
-169124.9922659687
 32
0.0
 13
108011.7679611033
 23
-169124.9922659687
 33
0.0
  0
SOLID
  5
D8946
330
D8524
100
AcDbEntity
  8
标注
 48
5.0
100
AcDbTrace
 10
108815.7679611033
 20
-169122.3255993021
 30
0.0
 11
108815.7679611033
 21
-169127.6589326354
 31
0.0
 12
108831.7679611034
 22
-169124.9922659687
 32
0.0
 13
108831.7679611034
 23
-169124.9922659687
 33
0.0
  0
MTEXT
  5
D8947
330
D8524
100
AcDbEntity
  8
标注
 48
5.0
100
AcDbMText
 10
108423.709717638
 20
-169124.9922659687
 30
0.0
 40
20.0
 41
0.0
 71
     5
 72
     1
  1
\A1;820
 73
     1
 44
1.0
1001
ACAD
1000
MTEXTBEGIN
1070
    73
1070
     1
1070
    44
1040
1.0
1070
    74
1070
     0
1000
MTEXTEND
  0
POINT
  5
D8948
330
D8524
100
AcDbEntity
  8
Defpoints
 62
     0
 48
5.0
100
AcDbPoint
 10
108011.7679611033
 20
-168919.9585319657
 30
0.0
  0
POINT
  5
D8949
330
D8524
100
AcDbEntity
  8
Defpoints
 62
     0
 48
5.0
100
AcDbPoint
 10
108831.7679611034
 20
-168802.4585319657
 30
0.0
  0
POINT
  5
D894A
330
D8524
100
AcDbEntity
  8
Defpoints
 62
     0
 48
5.0
100
AcDbPoint
 10
108831.7679611034
 20
-169124.9922659687
 30
0.0
  0
ENDBLK
  5
D8526
330
D8524
100
AcDbEntity
  8
0
 48
5.0
100
AcDbBlockEnd
  0
BLOCK
  5
D854C
330
D854B
100
AcDbEntity
  8
0
 48
5.0
100
AcDbBlockBegin
  2
*D5
 70
     1
 10
0.0
 20
0.0
 30
0.0
  3
*D5
  1

  0
LINE
  5
D894B
330
D854B
100
AcDbEntity
  8
标注
  6
ByBlock
 48
5.0
370
    -2
100
AcDbLine
 10
108235.7679611033
 20
-168549.9585319655
 30
0.0
 11
107971.3263220232
 21
-168549.9585319655
 31
0.0
  0
LINE
  5
D894C
330
D854B
100
AcDbEntity
  8
标注
  6
ByBlock
 48
5.0
370
    -2
100
AcDbLine
 10
108137.8348812821
 20
-169019.9585319655
 30
0.0
 11
107971.3263220232
 21
-169019.9585319655
 31
0.0
  0
LINE
  5
D894D
330
D854B
100
AcDbEntity
  8
标注
  6
ByBlock
 48
5.0
370
    -2
100
AcDbLine
 10
107978.3263220232
 20
-168565.9585319655
 30
0.0
 11
107978.3263220232
 21
-168763.7745663451
 31
0.0
  0
LINE
  5
D894E
330
D854B
100
AcDbEntity
  8
标注
  6
ByBlock
 48
5.0
370
    -2
100
AcDbLine
 10
107978.3263220232
 20
-169003.9585319655
 30
0.0
 11
107978.3263220232
 21
-168805.9967885674
 31
0.0
  0
SOLID
  5
D894F
330
D854B
100
AcDbEntity
  8
标注
 48
5.0
100
AcDbTrace
 10
107975.6596553566
 20
-168565.9585319655
 30
0.0
 11
107980.9929886899
 21
-168565.9585319655
 31
0.0
 12
107978.3263220232
 22
-168549.9585319655
 32
0.0
 13
107978.3263220232
 23
-168549.9585319655
 33
0.0
  0
SOLID
  5
D8950
330
D854B
100
AcDbEntity
  8
标注
 48
5.0
100
AcDbTrace
 10
107975.6596553566
 20
-169003.9585319655
 30
0.0
 11
107980.9929886899
 21
-169003.9585319655
 31
0.0
 12
107978.3263220232
 22
-169019.9585319655
 32
0.0
 13
107978.3263220232
 23
-169019.9585319655
 33
0.0
  0
MTEXT
  5
D8951
330
D854B
100
AcDbEntity
  8
标注
 48
5.0
100
AcDbMText
 10
107978.3263220233
 20
-168784.8856774562
 30
0.0
 40
20.0
 41
0.0
 71
     5
 72
     1
  1
\A1;470
 11
0.0000000000000001
 21
1.0
 31
0.0
 73
     1
 44
1.0
1001
ACAD
1000
MTEXTBEGIN
1070
    73
1070
     1
1070
    44
1040
1.0
1070
    74
1070
     0
1000
MTEXTEND
  0
POINT
  5
D8952
330
D854B
100
AcDbEntity
  8
Defpoints
 62
     0
 48
5.0
100
AcDbPoint
 10
108242.7679611033
 20
-168549.9585319655
 30
0.0
  0
POINT
  5
D8953
330
D854B
100
AcDbEntity
  8
Defpoints
 62
     0
 48
5.0
100
AcDbPoint
 10
108144.8348812821
 20
-169019.9585319655
 30
0.0
  0
POINT
  5
D8954
330
D854B
100
AcDbEntity
  8
Defpoints
 62
     0
 48
5.0
100
AcDbPoint
 10
107978.3263220232
 20
-169019.9585319655
 30
0.0
  0
ENDBLK
  5
D854D
330
D854B
100
AcDbEntity
  8
0
 48
5.0
100
AcDbBlockEnd
  0
BLOCK
  5
D8559
330
D8558
100
AcDbEntity
  8
0
 48
5.0
100
AcDbBlockBegin
  2
*D6
 70
     1
 10
0.0
 20
0.0
 30
0.0
  3
*D6
  1

  0
LINE
  5
D8955
330
D8558
100
AcDbEntity
  8
标注
  6
ByBlock
 48
5.0
370
    -2
100
AcDbLine
 10
108235.7679611033
 20
-168545.9585319655
 30
0.0
 11
107929.5271405036
 21
-168545.9585319655
 31
0.0
  0
LINE
  5
D8956
330
D8558
100
AcDbEntity
  8
标注
  6
ByBlock
 48
5.0
370
    -2
100
AcDbLine
 10
108203.5142789935
 20
-169023.9585319655
 30
0.0
 11
107929.5271405036
 21
-169023.9585319655
 31
0.0
  0
LINE
  5
D8957
330
D8558
100
AcDbEntity
  8
标注
  6
ByBlock
 48
5.0
370
    -2
100
AcDbLine
 10
107936.5271405036
 20
-168561.9585319655
 30
0.0
 11
107936.5271405036
 21
-168764.4984942252
 31
0.0
  0
LINE
  5
D8958
330
D8558
100
AcDbEntity
  8
标注
  6
ByBlock
 48
5.0
370
    -2
100
AcDbLine
 10
107936.5271405036
 20
-169007.9585319655
 30
0.0
 11
107936.5271405036
 21
-168806.4984942251
 31
0.0
  0
SOLID
  5
D8959
330
D8558
100
AcDbEntity
  8
标注
 48
5.0
100
AcDbTrace
 10
107933.860473837
 20
-168561.9585319655
 30
0.0
 11
107939.1938071703
 21
-168561.9585319655
 31
0.0
 12
107936.5271405036
 22
-168545.9585319655
 32
0.0
 13
107936.5271405036
 23
-168545.9585319655
 33
0.0
  0
SOLID
  5
D895A
330
D8558
100
AcDbEntity
  8
标注
 48
5.0
100
AcDbTrace
 10
107933.860473837
 20
-169007.9585319655
 30
0.0
 11
107939.1938071703
 21
-169007.9585319655
 31
0.0
 12
107936.5271405036
 22
-169023.9585319655
 32
0.0
 13
107936.5271405036
 23
-169023.9585319655
 33
0.0
  0
MTEXT
  5
D895B
330
D8558
100
AcDbEntity
  8
标注
 48
5.0
100
AcDbMText
 10
107936.5271405037
 20
-168785.4984942251
 30
0.0
 40
20.0
 41
0.0
 71
     5
 72
     1
  1
\A1;478
 11
0.0000000000000001
 21
1.0
 31
0.0
 73
     1
 44
1.0
1001
ACAD
1000
MTEXTBEGIN
1070
    73
1070
     1
1070
    44
1040
1.0
1070
    74
1070
     0
1000
MTEXTEND
  0
POINT
  5
D895C
330
D8558
100
AcDbEntity
  8
Defpoints
 62
     0
 48
5.0
100
AcDbPoint
 10
108242.7679611033
 20
-168545.9585319655
 30
0.0
  0
POINT
  5
D895D
330
D8558
100
AcDbEntity
  8
Defpoints
 62
     0
 48
5.0
100
AcDbPoint
 10
108210.5142789935
 20
-169023.9585319655
 30
0.0
  0
POINT
  5
D895E
330
D8558
100
AcDbEntity
  8
Defpoints
 62
     0
 48
5.0
100
AcDbPoint
 10
107936.5271405036
 20
-169023.9585319655
 30
0.0
  0
ENDBLK
  5
D855A
330
D8558
100
AcDbEntity
  8
0
 48
5.0
100
AcDbBlockEnd
  0
BLOCK
  5
D8580
330
D857F
100
AcDbEntity
  8
0
 48
5.0
100
AcDbBlockBegin
  2
*D7
 70
     1
 10
0.0
 20
0.0
 30
0.0
  3
*D7
  1

  0
LINE
  5
D895F
330
D857F
100
AcDbEntity
  8
标注
 48
5.0
370
    -2
100
AcDbLine
 10
107917.8828032878
 20
-168545.9585319655
 30
0.0
 11
107985.3263220232
 21
-168545.9585319655
 31
0.0
  0
LINE
  5
D8960
330
D857F
100
AcDbEntity
  8
标注
 48
5.0
370
    -2
100
AcDbLine
 10
107978.3263220232
 20
-168565.9585319655
 30
0.0
 11
107978.3263220232
 21
-168581.9585319655
 31
0.0
  0
LINE
  5
D8961
330
D857F
100
AcDbEntity
  8
标注
 48
5.0
370
    -2
100
AcDbLine
 10
107978.3263220232
 20
-168529.9585319655
 30
0.0
 11
107978.3263220232
 21
-168513.9585319655
 31
0.0
  0
LINE
  5
D8962
330
D857F
100
AcDbEntity
  8
标注
 48
5.0
370
    -2
100
AcDbLine
 10
107978.3263220232
 20
-168549.9585319655
 30
0.0
 11
107978.3263220232
 21
-168545.9585319655
 31
0.0
  0
SOLID
  5
D8963
330
D857F
100
AcDbEntity
  8
标注
 48
5.0
100
AcDbTrace
 10
107975.6596553566
 20
-168565.9585319655
 30
0.0
 11
107980.9929886899
 21
-168565.9585319655
 31
0.0
 12
107978.3263220232
 22
-168549.9585319655
 32
0.0
 13
107978.3263220232
 23
-168549.9585319655
 33
0.0
  0
SOLID
  5
D8964
330
D857F
100
AcDbEntity
  8
标注
 48
5.0
100
AcDbTrace
 10
107975.6596553566
 20
-168529.9585319655
 30
0.0
 11
107980.9929886899
 21
-168529.9585319655
 31
0.0
 12
107978.3263220232
 22
-168545.9585319655
 32
0.0
 13
107978.3263220232
 23
-168545.9585319655
 33
0.0
  0
MTEXT
  5
D8965
330
D857F
100
AcDbEntity
  8
标注
 48
5.0
100
AcDbMText
 10
107978.3263220233
 20
-168506.8474208543
 30
0.0
 40
20.0
 41
0.0
 71
     5
 72
     1
  1
\A1;4
 11
0.0000000000000001
 21
1.0
 31
0.0
 73
     1
 44
1.0
1001
ACAD
1000
MTEXTBEGIN
1070
    73
1070
     1
1070
    44
1040
1.0
1070
    74
1070
     0
1000
MTEXTEND
  0
POINT
  5
D8966
330
D857F
100
AcDbEntity
  8
Defpoints
 62
     0
 48
5.0
100
AcDbPoint
 10
107978.3263220232
 20
-168549.9585319655
 30
0.0
  0
POINT
  5
D8967
330
D857F
100
AcDbEntity
  8
Defpoints
 62
     0
 48
5.0
100
AcDbPoint
 10
107910.8828032878
 20
-168545.9585319655
 30
0.0
  0
POINT
  5
D8968
330
D857F
100
AcDbEntity
  8
Defpoints
 62
     0
 48
5.0
100
AcDbPoint
 10
107978.3263220232
 20
-168545.9585319655
 30
0.0
  0
ENDBLK
  5
D8581
330
D857F
100
AcDbEntity
  8
0
 48
5.0
100
AcDbBlockEnd
  0
BLOCK
  5
D85B1
330
D85B0
100
AcDbEntity
  8
0
 48
5.0
100
AcDbBlockBegin
  2
*D8
 70
     1
 10
0.0
 20
0.0
 30
0.0
  3
*D8
  1

  0
LINE
  5
D8969
330
D85B0
100
AcDbEntity
  8
标注
 48
5.0
370
    -2
100
AcDbLine
 10
108807.7679611034
 20
-169075.1184474508
 30
0.0
 11
108791.7679611034
 21
-169075.1184474508
 31
0.0
  0
LINE
  5
D896A
330
D85B0
100
AcDbEntity
  8
标注
 48
5.0
370
    -2
100
AcDbLine
 10
108843.7679611033
 20
-169075.1184474508
 30
0.0
 11
108859.7679611034
 21
-169075.1184474508
 31
0.0
  0
LINE
  5
D896B
330
D85B0
100
AcDbEntity
  8
标注
 48
5.0
370
    -2
100
AcDbLine
 10
108823.7679611034
 20
-169075.1184474508
 30
0.0
 11
108827.7679611033
 21
-169075.1184474508
 31
0.0
  0
SOLID
  5
D896C
330
D85B0
100
AcDbEntity
  8
标注
 48
5.0
100
AcDbTrace
 10
108807.7679611034
 20
-169072.4517807842
 30
0.0
 11
108807.7679611034
 21
-169077.7851141175
 31
0.0
 12
108823.7679611034
 22
-169075.1184474508
 32
0.0
 13
108823.7679611034
 23
-169075.1184474508
 33
0.0
  0
SOLID
  5
D896D
330
D85B0
100
AcDbEntity
  8
标注
 48
5.0
100
AcDbTrace
 10
108843.7679611033
 20
-169072.4517807842
 30
0.0
 11
108843.7679611033
 21
-169077.7851141175
 31
0.0
 12
108827.7679611033
 22
-169075.1184474508
 32
0.0
 13
108827.7679611033
 23
-169075.1184474508
 33
0.0
  0
MTEXT
  5
D896E
330
D85B0
100
AcDbEntity
  8
标注
 48
5.0
100
AcDbMText
 10
108866.8790722145
 20
-169075.1184474508
 30
0.0
 40
20.0
 41
0.0
 71
     5
 72
     1
  1
\A1;4
 73
     1
 44
1.0
1001
ACAD
1000
MTEXTBEGIN
1070
    73
1070
     1
1070
    44
1040
1.0
1070
    74
1070
     0
1000
MTEXTEND
  0
POINT
  5
D896F
330
D85B0
100
AcDbEntity
  8
Defpoints
 62
     0
 48
5.0
100
AcDbPoint
 10
108823.7679611034
 20
-169075.1184474508
 30
0.0
  0
POINT
  5
D8970
330
D85B0
100
AcDbEntity
  8
Defpoints
 62
     0
 48
5.0
100
AcDbPoint
 10
108827.7679611033
 20
-169075.1184474508
 30
0.0
  0
POINT
  5
D8971
330
D85B0
100
AcDbEntity
  8
Defpoints
 62
     0
 48
5.0
100
AcDbPoint
 10
108827.7679611033
 20
-169075.1184474508
 30
0.0
  0
ENDBLK
  5
D85B2
330
D85B0
100
AcDbEntity
  8
0
 48
5.0
100
AcDbBlockEnd
  0
BLOCK
  5
D85D7
330
D85D6
100
AcDbEntity
  8
0
 48
5.0
100
AcDbBlockBegin
  2
*D9
 70
     1
 10
0.0
 20
0.0
 30
0.0
  3
*D9
  1

  0
LINE
  5
D8972
330
D85D6
100
AcDbEntity
  8
标注
 48
5.0
370
    -2
100
AcDbLine
 10
108059.4121581018
 20
-168958.0114355088
 30
0.0
 11
108046.1519691603
 21
-168966.9650598719
 31
0.0
  0
MTEXT
  5
D8973
330
D85D6
100
AcDbEntity
  8
标注
 48
5.0
100
AcDbMText
 10
108082.8477003631
 20
-168942.187148006
 30
0.0
 40
20.0
 41
0.0
 71
     5
 72
     1
  1
\A1;R100
 11
0.8287618088457922
 21
0.5596015226915047
 31
0.0
 73
     1
 44
1.0
1001
ACAD
1000
MTEXTBEGIN
1070
    73
1070
     1
1070
    44
1040
1.0
1070
    74
1070
     0
1000
MTEXTEND
  0
SOLID
  5
D8974
330
D85D6
100
AcDbEntity
  8
标注
 48
5.0
100
AcDbTrace
 10
108044.6596984331
 20
-168964.7550283816
 30
0.0
 11
108047.6442398875
 21
-168969.1750913621
 31
0.0
 12
108032.8917802187
 22
-168975.9186842349
 32
0.0
 13
108032.8917802187
 23
-168975.9186842349
 33
0.0
  0
POINT
  5
D8975
330
D85D6
100
AcDbEntity
  8
Defpoints
 62
     0
 48
5.0
100
AcDbPoint
 10
108032.8917802187
 20
-168975.9186842349
 30
0.0
  0
POINT
  5
D8976
330
D85D6
100
AcDbEntity
  8
Defpoints
 62
     0
 48
5.0
100
AcDbPoint
 10
108115.7679611034
 20
-168919.9585319657
 30
0.0
  0
ENDBLK
  5
D85D8
330
D85D6
100
AcDbEntity
  8
0
 48
5.0
100
AcDbBlockEnd
  0
BLOCK
  5
D85DF
330
D85DE
100
AcDbEntity
  8
0
 48
5.0
100
AcDbBlockBegin
  2
*D10
 70
     1
 10
0.0
 20
0.0
 30
0.0
  3
*D10
  1

  0
LINE
  5
D8977
330
D85DE
100
AcDbEntity
  8
标注
 48
5.0
370
    -2
100
AcDbLine
 10
108052.7239683326
 20
-168681.5767637664
 30
0.0
 11
108037.3434692362
 21
-168677.167654157
 31
0.0
  0
MTEXT
  5
D8978
330
D85DE
100
AcDbEntity
  8
标注
 48
5.0
100
AcDbMText
 10
108079.9068643049
 20
-168689.3692526246
 30
0.0
 40
20.0
 41
0.0
 71
     5
 72
     1
  1
\A1;R160
 11
0.9612811935216118
 21
-0.2755693505846859
 31
0.0
 73
     1
 44
1.0
1001
ACAD
1000
MTEXTBEGIN
1070
    73
1070
     1
1070
    44
1040
1.0
1070
    74
1070
     0
1000
MTEXTEND
  0
SOLID
  5
D8979
330
D85DE
100
AcDbEntity
  8
标注
 48
5.0
100
AcDbTrace
 10
108038.0783208378
 20
-168674.604237641
 30
0.0
 11
108036.6086176347
 21
-168679.7310706731
 31
0.0
 12
108021.9629701399
 22
-168672.7585445477
 32
0.0
 13
108021.9629701399
 23
-168672.7585445477
 33
0.0
  0
POINT
  5
D897A
330
D85DE
100
AcDbEntity
  8
Defpoints
 62
     0
 48
5.0
100
AcDbPoint
 10
108021.9629701399
 20
-168672.7585445477
 30
0.0
  0
POINT
  5
D897B
330
D85DE
100
AcDbEntity
  8
Defpoints
 62
     0
 48
5.0
100
AcDbPoint
 10
108175.7679611033
 20
-168716.8496406412
 30
0.0
  0
ENDBLK
  5
D85E0
330
D85DE
100
AcDbEntity
  8
0
 48
5.0
100
AcDbBlockEnd
  0
BLOCK
  5
D85E7
330
D85E6
100
AcDbEntity
  8
0
 48
5.0
100
AcDbBlockBegin
  2
*D11
 70
     1
 10
0.0
 20
0.0
 30
0.0
  3
*D11
  1

  0
LINE
  5
D897C
330
D85E6
100
AcDbEntity
  8
标注
 48
5.0
370
    -2
100
AcDbLine
 10
108221.6754355376
 20
-168582.3748537193
 30
0.0
 11
108220.9779916813
 21
-168566.3900618198
 31
0.0
  0
MTEXT
  5
D897D
330
D85E6
100
AcDbEntity
  8
标注
 48
5.0
100
AcDbMText
 10
108222.9080706864
 20
-168610.6257532915
 30
0.0
 40
20.0
 41
0.0
 71
     5
 72
     1
  1
\A1;R470
 11
0.0435902410187121
 21
-0.9990494937128644
 31
0.0
 73
     1
 44
1.0
1001
ACAD
1000
MTEXTBEGIN
1070
    73
1070
     1
1070
    44
1040
1.0
1070
    74
1070
     0
1000
MTEXTEND
  0
SOLID
  5
D897E
330
D85E6
100
AcDbEntity
  8
标注
 48
5.0
100
AcDbTrace
 10
108223.6421236645
 20
-168566.2738211772
 30
0.0
 11
108218.313859698
 21
-168566.5063024626
 31
0.0
 12
108220.280547825
 22
-168550.4052699205
 32
0.0
 13
108220.280547825
 23
-168550.4052699205
 33
0.0
  0
POINT
  5
D897F
330
D85E6
100
AcDbEntity
  8
Defpoints
 62
     0
 48
5.0
100
AcDbPoint
 10
108220.280547825
 20
-168550.4052699205
 30
0.0
  0
POINT
  5
D8980
330
D85E6
100
AcDbEntity
  8
Defpoints
 62
     0
 48
5.0
100
AcDbPoint
 10
108240.7679611034
 20
-169019.9585319559
 30
0.0
  0
ENDBLK
  5
D85E8
330
D85E6
100
AcDbEntity
  8
0
 48
5.0
100
AcDbBlockEnd
  0
BLOCK
  5
D85EF
330
D85EE
100
AcDbEntity
  8
0
 48
5.0
100
AcDbBlockBegin
  2
*D12
 70
     1
 10
0.0
 20
0.0
 30
0.0
  3
*D12
  1

  0
LINE
  5
D8981
330
D85EE
100
AcDbEntity
  8
标注
 48
5.0
370
    -2
100
AcDbLine
 10
108350.2368705267
 20
-168596.8224933173
 30
0.0
 11
108355.7954842046
 21
-168581.8190999018
 31
0.0
  0
MTEXT
  5
D8982
330
D85EE
100
AcDbEntity
  8
标注
 48
5.0
100
AcDbMText
 10
108340.4127928806
 20
-168623.3389073745
 30
0.0
 40
20.0
 41
0.0
 71
     5
 72
     1
  1
\A1;R160
 11
0.3474133548699989
 21
0.9377120884674422
 31
0.0
 73
     1
 44
1.0
1001
ACAD
1000
MTEXTBEGIN
1070
    73
1070
     1
1070
    44
1040
1.0
1070
    74
1070
     0
1000
MTEXTEND
  0
SOLID
  5
D8983
330
D85EE
100
AcDbEntity
  8
标注
 48
5.0
100
AcDbTrace
 10
108353.2949186354
 20
-168580.8926642889
 30
0.0
 11
108358.2960497738
 21
-168582.7455355148
 31
0.0
 12
108361.3540978825
 22
-168566.8157064864
 32
0.0
 13
108361.3540978825
 23
-168566.8157064864
 33
0.0
  0
POINT
  5
D8984
330
D85EE
100
AcDbEntity
  8
Defpoints
 62
     0
 48
5.0
100
AcDbPoint
 10
108361.3540978825
 20
-168566.8157064864
 30
0.0
  0
POINT
  5
D8985
330
D85EE
100
AcDbEntity
  8
Defpoints
 62
     0
 48
5.0
100
AcDbPoint
 10
108305.7679611036
 20
-168716.8496406406
 30
0.0
  0
ENDBLK
  5
D85F0
330
D85EE
100
AcDbEntity
  8
0
 48
5.0
100
AcDbBlockEnd
  0
BLOCK
  5
D85F7
330
D85F6
100
AcDbEntity
  8
0
 48
5.0
100
AcDbBlockBegin
  2
*D13
 70
     1
 10
0.0
 20
0.0
 30
0.0
  3
*D13
  1

  0
LINE
  5
D8986
330
D85F6
100
AcDbEntity
  8
标注
 48
5.0
370
    -2
100
AcDbLine
 10
108425.6846765239
 20
-168567.0618858651
 30
0.0
 11
108420.6077730927
 21
-168582.235054669
 31
0.0
  0
MTEXT
  5
D8987
330
D85F6
100
AcDbEntity
  8
标注
 48
5.0
100
AcDbMText
 10
108432.4009966881
 20
-168546.9890479684
 30
0.0
 40
20.0
 41
0.0
 71
     5
 72
     1
  1
\A1;R30
 11
0.3173064644518516
 21
0.9483230502402996
 31
0.0
 73
     1
 44
1.0
1001
ACAD
1000
MTEXTBEGIN
1070
    73
1070
     1
1070
    44
1040
1.0
1070
    74
1070
     0
1000
MTEXTEND
  0
SOLID
  5
D8988
330
D85F6
100
AcDbEntity
  8
标注
 48
5.0
100
AcDbTrace
 10
108418.0789116254
 20
-168581.3889040972
 30
0.0
 11
108423.13663456
 21
-168583.0812052409
 31
0.0
 12
108415.5308696614
 22
-168597.4082234729
 32
0.0
 13
108415.5308696614
 23
-168597.4082234729
 33
0.0
  0
POINT
  5
D8989
330
D85F6
100
AcDbEntity
  8
Defpoints
 62
     0
 48
5.0
100
AcDbPoint
 10
108415.5308696614
 20
-168597.4082234729
 30
0.0
  0
POINT
  5
D898A
330
D85F6
100
AcDbEntity
  8
Defpoints
 62
     0
 48
5.0
100
AcDbPoint
 10
108425.0500635959
 20
-168568.958531963
 30
0.0
  0
ENDBLK
  5
D85F8
330
D85F6
100
AcDbEntity
  8
0
 48
5.0
100
AcDbBlockEnd
  0
BLOCK
  5
D85FF
330
D85FE
100
AcDbEntity
  8
0
 48
5.0
100
AcDbBlockBegin
  2
*D14
 70
     1
 10
0.0
 20
0.0
 30
0.0
  3
*D14
  1

  0
LINE
  5
D898B
330
D85FE
100
AcDbEntity
  8
标注
 48
5.0
370
    -2
100
AcDbLine
 10
108773.723253287
 20
-168652.0162286479
 30
0.0
 11
108785.2076249744
 21
-168640.8757974648
 31
0.0
  0
MTEXT
  5
D898C
330
D85FE
100
AcDbEntity
  8
标注
 48
5.0
100
AcDbMText
 10
108758.5303865755
 20
-168666.7540907338
 30
0.0
 40
20.0
 41
0.0
 71
     5
 72
     1
  1
\A1;R90
 11
0.7177732304638792
 21
0.6962769489430533
 31
0.0
 73
     1
 44
1.0
1001
ACAD
1000
MTEXTBEGIN
1070
    73
1070
     1
1070
    44
1040
1.0
1070
    74
1070
     0
1000
MTEXTEND
  0
SOLID
  5
D898D
330
D85FE
100
AcDbEntity
  8
标注
 48
5.0
100
AcDbTrace
 10
108783.3508864439
 20
-168638.9617355169
 30
0.0
 11
108787.0643635049
 21
-168642.7898594127
 31
0.0
 12
108796.6919966618
 22
-168629.7353662817
 32
0.0
 13
108796.6919966618
 23
-168629.7353662817
 33
0.0
  0
POINT
  5
D898E
330
D85FE
100
AcDbEntity
  8
Defpoints
 62
     0
 48
5.0
100
AcDbPoint
 10
108796.6919966618
 20
-168629.7353662817
 30
0.0
  0
POINT
  5
D898F
330
D85FE
100
AcDbEntity
  8
Defpoints
 62
     0
 48
5.0
100
AcDbPoint
 10
108732.0924059207
 20
-168692.4002916859
 30
0.0
  0
ENDBLK
  5
D8600
330
D85FE
100
AcDbEntity
  8
0
 48
5.0
100
AcDbBlockEnd
  0
BLOCK
  5
D8607
330
D8606
100
AcDbEntity
  8
0
 48
5.0
100
AcDbBlockBegin
  2
*D15
 70
     1
 10
0.0
 20
0.0
 30
0.0
  3
*D15
  1

  0
LINE
  5
D8990
330
D8606
100
AcDbEntity
  8
标注
 48
5.0
370
    -2
100
AcDbLine
 10
108767.2114251953
 20
-168972.6757852909
 30
0.0
 11
108776.8994305119
 21
-168985.409306131
 31
0.0
  0
MTEXT
  5
D8991
330
D8606
100
AcDbEntity
  8
标注
 48
5.0
100
AcDbMText
 10
108754.3950014952
 20
-168955.8303983463
 30
0.0
 40
20.0
 41
0.0
 71
     5
 72
     1
  1
\A1;R90
 11
0.6055003322902209
 21
-0.7958450525048405
 31
0.0
 73
     1
 44
1.0
1001
ACAD
1000
MTEXTBEGIN
1070
    73
1070
     1
1070
    44
1040
1.0
1070
    74
1070
     0
1000
MTEXTEND
  0
SOLID
  5
D8992
330
D8606
100
AcDbEntity
  8
标注
 48
5.0
100
AcDbTrace
 10
108779.0216839853
 20
-168983.7946385782
 30
0.0
 11
108774.7771770386
 21
-168987.0239736838
 31
0.0
 12
108786.5874358286
 22
-168998.1428269711
 32
0.0
 13
108786.5874358286
 23
-168998.1428269711
 33
0.0
  0
POINT
  5
D8993
330
D8606
100
AcDbEntity
  8
Defpoints
 62
     0
 48
5.0
100
AcDbPoint
 10
108786.5874358286
 20
-168998.1428269711
 30
0.0
  0
POINT
  5
D8994
330
D8606
100
AcDbEntity
  8
Defpoints
 62
     0
 48
5.0
100
AcDbPoint
 10
108732.0924059272
 20
-168926.516772252
 30
0.0
  0
ENDBLK
  5
D8608
330
D8606
100
AcDbEntity
  8
0
 48
5.0
100
AcDbBlockEnd
  0
BLOCK
  5
D8721
330
D8720
100
AcDbEntity
  8
0
 48
5.0
100
AcDbBlockBegin
  2
*D16
 70
     1
 10
0.0
 20
0.0
 30
0.0
  3
*D16
  1

  0
LINE
  5
D8995
330
D8720
100
AcDbEntity
  8
标注
 48
5.0
370
    -2
100
AcDbLine
 10
108669.2679611036
 20
-169019.9585319657
 30
0.0
 11
108893.1232566097
 21
-169019.9585319657
 31
0.0
  0
LINE
  5
D8996
330
D8720
100
AcDbEntity
  8
标注
 48
5.0
370
    -2
100
AcDbLine
 10
108669.2679611036
 20
-168598.9585319658
 30
0.0
 11
108893.1232566097
 21
-168598.9585319658
 31
0.0
  0
LINE
  5
D8997
330
D8720
100
AcDbEntity
  8
标注
 48
5.0
370
    -2
100
AcDbLine
 10
108886.1232566097
 20
-169003.9585319657
 30
0.0
 11
108886.1232566097
 21
-168829.8474208546
 31
0.0
  0
LINE
  5
D8998
330
D8720
100
AcDbEntity
  8
标注
 48
5.0
370
    -2
100
AcDbLine
 10
108886.1232566097
 20
-168614.9585319658
 30
0.0
 11
108886.1232566097
 21
-168789.0696430769
 31
0.0
  0
SOLID
  5
D8999
330
D8720
100
AcDbEntity
  8
标注
 48
5.0
100
AcDbTrace
 10
108883.4565899431
 20
-169003.9585319657
 30
0.0
 11
108888.7899232764
 21
-169003.9585319657
 31
0.0
 12
108886.1232566097
 22
-169019.9585319657
 32
0.0
 13
108886.1232566097
 23
-169019.9585319657
 33
0.0
  0
SOLID
  5
D899A
330
D8720
100
AcDbEntity
  8
标注
 48
5.0
100
AcDbTrace
 10
108883.4565899431
 20
-168614.9585319658
 30
0.0
 11
108888.7899232764
 21
-168614.9585319658
 31
0.0
 12
108886.1232566097
 22
-168598.9585319658
 32
0.0
 13
108886.1232566097
 23
-168598.9585319658
 33
0.0
  0
MTEXT
  5
D899B
330
D8720
100
AcDbEntity
  8
标注
 48
5.0
100
AcDbMText
 10
108886.1232566098
 20
-168809.4585319657
 30
0.0
 40
20.0
 41
0.0
 71
     5
 72
     1
  1
\A1;421
 11
0.0000000000000001
 21
1.0
 31
0.0
 73
     1
 44
1.0
1001
ACAD
1000
MTEXTBEGIN
1070
    73
1070
     1
1070
    44
1040
1.0
1070
    74
1070
     0
1000
MTEXTEND
  0
POINT
  5
D899C
330
D8720
100
AcDbEntity
  8
Defpoints
 62
     0
 48
5.0
100
AcDbPoint
 10
108662.2679611036
 20
-169019.9585319657
 30
0.0
  0
POINT
  5
D899D
330
D8720
100
AcDbEntity
  8
Defpoints
 62
     0
 48
5.0
100
AcDbPoint
 10
108662.2679611036
 20
-168598.9585319658
 30
0.0
  0
POINT
  5
D899E
330
D8720
100
AcDbEntity
  8
Defpoints
 62
     0
 48
5.0
100
AcDbPoint
 10
108886.1232566097
 20
-168598.9585319658
 30
0.0
  0
ENDBLK
  5
D8722
330
D8720
100
AcDbEntity
  8
0
 48
5.0
100
AcDbBlockEnd
  0
BLOCK
  5
D873B
330
D873A
100
AcDbEntity
  8
0
 48
5.0
100
AcDbBlockBegin
  2
*D17
 70
     1
 10
0.0
 20
0.0
 30
0.0
  3
*D17
  1

  0
LINE
  5
D899F
330
D873A
100
AcDbEntity
  8
标注
 48
5.0
370
    -2
100
AcDbLine
 10
108669.2679611036
 20
-169023.9585319657
 30
0.0
 11
108925.4277983654
 21
-169023.9585319657
 31
0.0
  0
LINE
  5
D89A0
330
D873A
100
AcDbEntity
  8
标注
 48
5.0
370
    -2
100
AcDbLine
 10
108669.2679611042
 20
-168594.9585319658
 30
0.0
 11
108925.4277983654
 21
-168594.9585319658
 31
0.0
  0
LINE
  5
D89A1
330
D873A
100
AcDbEntity
  8
标注
 48
5.0
370
    -2
100
AcDbLine
 10
108918.4277983654
 20
-169007.9585319657
 30
0.0
 11
108918.4277983654
 21
-168830.5140875213
 31
0.0
  0
LINE
  5
D89A2
330
D873A
100
AcDbEntity
  8
标注
 48
5.0
370
    -2
100
AcDbLine
 10
108918.4277983654
 20
-168610.9585319658
 30
0.0
 11
108918.4277983654
 21
-168788.4029764102
 31
0.0
  0
SOLID
  5
D89A3
330
D873A
100
AcDbEntity
  8
标注
 48
5.0
100
AcDbTrace
 10
108915.7611316987
 20
-169007.9585319657
 30
0.0
 11
108921.0944650321
 21
-169007.9585319657
 31
0.0
 12
108918.4277983654
 22
-169023.9585319657
 32
0.0
 13
108918.4277983654
 23
-169023.9585319657
 33
0.0
  0
SOLID
  5
D89A4
330
D873A
100
AcDbEntity
  8
标注
 48
5.0
100
AcDbTrace
 10
108915.7611316987
 20
-168610.9585319658
 30
0.0
 11
108921.0944650321
 21
-168610.9585319658
 31
0.0
 12
108918.4277983654
 22
-168594.9585319658
 32
0.0
 13
108918.4277983654
 23
-168594.9585319658
 33
0.0
  0
MTEXT
  5
D89A5
330
D873A
100
AcDbEntity
  8
标注
 48
5.0
100
AcDbMText
 10
108918.4277983654
 20
-168809.4585319657
 30
0.0
 40
20.0
 41
0.0
 71
     5
 72
     1
  1
\A1;429
 11
0.0000000000000001
 21
1.0
 31
0.0
 73
     1
 44
1.0
1001
ACAD
1000
MTEXTBEGIN
1070
    73
1070
     1
1070
    44
1040
1.0
1070
    74
1070
     0
1000
MTEXTEND
  0
POINT
  5
D89A6
330
D873A
100
AcDbEntity
  8
Defpoints
 62
     0
 48
5.0
100
AcDbPoint
 10
108662.2679611036
 20
-169023.9585319657
 30
0.0
  0
POINT
  5
D89A7
330
D873A
100
AcDbEntity
  8
Defpoints
 62
     0
 48
5.0
100
AcDbPoint
 10
108662.2679611042
 20
-168594.9585319658
 30
0.0
  0
POINT
  5
D89A8
330
D873A
100
AcDbEntity
  8
Defpoints
 62
     0
 48
5.0
100
AcDbPoint
 10
108918.4277983654
 20
-168594.9585319658
 30
0.0
  0
ENDBLK
  5
D873C
330
D873A
100
AcDbEntity
  8
0
 48
5.0
100
AcDbBlockEnd
  0
BLOCK
  5
D8755
330
D8754
100
AcDbEntity
  8
0
 48
5.0
100
AcDbBlockBegin
  2
*D18
 70
     1
 10
0.0
 20
0.0
 30
0.0
  3
*D18
  1

  0
LINE
  5
D89A9
330
D8754
100
AcDbEntity
  8
标注
 48
5.0
370
    -2
100
AcDbLine
 10
108886.1232566097
 20
-168614.9585319658
 30
0.0
 11
108886.1232566097
 21
-168630.9585319658
 31
0.0
  0
LINE
  5
D89AA
330
D8754
100
AcDbEntity
  8
标注
 48
5.0
370
    -2
100
AcDbLine
 10
108886.1232566097
 20
-168578.9585319658
 30
0.0
 11
108886.1232566097
 21
-168562.9585319658
 31
0.0
  0
LINE
  5
D89AB
330
D8754
100
AcDbEntity
  8
标注
 48
5.0
370
    -2
100
AcDbLine
 10
108886.1232566097
 20
-168598.9585319658
 30
0.0
 11
108886.1232566097
 21
-168594.9585319658
 31
0.0
  0
SOLID
  5
D89AC
330
D8754
100
AcDbEntity
  8
标注
 48
5.0
100
AcDbTrace
 10
108883.4565899431
 20
-168614.9585319658
 30
0.0
 11
108888.7899232764
 21
-168614.9585319658
 31
0.0
 12
108886.1232566097
 22
-168598.9585319658
 32
0.0
 13
108886.1232566097
 23
-168598.9585319658
 33
0.0
  0
SOLID
  5
D89AD
330
D8754
100
AcDbEntity
  8
标注
 48
5.0
100
AcDbTrace
 10
108883.4565899431
 20
-168578.9585319658
 30
0.0
 11
108888.7899232764
 21
-168578.9585319658
 31
0.0
 12
108886.1232566097
 22
-168594.9585319658
 32
0.0
 13
108886.1232566097
 23
-168594.9585319658
 33
0.0
  0
MTEXT
  5
D89AE
330
D8754
100
AcDbEntity
  8
标注
 48
5.0
100
AcDbMText
 10
108886.1232566098
 20
-168555.8474208546
 30
0.0
 40
20.0
 41
0.0
 71
     5
 72
     1
  1
\A1;4
 11
0.0000000000000001
 21
1.0
 31
0.0
 73
     1
 44
1.0
1001
ACAD
1000
MTEXTBEGIN
1070
    73
1070
     1
1070
    44
1040
1.0
1070
    74
1070
     0
1000
MTEXTEND
  0
POINT
  5
D89AF
330
D8754
100
AcDbEntity
  8
Defpoints
 62
     0
 48
5.0
100
AcDbPoint
 10
108886.1232566097
 20
-168598.9585319658
 30
0.0
  0
POINT
  5
D89B0
330
D8754
100
AcDbEntity
  8
Defpoints
 62
     0
 48
5.0
100
AcDbPoint
 10
108886.1232566097
 20
-168594.9585319658
 30
0.0
  0
POINT
  5
D89B1
330
D8754
100
AcDbEntity
  8
Defpoints
 62
     0
 48
5.0
100
AcDbPoint
 10
108886.1232566097
 20
-168594.9585319658
 30
0.0
  0
ENDBLK
  5
D8756
330
D8754
100
AcDbEntity
  8
0
 48
5.0
100
AcDbBlockEnd
  0
BLOCK
  5
D8772
330
D8771
100
AcDbEntity
  8
0
 48
5.0
100
AcDbBlockBegin
  2
*D19
 70
     1
 10
0.0
 20
0.0
 30
0.0
  3
*D19
  1

  0
LINE
  5
D8C07
330
D8771
100
AcDbEntity
  8
标注
 48
5.0
370
    -2
100
AcDbLine
 10
108690.2193324627
 20
-168631.4673458022
 30
0.0
 11
108690.8016526993
 21
-168615.4779460904
 31
0.0
  0
MTEXT
  5
D8C08
330
D8771
100
AcDbEntity
  8
标注
 48
5.0
100
AcDbMText
 10
108689.1901623222
 20
-168659.7263890428
 30
0.0
 40
20.0
 41
0.0
 71
     5
 72
     1
  1
\A1;R800
 11
0.0363950147897092
 21
0.999337481984168
 31
0.0
 73
     1
 44
1.0
1001
ACAD
1000
MTEXTBEGIN
1070
    73
1070
     1
1070
    44
1040
1.0
1070
    74
1070
     0
1000
MTEXTEND
  0
SOLID
  5
D8C09
330
D8771
100
AcDbEntity
  8
标注
 48
5.0
100
AcDbTrace
 10
108688.1367527473
 20
-168615.3808927176
 30
0.0
 11
108693.4665526513
 21
-168615.5749994632
 31
0.0
 12
108691.3839729359
 22
-168599.4885463786
 32
0.0
 13
108691.3839729359
 23
-168599.4885463786
 33
0.0
  0
POINT
  5
D8C0A
330
D8771
100
AcDbEntity
  8
Defpoints
 62
     0
 48
5.0
100
AcDbPoint
 10
108691.3839729359
 20
-168599.4885463786
 30
0.0
  0
POINT
  5
D8C0B
330
D8771
100
AcDbEntity
  8
Defpoints
 62
     0
 48
5.0
100
AcDbPoint
 10
108662.2679611042
 20
-169398.9585319663
 30
0.0
  0
ENDBLK
  5
D8773
330
D8771
100
AcDbEntity
  8
0
 48
5.0
100
AcDbBlockEnd
  0
BLOCK
  5
D8782
330
D8781
100
AcDbEntity
  8
0
 48
5.0
100
AcDbBlockBegin
  2
*D20
 70
     1
 10
0.0
 20
0.0
 30
0.0
  3
*D20
  1

  0
LINE
  5
D8C0C
330
D8781
100
AcDbEntity
  8
标注
 48
5.0
370
    -2
100
AcDbLine
 10
108687.0978866695
 20
-168987.5570434264
 30
0.0
 11
108687.6151767855
 21
-169003.5486790818
 31
0.0
  0
MTEXT
  5
D8C0D
330
D8781
100
AcDbEntity
  8
标注
 48
5.0
100
AcDbMText
 10
108686.1836482354
 20
-168959.2940484659
 30
0.0
 40
20.0
 41
0.0
 71
     5
 72
     1
  1
\A1;R800
 11
0.0323306322474122
 21
-0.9994772284642019
 31
0.0
 73
     1
 44
1.0
1001
ACAD
1000
MTEXTBEGIN
1070
    73
1070
     1
1070
    44
1040
1.0
1070
    74
1070
     0
1000
MTEXTEND
  0
SOLID
  5
D8C0E
330
D8781
100
AcDbEntity
  8
标注
 48
5.0
100
AcDbTrace
 10
108690.2804493947
 20
-169003.4624640625
 30
0.0
 11
108684.9499041762
 21
-169003.6348941011
 31
0.0
 12
108688.1324669014
 22
-169019.5403147372
 32
0.0
 13
108688.1324669014
 23
-169019.5403147372
 33
0.0
  0
POINT
  5
D8C0F
330
D8781
100
AcDbEntity
  8
Defpoints
 62
     0
 48
5.0
100
AcDbPoint
 10
108688.1324669014
 20
-169019.5403147372
 30
0.0
  0
POINT
  5
D8C10
330
D8781
100
AcDbEntity
  8
Defpoints
 62
     0
 48
5.0
100
AcDbPoint
 10
108662.2679611038
 20
-168219.9585319753
 30
0.0
  0
ENDBLK
  5
D8783
330
D8781
100
AcDbEntity
  8
0
 48
5.0
100
AcDbBlockEnd
  0
BLOCK
  5
D886D
330
D886C
100
AcDbEntity
  8
0
 48
5.0
100
AcDbBlockBegin
  2
*D21
 70
     1
 10
0.0
 20
0.0
 30
0.0
  3
*D21
  1

  0
LINE
  5
D89BD
330
D886C
100
AcDbEntity
  8
标注
 48
5.0
370
    -2
100
AcDbLine
 10
108029.7679610933
 20
-168791.9585319656
 30
0.0
 11
108029.7679610933
 21
-168829.2375039881
 31
0.0
  0
LINE
  5
D89BE
330
D886C
100
AcDbEntity
  8
标注
 48
5.0
370
    -2
100
AcDbLine
 10
108421.7679611033
 20
-168791.9585319656
 30
0.0
 11
108421.7679611033
 21
-168829.2375039881
 31
0.0
  0
LINE
  5
D89BF
330
D886C
100
AcDbEntity
  8
标注
 48
5.0
370
    -2
100
AcDbLine
 10
108045.7679610933
 20
-168822.2375039881
 30
0.0
 11
108205.1568499872
 21
-168822.2375039881
 31
0.0
  0
LINE
  5
D89C0
330
D886C
100
AcDbEntity
  8
标注
 48
5.0
370
    -2
100
AcDbLine
 10
108405.7679611033
 20
-168822.2375039881
 30
0.0
 11
108246.3790722095
 21
-168822.2375039881
 31
0.0
  0
SOLID
  5
D89C1
330
D886C
100
AcDbEntity
  8
标注
 48
5.0
100
AcDbTrace
 10
108045.7679610933
 20
-168819.5708373214
 30
0.0
 11
108045.7679610933
 21
-168824.9041706548
 31
0.0
 12
108029.7679610933
 22
-168822.2375039881
 32
0.0
 13
108029.7679610933
 23
-168822.2375039881
 33
0.0
  0
SOLID
  5
D89C2
330
D886C
100
AcDbEntity
  8
标注
 48
5.0
100
AcDbTrace
 10
108405.7679611033
 20
-168819.5708373214
 30
0.0
 11
108405.7679611033
 21
-168824.9041706548
 31
0.0
 12
108421.7679611033
 22
-168822.2375039881
 32
0.0
 13
108421.7679611033
 23
-168822.2375039881
 33
0.0
  0
MTEXT
  5
D89C3
330
D886C
100
AcDbEntity
  8
标注
 48
5.0
100
AcDbMText
 10
108225.7679610983
 20
-168822.2375039881
 30
0.0
 40
20.0
 41
0.0
 71
     5
 72
     1
  1
\A1;392
 73
     1
 44
1.0
1001
ACAD
1000
MTEXTBEGIN
1070
    73
1070
     1
1070
    44
1040
1.0
1070
    74
1070
     0
1000
MTEXTEND
  0
POINT
  5
D89C4
330
D886C
100
AcDbEntity
  8
Defpoints
 62
     0
 48
5.0
100
AcDbPoint
 10
108029.7679610933
 20
-168784.9585319656
 30
0.0
  0
POINT
  5
D89C5
330
D886C
100
AcDbEntity
  8
Defpoints
 62
     0
 48
5.0
100
AcDbPoint
 10
108421.7679611033
 20
-168784.9585319656
 30
0.0
  0
POINT
  5
D89C6
330
D886C
100
AcDbEntity
  8
Defpoints
 62
     0
 48
5.0
100
AcDbPoint
 10
108421.7679611033
 20
-168822.2375039881
 30
0.0
  0
ENDBLK
  5
D886E
330
D886C
100
AcDbEntity
  8
0
 48
5.0
100
AcDbBlockEnd
  0
BLOCK
  5
D8887
330
D8886
100
AcDbEntity
  8
0
 48
5.0
100
AcDbBlockBegin
  2
*D22
 70
     1
 10
0.0
 20
0.0
 30
0.0
  3
*D22
  1

  0
LINE
  5
D89C7
330
D8886
100
AcDbEntity
  8
标注
 48
5.0
370
    -2
100
AcDbLine
 10
108029.7679610933
 20
-168791.9585319656
 30
0.0
 11
108029.7679610933
 21
-168864.4822463105
 31
0.0
  0
LINE
  5
D89C8
330
D8886
100
AcDbEntity
  8
标注
 48
5.0
370
    -2
100
AcDbLine
 10
108813.7679611133
 20
-168791.9585319656
 30
0.0
 11
108813.7679611133
 21
-168864.4822463105
 31
0.0
  0
LINE
  5
D89C9
330
D8886
100
AcDbEntity
  8
标注
 48
5.0
370
    -2
100
AcDbLine
 10
108045.7679610933
 20
-168857.4822463105
 30
0.0
 11
108202.3512944317
 21
-168857.4822463105
 31
0.0
  0
LINE
  5
D89CA
330
D8886
100
AcDbEntity
  8
标注
 48
5.0
370
    -2
100
AcDbLine
 10
108797.7679611134
 20
-168857.4822463105
 30
0.0
 11
108244.2401833206
 21
-168857.4822463105
 31
0.0
  0
SOLID
  5
D89CB
330
D8886
100
AcDbEntity
  8
标注
 48
5.0
100
AcDbTrace
 10
108045.7679610933
 20
-168854.8155796438
 30
0.0
 11
108045.7679610933
 21
-168860.1489129771
 31
0.0
 12
108029.7679610933
 22
-168857.4822463105
 32
0.0
 13
108029.7679610933
 23
-168857.4822463105
 33
0.0
  0
SOLID
  5
D89CC
330
D8886
100
AcDbEntity
  8
标注
 48
5.0
100
AcDbTrace
 10
108797.7679611134
 20
-168854.8155796438
 30
0.0
 11
108797.7679611134
 21
-168860.1489129771
 31
0.0
 12
108813.7679611133
 22
-168857.4822463105
 32
0.0
 13
108813.7679611133
 23
-168857.4822463105
 33
0.0
  0
MTEXT
  5
D89CD
330
D8886
100
AcDbEntity
  8
标注
 48
5.0
100
AcDbMText
 10
108223.2957388761
 20
-168857.4822463105
 30
0.0
 40
20.0
 41
0.0
 71
     5
 72
     1
  1
\A1;784
 73
     1
 44
1.0
1001
ACAD
1000
MTEXTBEGIN
1070
    73
1070
     1
1070
    44
1040
1.0
1070
    74
1070
     0
1000
MTEXTEND
  0
POINT
  5
D89CE
330
D8886
100
AcDbEntity
  8
Defpoints
 62
     0
 48
5.0
100
AcDbPoint
 10
108029.7679610933
 20
-168784.9585319656
 30
0.0
  0
POINT
  5
D89CF
330
D8886
100
AcDbEntity
  8
Defpoints
 62
     0
 48
5.0
100
AcDbPoint
 10
108813.7679611133
 20
-168784.9585319656
 30
0.0
  0
POINT
  5
D89D0
330
D8886
100
AcDbEntity
  8
Defpoints
 62
     0
 48
5.0
100
AcDbPoint
 10
108813.7679611133
 20
-168857.4822463105
 30
0.0
  0
ENDBLK
  5
D8888
330
D8886
100
AcDbEntity
  8
0
 48
5.0
100
AcDbBlockEnd
  0
BLOCK
  5
D88AB
330
D88AA
100
AcDbEntity
  8
0
 48
5.0
100
AcDbBlockBegin
  2
*D23
 70
     1
 10
0.0
 20
0.0
 30
0.0
  3
*D23
  1

  0
LINE
  5
D8C16
330
D88AA
100
AcDbEntity
  8
标注
 48
5.0
370
    -2
100
AcDbLine
 10
108679.5215273585
 20
-169023.9585319657
 30
0.0
 11
108373.3984826155
 21
-169023.9585319657
 31
0.0
  0
LINE
  5
D8C17
330
D88AA
100
AcDbEntity
  8
标注
 48
5.0
370
    -2
100
AcDbLine
 10
108414.7679611033
 20
-169005.9585319757
 30
0.0
 11
108373.3984826155
 21
-169005.9585319757
 31
0.0
  0
LINE
  5
D8C18
330
D88AA
100
AcDbEntity
  8
标注
 48
5.0
370
    -2
100
AcDbLine
 10
108380.3984826155
 20
-169039.9585319657
 30
0.0
 11
108380.3984826155
 21
-169055.9585319657
 31
0.0
  0
LINE
  5
D8C19
330
D88AA
100
AcDbEntity
  8
标注
 48
5.0
370
    -2
100
AcDbLine
 10
108380.3984826155
 20
-168989.9585319757
 30
0.0
 11
108380.3984826155
 21
-168973.9585319757
 31
0.0
  0
LINE
  5
D8C1A
330
D88AA
100
AcDbEntity
  8
标注
 48
5.0
370
    -2
100
AcDbLine
 10
108380.3984826155
 20
-169023.9585319657
 30
0.0
 11
108380.3984826155
 21
-169005.9585319757
 31
0.0
  0
SOLID
  5
D8C1B
330
D88AA
100
AcDbEntity
  8
标注
 48
5.0
100
AcDbTrace
 10
108377.7318159488
 20
-169039.9585319657
 30
0.0
 11
108383.0651492821
 21
-169039.9585319657
 31
0.0
 12
108380.3984826155
 22
-169023.9585319657
 32
0.0
 13
108380.3984826155
 23
-169023.9585319657
 33
0.0
  0
SOLID
  5
D8C1C
330
D88AA
100
AcDbEntity
  8
标注
 48
5.0
100
AcDbTrace
 10
108377.7318159488
 20
-168989.9585319757
 30
0.0
 11
108383.0651492821
 21
-168989.9585319757
 31
0.0
 12
108380.3984826155
 22
-169005.9585319757
 32
0.0
 13
108380.3984826155
 23
-169005.9585319757
 33
0.0
  0
MTEXT
  5
D8C1D
330
D88AA
100
AcDbEntity
  8
标注
 48
5.0
100
AcDbMText
 10
108380.3984826155
 20
-168961.1807541979
 30
0.0
 40
20.0
 41
0.0
 71
     5
 72
     1
  1
\A1;18
 11
0.0000000000000001
 21
1.0
 31
0.0
 73
     1
 44
1.0
1001
ACAD
1000
MTEXTBEGIN
1070
    73
1070
     1
1070
    44
1040
1.0
1070
    74
1070
     0
1000
MTEXTEND
  0
POINT
  5
D8C1E
330
D88AA
100
AcDbEntity
  8
Defpoints
 62
     0
 48
5.0
100
AcDbPoint
 10
108686.5215273585
 20
-169023.9585319657
 30
0.0
  0
POINT
  5
D8C1F
330
D88AA
100
AcDbEntity
  8
Defpoints
 62
     0
 48
5.0
100
AcDbPoint
 10
108421.7679611033
 20
-169005.9585319757
 30
0.0
  0
POINT
  5
D8C20
330
D88AA
100
AcDbEntity
  8
Defpoints
 62
     0
 48
5.0
100
AcDbPoint
 10
108380.3984826155
 20
-169005.9585319757
 30
0.0
  0
ENDBLK
  5
D88AC
330
D88AA
100
AcDbEntity
  8
0
 48
5.0
100
AcDbBlockEnd
  0
BLOCK
  5
D88E1
330
D88E0
100
AcDbEntity
  8
0
 48
5.0
100
AcDbBlockBegin
  2
*D24
 70
     1
 10
0.0
 20
0.0
 30
0.0
  3
*D24
  1

  0
LINE
  5
D89E6
330
D88E0
100
AcDbEntity
  8
标注
 48
5.0
370
    -2
100
AcDbLine
 10
108428.7679611034
 20
-169005.632566511
 30
0.0
 11
108510.496055386
 21
-169005.632566511
 31
0.0
  0
LINE
  5
D89E7
330
D88E0
100
AcDbEntity
  8
标注
 48
5.0
370
    -2
100
AcDbLine
 10
108428.7679611033
 20
-168612.7505424192
 30
0.0
 11
108510.496055386
 21
-168612.7505424192
 31
0.0
  0
LINE
  5
D89E8
330
D88E0
100
AcDbEntity
  8
标注
 48
5.0
370
    -2
100
AcDbLine
 10
108503.496055386
 20
-168989.632566511
 30
0.0
 11
108503.496055386
 21
-168929.6476278158
 31
0.0
  0
LINE
  5
D89E9
330
D88E0
100
AcDbEntity
  8
标注
 48
5.0
370
    -2
100
AcDbLine
 10
108503.496055386
 20
-168628.7505424192
 30
0.0
 11
108503.496055386
 21
-168859.7587389269
 31
0.0
  0
SOLID
  5
D89EA
330
D88E0
100
AcDbEntity
  8
标注
 48
5.0
100
AcDbTrace
 10
108500.8293887193
 20
-168989.632566511
 30
0.0
 11
108506.1627220527
 21
-168989.632566511
 31
0.0
 12
108503.496055386
 22
-169005.632566511
 32
0.0
 13
108503.496055386
 23
-169005.632566511
 33
0.0
  0
SOLID
  5
D89EB
330
D88E0
100
AcDbEntity
  8
标注
 48
5.0
100
AcDbTrace
 10
108500.8293887193
 20
-168628.7505424192
 30
0.0
 11
108506.1627220527
 21
-168628.7505424192
 31
0.0
 12
108503.496055386
 22
-168612.7505424192
 32
0.0
 13
108503.496055386
 23
-168612.7505424192
 33
0.0
  0
MTEXT
  5
D89EC
330
D88E0
100
AcDbEntity
  8
标注
 48
5.0
100
AcDbMText
 10
108503.496055386
 20
-168894.7031833713
 30
0.0
 40
20.0
 41
0.0
 71
     5
 72
     1
  1
\A1;392,9
 11
0.0000000000000001
 21
1.0
 31
0.0
 73
     1
 44
1.0
1001
ACAD
1000
MTEXTBEGIN
1070
    73
1070
     1
1070
    44
1040
1.0
1070
    74
1070
     0
1000
MTEXTEND
  0
POINT
  5
D89ED
330
D88E0
100
AcDbEntity
  8
Defpoints
 62
     0
 48
5.0
100
AcDbPoint
 10
108421.7679611034
 20
-169005.632566511
 30
0.0
  0
POINT
  5
D89EE
330
D88E0
100
AcDbEntity
  8
Defpoints
 62
     0
 48
5.0
100
AcDbPoint
 10
108421.7679611033
 20
-168612.7505424192
 30
0.0
  0
POINT
  5
D89EF
330
D88E0
100
AcDbEntity
  8
Defpoints
 62
     0
 48
5.0
100
AcDbPoint
 10
108503.496055386
 20
-168612.7505424192
 30
0.0
  0
ENDBLK
  5
D88E2
330
D88E0
100
AcDbEntity
  8
0
 48
5.0
100
AcDbBlockEnd
  0
BLOCK
  5
D8A30
330
D8A2F
100
AcDbEntity
  8
0
 48
5.0
100
AcDbBlockBegin
  2
*D25
 70
     1
 10
0.0
 20
0.0
 30
0.0
  3
*D25
  1

  0
LINE
  5
D8A4A
330
D8A2F
100
AcDbEntity
  8
标注
 48
5.0
370
    -2
100
AcDbLine
 10
108029.7679610933
 20
-168777.9585319656
 30
0.0
 11
108029.7679610933
 21
-168738.6719563653
 31
0.0
  0
LINE
  5
D8A4B
330
D8A2F
100
AcDbEntity
  8
标注
 48
5.0
370
    -2
100
AcDbLine
 10
108011.7679611033
 20
-168777.9585319656
 30
0.0
 11
108011.7679611033
 21
-168738.6719563653
 31
0.0
  0
LINE
  5
D8A4C
330
D8A2F
100
AcDbEntity
  8
标注
 48
5.0
370
    -2
100
AcDbLine
 10
107995.7679611033
 20
-168745.6719563652
 30
0.0
 11
107979.7679611034
 21
-168745.6719563652
 31
0.0
  0
LINE
  5
D8A4D
330
D8A2F
100
AcDbEntity
  8
标注
 48
5.0
370
    -2
100
AcDbLine
 10
108045.7679610933
 20
-168745.6719563652
 30
0.0
 11
108061.7679610933
 21
-168745.6719563652
 31
0.0
  0
LINE
  5
D8A4E
330
D8A2F
100
AcDbEntity
  8
标注
 48
5.0
370
    -2
100
AcDbLine
 10
108011.7679611033
 20
-168745.6719563652
 30
0.0
 11
108029.7679610933
 21
-168745.6719563652
 31
0.0
  0
SOLID
  5
D8A4F
330
D8A2F
100
AcDbEntity
  8
标注
 48
5.0
100
AcDbTrace
 10
107995.7679611033
 20
-168743.0052896986
 30
0.0
 11
107995.7679611033
 21
-168748.3386230319
 31
0.0
 12
108011.7679611033
 22
-168745.6719563652
 32
0.0
 13
108011.7679611033
 23
-168745.6719563652
 33
0.0
  0
SOLID
  5
D8A50
330
D8A2F
100
AcDbEntity
  8
标注
 48
5.0
100
AcDbTrace
 10
108045.7679610933
 20
-168743.0052896986
 30
0.0
 11
108045.7679610933
 21
-168748.3386230319
 31
0.0
 12
108029.7679610933
 22
-168745.6719563652
 32
0.0
 13
108029.7679610933
 23
-168745.6719563652
 33
0.0
  0
MTEXT
  5
D8A51
330
D8A2F
100
AcDbEntity
  8
标注
 48
5.0
100
AcDbMText
 10
108074.5457388711
 20
-168745.6719563652
 30
0.0
 40
20.0
 41
0.0
 71
     5
 72
     1
  1
\A1;18
 73
     1
 44
1.0
1001
ACAD
1000
MTEXTBEGIN
1070
    73
1070
     1
1070
    44
1040
1.0
1070
    74
1070
     0
1000
MTEXTEND
  0
POINT
  5
D8A52
330
D8A2F
100
AcDbEntity
  8
Defpoints
 62
     0
 48
5.0
100
AcDbPoint
 10
108029.7679610933
 20
-168784.9585319656
 30
0.0
  0
POINT
  5
D8A53
330
D8A2F
100
AcDbEntity
  8
Defpoints
 62
     0
 48
5.0
100
AcDbPoint
 10
108011.7679611033
 20
-168784.9585319656
 30
0.0
  0
POINT
  5
D8A54
330
D8A2F
100
AcDbEntity
  8
Defpoints
 62
     0
 48
5.0
100
AcDbPoint
 10
108011.7679611033
 20
-168745.6719563652
 30
0.0
  0
ENDBLK
  5
D8A31
330
D8A2F
100
AcDbEntity
  8
0
 48
5.0
100
AcDbBlockEnd
  0
BLOCK
  5
D8A57
330
D8A56
100
AcDbEntity
  8
0
 48
5.0
100
AcDbBlockBegin
  2
*D26
 70
     1
 10
0.0
 20
0.0
 30
0.0
  3
*D26
  1

  0
LINE
  5
D8A5F
330
D8A56
100
AcDbEntity
  8
标注
 48
5.0
370
    -2
100
AcDbLine
 10
108794.8435034949
 20
-168761.0481005168
 30
0.0
 11
108810.8318384147
 21
-168760.4372433377
 31
0.0
  0
MTEXT
  5
D8A60
330
D8A56
100
AcDbEntity
  8
标注
 48
5.0
100
AcDbMText
 10
108759.4804154953
 20
-168762.3991978194
 30
0.0
 40
20.0
 41
0.0
 71
     5
 72
     1
  1
\A1;R1300
 11
0.9992709324854743
 21
0.0381785736979609
 31
0.0
 73
     1
 44
1.0
1001
ACAD
1000
MTEXTBEGIN
1070
    73
1070
     1
1070
    44
1040
1.0
1070
    74
1070
     0
1000
MTEXTEND
  0
SOLID
  5
D8A61
330
D8A56
100
AcDbEntity
  8
标注
 48
5.0
100
AcDbTrace
 10
108810.7300288848
 20
-168757.7725208511
 30
0.0
 11
108810.9336479445
 21
-168763.1019658243
 31
0.0
 12
108826.8201733344
 22
-168759.8263861585
 32
0.0
 13
108826.8201733344
 23
-168759.8263861585
 33
0.0
  0
POINT
  5
D8A62
330
D8A56
100
AcDbEntity
  8
Defpoints
 62
     0
 48
5.0
100
AcDbPoint
 10
108826.8201733344
 20
-168759.8263861585
 30
0.0
  0
POINT
  5
D8A63
330
D8A56
100
AcDbEntity
  8
Defpoints
 62
     0
 48
5.0
100
AcDbPoint
 10
107527.7679611033
 20
-168809.4585319658
 30
0.0
  0
ENDBLK
  5
D8A58
330
D8A56
100
AcDbEntity
  8
0
 48
5.0
100
AcDbBlockEnd
  0
BLOCK
  5
D8C23
330
D8C22
100
AcDbEntity
  8
0
 48
5.0
100
AcDbBlockBegin
  2
*D48
 70
     1
 10
0.0
 20
0.0
 30
0.0
  3
*D48
  1

  0
LINE
  5
D8C25
330
D8C22
100
AcDbEntity
  8
标注
 48
5.0
370
    -2
100
AcDbLine
 10
108428.7679611033
 20
-169005.9585319757
 30
0.0
 11
108459.3024111254
 21
-169005.9585319757
 31
0.0
  0
LINE
  5
D8C26
330
D8C22
100
AcDbEntity
  8
标注
 48
5.0
370
    -2
100
AcDbLine
 10
108428.7679611033
 20
-168784.9585319656
 30
0.0
 11
108459.3024111254
 21
-168784.9585319656
 31
0.0
  0
LINE
  5
D8C27
330
D8C22
100
AcDbEntity
  8
标注
 48
5.0
370
    -2
100
AcDbLine
 10
108452.3024111254
 20
-168989.9585319757
 30
0.0
 11
108452.3024111254
 21
-168915.6251986373
 31
0.0
  0
LINE
  5
D8C28
330
D8C22
100
AcDbEntity
  8
标注
 48
5.0
370
    -2
100
AcDbLine
 10
108452.3024111254
 20
-168800.9585319656
 30
0.0
 11
108452.3024111254
 21
-168875.291865304
 31
0.0
  0
SOLID
  5
D8C29
330
D8C22
100
AcDbEntity
  8
标注
 48
5.0
100
AcDbTrace
 10
108449.6357444587
 20
-168989.9585319757
 30
0.0
 11
108454.969077792
 21
-168989.9585319757
 31
0.0
 12
108452.3024111254
 22
-169005.9585319757
 32
0.0
 13
108452.3024111254
 23
-169005.9585319757
 33
0.0
  0
SOLID
  5
D8C2A
330
D8C22
100
AcDbEntity
  8
标注
 48
5.0
100
AcDbTrace
 10
108449.6357444587
 20
-168800.9585319656
 30
0.0
 11
108454.969077792
 21
-168800.9585319656
 31
0.0
 12
108452.3024111254
 22
-168784.9585319656
 32
0.0
 13
108452.3024111254
 23
-168784.9585319656
 33
0.0
  0
MTEXT
  5
D8C2B
330
D8C22
100
AcDbEntity
  8
标注
 48
5.0
100
AcDbMText
 10
108452.3024111254
 20
-168895.4585319707
 30
0.0
 40
20.0
 41
0.0
 71
     5
 72
     1
  1
\A1;221
 11
0.0000000000000001
 21
1.0
 31
0.0
 73
     1
 44
1.0
1001
ACAD
1000
MTEXTBEGIN
1070
    73
1070
     1
1070
    44
1040
1.0
1070
    74
1070
     0
1000
MTEXTEND
  0
POINT
  5
D8C2C
330
D8C22
100
AcDbEntity
  8
Defpoints
 62
     0
 48
5.0
100
AcDbPoint
 10
108421.7679611033
 20
-169005.9585319757
 30
0.0
  0
POINT
  5
D8C2D
330
D8C22
100
AcDbEntity
  8
Defpoints
 62
     0
 48
5.0
100
AcDbPoint
 10
108421.7679611033
 20
-168784.9585319656
 30
0.0
  0
POINT
  5
D8C2E
330
D8C22
100
AcDbEntity
  8
Defpoints
 62
     0
 48
5.0
100
AcDbPoint
 10
108452.3024111254
 20
-168784.9585319656
 30
0.0
  0
ENDBLK
  5
D8C24
330
D8C22
100
AcDbEntity
  8
0
 48
5.0
100
AcDbBlockEnd
  0
ENDSEC
  0
SECTION
  2
ENTITIES
  0
DIMENSION
  5
D8501
330
1F
100
AcDbEntity
  8
标注
 48
5.0
100
AcDbDimension
  2
*D3
 10
108827.7679611033
 20
-169075.1184474508
 30
0.0
 11
108425.0474553301
 21
-169075.1184474508
 31
0.0
 70
   160
 71
     5
 42
812.0
  3
副本Standard
100
AcDbAlignedDimension
 13
108015.7679611033
 23
-168919.9585319657
 33
0.0
 14
108827.7679611033
 24
-168802.4585319657
 34
0.0
100
AcDbRotatedDimension
1001
ACAD
1000
DSTYLE
1002
{
1070
    49
1040
8.0
1070
    90
1070
     1
1070
   345
1005
14
1070
   346
1005
14
1070
   347
1005
14
1002
}
  0
DIMENSION
  5
D8502
330
1F
100
AcDbEntity
  8
标注
 48
5.0
100
AcDbDimension
  2
*D4
 10
108831.7679611034
 20
-169124.9922659687
 30
0.0
 11
108423.709717638
 21
-169124.9922659687
 31
0.0
 70
   160
 71
     5
 42
820.0
  3
副本Standard
100
AcDbAlignedDimension
 13
108011.7679611033
 23
-168919.9585319657
 33
0.0
 14
108831.7679611034
 24
-168802.4585319657
 34
0.0
100
AcDbRotatedDimension
1001
ACAD
1000
DSTYLE
1002
{
1070
    49
1040
8.0
1070
    90
1070
     1
1070
   345
1005
14
1070
   346
1005
14
1070
   347
1005
14
1002
}
  0
DIMENSION
  5
D8505
330
1F
100
AcDbEntity
  8
标注
 48
5.0
100
AcDbDimension
  2
*D5
 10
107978.3263220232
 20
-169019.9585319655
 30
0.0
 11
107978.3263220233
 21
-168784.8856774562
 31
0.0
 70
   160
 71
     5
 42
470.0
  3
副本Standard
100
AcDbAlignedDimension
 13
108242.7679611033
 23
-168549.9585319655
 33
0.0
 14
108144.8348812821
 24
-169019.9585319655
 34
0.0
 50
90.0
100
AcDbRotatedDimension
1001
ACAD
1000
DSTYLE
1002
{
1070
    49
1040
8.0
1070
    90
1070
     1
1070
   345
1005
14
1070
   346
1005
14
1070
   347
1005
14
1002
}
  0
DIMENSION
  5
D8506
330
1F
100
AcDbEntity
  8
标注
 48
5.0
100
AcDbDimension
  2
*D6
 10
107936.5271405036
 20
-169023.9585319655
 30
0.0
 11
107936.5271405037
 21
-168785.4984942251
 31
0.0
 70
   160
 71
     5
 42
478.0
  3
副本Standard
100
AcDbAlignedDimension
 13
108242.7679611033
 23
-168545.9585319655
 33
0.0
 14
108210.5142789935
 24
-169023.9585319655
 34
0.0
 50
90.0
100
AcDbRotatedDimension
1001
ACAD
1000
DSTYLE
1002
{
1070
    49
1040
8.0
1070
    90
1070
     1
1070
   345
1005
14
1070
   346
1005
14
1070
   347
1005
14
1002
}
  0
DIMENSION
  5
D8509
330
1F
100
AcDbEntity
  8
标注
 48
5.0
100
AcDbDimension
  2
*D7
 10
107978.3263220232
 20
-168545.9585319655
 30
0.0
 11
107978.3263220233
 21
-168506.8474208543
 31
0.0
 70
    32
 71
     5
 42
4.0
  3
副本Standard
100
AcDbAlignedDimension
 13
107978.3263220232
 23
-168549.9585319655
 33
0.0
 14
107910.8828032878
 24
-168545.9585319655
 34
0.0
 50
90.0
100
AcDbRotatedDimension
  0
DIMENSION
  5
D850D
330
1F
100
AcDbEntity
  8
标注
 48
5.0
100
AcDbDimension
  2
*D8
 10
108827.7679611033
 20
-169075.1184474508
 30
0.0
 11
108866.8790722145
 21
-169075.1184474508
 31
0.0
 70
    32
 71
     5
 42
4.0
  3
副本Standard
100
AcDbAlignedDimension
 13
108823.7679611034
 23
-169075.1184474508
 33
0.0
 14
108827.7679611033
 24
-169075.1184474508
 34
0.0
100
AcDbRotatedDimension
  0
DIMENSION
  5
D8510
330
1F
100
AcDbEntity
  8
标注
 48
5.0
100
AcDbDimension
  2
*D9
 10
108115.7679611034
 20
-168919.9585319657
 30
0.0
 11
108082.8477003631
 21
-168942.187148006
 31
0.0
 70
   164
 71
     5
 42
100.0000000000291
  3
副本Standard
100
AcDbRadialDimension
 15
108032.8917802187
 25
-168975.9186842349
 35
0.0
 40
0.0
1001
ACAD
1000
DSTYLE
1002
{
1070
   288
1070
     1
1002
}
1001
ACAD_DSTYLE_DIMRADIAL_EXTENSION
1070
   387
1070
     1
1070
   388
1040
3.141592653589792
1070
   390
1040
4.712388980384688
  0
DIMENSION
  5
D8511
330
1F
100
AcDbEntity
  8
标注
 48
5.0
100
AcDbDimension
  2
*D10
 10
108175.7679611033
 20
-168716.8496406412
 30
0.0
 11
108079.9068643049
 21
-168689.3692526246
 31
0.0
 70
   164
 71
     5
 42
160.0
  3
副本Standard
100
AcDbRadialDimension
 15
108021.9629701399
 25
-168672.7585445477
 35
0.0
 40
0.0
1001
ACAD
1000
DSTYLE
1002
{
1070
   288
1070
     1
1002
}
1001
ACAD_DSTYLE_DIMRADIAL_EXTENSION
1070
   387
1070
     1
1070
   388
1040
1.782041360444825
1070
   390
1040
3.141592653589611
  0
DIMENSION
  5
D8512
330
1F
100
AcDbEntity
  8
标注
 48
5.0
100
AcDbDimension
  2
*D11
 10
108240.7679611034
 20
-169019.9585319559
 30
0.0
 11
108222.9080706864
 21
-168610.6257532915
 31
0.0
 70
   164
 71
     5
 42
469.9999999903375
  3
副本Standard
100
AcDbRadialDimension
 15
108220.280547825
 25
-168550.4052699205
 35
0.0
 40
0.0
1001
ACAD
1000
DSTYLE
1002
{
1070
   288
1070
     1
1002
}
1001
ACAD_DSTYLE_DIMRADIAL_EXTENSION
1070
   387
1070
     1
1070
   388
1040
1.359551293143475
1070
   390
1040
1.782041360443657
  0
DIMENSION
  5
D8513
330
1F
100
AcDbEntity
  8
标注
 48
5.0
100
AcDbDimension
  2
*D12
 10
108305.7679611036
 20
-168716.8496406406
 30
0.0
 11
108340.4127928806
 21
-168623.3389073745
 31
0.0
 70
   164
 71
     5
 42
159.9999999994033
  3
副本Standard
100
AcDbRadialDimension
 15
108361.3540978825
 25
-168566.8157064864
 35
0.0
 40
0.0
1001
ACAD
1000
DSTYLE
1002
{
1070
   288
1070
     1
1002
}
1001
ACAD_DSTYLE_DIMRADIAL_EXTENSION
1070
   387
1070
     1
1070
   388
1040
0.8920720571975245
1070
   390
1040
1.359551293137178
  0
DIMENSION
  5
D8514
330
1F
100
AcDbEntity
  8
标注
 48
5.0
100
AcDbDimension
  2
*D13
 10
108425.0500635959
 20
-168568.958531963
 30
0.0
 11
108432.4009966881
 21
-168546.9890479684
 31
0.0
 70
   164
 71
     5
 42
30.00000000282307
  3
副本Standard
100
AcDbRadialDimension
 15
108415.5308696614
 25
-168597.4082234729
 35
0.0
 40
0.0
1001
ACAD
1000
DSTYLE
1002
{
1070
   288
1070
     1
1002
}
1001
ACAD_DSTYLE_DIMRADIAL_EXTENSION
1070
   387
1070
     1
1070
   388
1040
4.033664711023041
1070
   390
1040
4.712388980627221
  0
DIMENSION
  5
D8515
330
1F
100
AcDbEntity
  8
标注
 48
5.0
100
AcDbDimension
  2
*D14
 10
108732.0924059207
 20
-168692.4002916859
 30
0.0
 11
108758.5303865755
 21
-168666.7540907338
 31
0.0
 70
   164
 71
     5
 42
89.99999999914145
  3
副本Standard
100
AcDbRadialDimension
 15
108796.6919966618
 25
-168629.7353662817
 35
0.0
 40
0.0
1001
ACAD
1000
DSTYLE
1002
{
1070
   288
1070
     1
1002
}
1001
ACAD_DSTYLE_DIMRADIAL_EXTENSION
1070
   387
1070
     1
1070
   388
1040
0.0968938897025615
1070
   390
1040
1.472292819958471
  0
DIMENSION
  5
D8516
330
1F
100
AcDbEntity
  8
标注
 48
5.0
100
AcDbDimension
  2
*D15
 10
108732.0924059272
 20
-168926.516772252
 30
0.0
 11
108754.3950014952
 21
-168955.8303983463
 31
0.0
 70
   164
 71
     5
 42
89.99999999208375
  3
副本Standard
100
AcDbRadialDimension
 15
108786.5874358286
 25
-168998.1428269711
 35
0.0
 40
0.0
1001
ACAD
1000
DSTYLE
1002
{
1070
   288
1070
     1
1002
}
1001
ACAD_DSTYLE_DIMRADIAL_EXTENSION
1070
   387
1070
     1
1070
   388
1040
4.810892487139386
1070
   390
1040
6.186291417395452
  0
LWPOLYLINE
  5
D86C3
102
{ACAD_REACTORS
330
D8752
330
D88C4
330
D8A49
102
}
330
1F
100
AcDbEntity
  8
细实线
100
AcDbPolyline
 90
       15
 70
     0
 43
0.0
 10
108831.7679611034
 20
-168809.458531959
 42
0.0242282114624012
 10
108825.6514950212
 20
-168683.3065110354
 42
0.3580742548174716
 10
108741.3367690382
 20
-168598.8559612838
 42
0.0246308559028843
 10
108662.267961104
 20
-168594.9585319658
 10
108425.0500636032
 20
-168594.9585319658
 42
-0.1713285098439212
 10
108408.7272495741
 20
-168589.1962626303
 42
0.1174048229829598
 10
108340.1550578797
 20
-168556.4952594247
 42
0.1060170565497684
 10
108141.3808643277
 20
-168556.4952594246
 42
0.3536106696854823
 10
108011.7679611033
 20
-168716.8496406412
 10
108011.7679611033
 20
-168919.9585319657
 42
0.4142135623730951
 10
108115.7679611034
 20
-169023.9585319657
 10
108662.2679611036
 20
-169023.9585319657
 42
0.0246308559028844
 10
108741.3367690366
 20
-169020.0611026478
 42
0.3580742548256381
 10
108825.65149502
 20
-168935.6105529088
 42
0.0242282114624012
 10
108831.7679611034
 20
-168809.4585319657
  0
LWPOLYLINE
  5
D86DF
102
{ACAD_REACTORS
330
D8738
330
D877F
330
D878F
330
D8A64
102
}
330
1F
100
AcDbEntity
  8
虚线
 48
4.0
100
AcDbPolyline
 90
       15
 70
     0
 43
0.0
 10
108821.6702571871
 20
-168683.6934804247
 42
0.3580742548174716
 10
108740.9433918842
 20
-168602.8365710882
 42
0.0246308559028843
 10
108662.267961104
 20
-168598.9585319658
 10
108425.0500636033
 20
-168598.9585319658
 42
-0.1713285098477932
 10
108406.2160474167
 20
-168592.3097596552
 42
0.1174048229793536
 10
108339.3163482022
 20
-168560.4063418934
 42
0.1060170565497684
 10
108142.2195740052
 20
-168560.4063418933
 42
0.3536106696854823
 10
108015.7679611033
 20
-168716.8496406412
 10
108015.7679611033
 20
-168919.9585319657
 42
0.4142135623730951
 10
108115.7679611034
 20
-169019.9585319657
 10
108662.2679611036
 20
-169019.9585319657
 42
0.0246308559028844
 10
108740.9433918828
 20
-169016.0804928433
 42
0.3580742548174677
 10
108821.6702571859
 20
-168935.2235835193
 42
0.0242282114624012
 10
108827.7679611033
 20
-168809.4585319658
 42
0.0242282114624012
 10
108821.6702571859
 20
-168683.6934804124
  0
DIMENSION
  5
D871F
102
{ACAD_XDICTIONARY
360
D872D
102
}
102
{ACAD_REACTORS
330
D8738
102
}
330
1F
100
AcDbEntity
  8
标注
 48
5.0
100
AcDbDimension
  2
*D16
 10
108886.1232566097
 20
-168598.9585319658
 30
0.0
 11
108886.1232566098
 21
-168809.4585319657
 31
0.0
 70
    32
 71
     5
 42
420.9999999999418
  3
副本Standard
100
AcDbAlignedDimension
 13
108662.2679611036
 23
-169019.9585319657
 33
0.0
 14
108662.2679611036
 24
-168598.9585319658
 34
0.0
 50
90.0
100
AcDbRotatedDimension
  0
DIMENSION
  5
D8739
102
{ACAD_XDICTIONARY
360
D8747
102
}
102
{ACAD_REACTORS
330
D8752
102
}
330
1F
100
AcDbEntity
  8
标注
 48
5.0
100
AcDbDimension
  2
*D17
 10
108918.4277983654
 20
-168594.9585319658
 30
0.0
 11
108918.4277983654
 21
-168809.4585319657
 31
0.0
 70
    32
 71
     5
 42
428.9999999999418
  3
副本Standard
100
AcDbAlignedDimension
 13
108662.2679611036
 23
-169023.9585319657
 33
0.0
 14
108662.2679611042
 24
-168594.9585319658
 34
0.0
 50
90.0
100
AcDbRotatedDimension
  0
DIMENSION
  5
D8753
330
1F
100
AcDbEntity
  8
标注
 48
5.0
100
AcDbDimension
  2
*D18
 10
108886.1232566097
 20
-168594.9585319658
 30
0.0
 11
108886.1232566098
 21
-168555.8474208546
 31
0.0
 70
    32
 71
     5
 42
4.0
  3
副本Standard
100
AcDbAlignedDimension
 13
108886.1232566097
 23
-168598.9585319658
 33
0.0
 14
108886.1232566097
 24
-168594.9585319658
 34
0.0
 50
90.0
100
AcDbRotatedDimension
  0
DIMENSION
  5
D8770
102
{ACAD_XDICTIONARY
360
D8779
102
}
102
{ACAD_REACTORS
330
D877F
102
}
330
1F
100
AcDbEntity
  8
标注
 48
5.0
100
AcDbDimension
  2
*D19
 10
108662.2679611042
 20
-169398.9585319663
 30
0.0
 11
108689.1901623222
 21
-168659.7263890428
 31
0.0
 70
   164
 71
     5
 42
800.0000000002907
  3
副本Standard
100
AcDbRadialDimension
 15
108691.3839729359
 25
-168599.4885463786
 35
0.0
 40
0.0
1001
ACAD
1000
DSTYLE
1002
{
1070
   288
1070
     1
1002
}
1001
ACAD_DSTYLE_DIMRADIAL_EXTENSION
1070
   387
1070
     1
1070
   388
1040
1.472292819966981
1070
   390
1040
1.570796326795113
  0
DIMENSION
  5
D8780
102
{ACAD_XDICTIONARY
360
D8789
102
}
102
{ACAD_REACTORS
330
D878F
102
}
330
1F
100
AcDbEntity
  8
标注
 48
5.0
100
AcDbDimension
  2
*D20
 10
108662.2679611038
 20
-168219.9585319753
 30
0.0
 11
108686.1836482354
 21
-168959.2940484659
 31
0.0
 70
   164
 71
     5
 42
799.9999999905702
  3
副本Standard
100
AcDbRadialDimension
 15
108688.1324669014
 25
-169019.5403147372
 35
0.0
 40
0.0
1001
ACAD
1000
DSTYLE
1002
{
1070
   288
1070
     1
1002
}
1001
ACAD_DSTYLE_DIMRADIAL_EXTENSION
1070
   387
1070
     1
1070
   388
1040
4.712388980384361
1070
   390
1040
4.810892487212496
  0
LINE
  5
D8823
330
1F
100
AcDbEntity
  8
虚线
 48
4.0
100
AcDbLine
 10
108032.7679610933
 20
-168784.9585319656
 30
0.0
 11
108418.7679611034
 21
-168784.9585319656
 31
0.0
  0
LINE
  5
D8824
330
1F
100
AcDbEntity
  8
虚线
 48
4.0
100
AcDbLine
 10
108421.7679611033
 20
-169002.9585319757
 30
0.0
 11
108421.7679611033
 21
-168787.9585319656
 31
0.0
  0
CIRCLE
  5
D8825
102
{ACAD_REACTORS
330
D8884
102
}
330
1F
100
AcDbEntity
  8
0
 48
5.0
100
AcDbCircle
 10
108421.7679611033
 20
-168784.9585319656
 30
0.0
 40
3.0
  0
CIRCLE
  5
D882E
102
{ACAD_REACTORS
330
D88F8
102
}
330
1F
100
AcDbEntity
  8
0
 48
5.0
100
AcDbCircle
 10
108421.7679611033
 20
-168612.7505424192
 30
0.0
 40
3.0
  0
CIRCLE
  5
D882F
330
1F
100
AcDbEntity
  8
0
 48
5.0
100
AcDbCircle
 10
108029.7679610933
 20
-168784.9585319656
 30
0.0
 40
3.0
  0
CIRCLE
  5
D8830
102
{ACAD_REACTORS
330
D88C4
102
}
330
1F
100
AcDbEntity
  8
0
 48
5.0
100
AcDbCircle
 10
108421.7679611033
 20
-169005.9585319757
 30
0.0
 40
3.0
  0
CIRCLE
  5
D8831
102
{ACAD_REACTORS
330
D889E
102
}
330
1F
100
AcDbEntity
  8
0
 48
5.0
100
AcDbCircle
 10
108813.7679611133
 20
-168784.9585319656
 30
0.0
 40
3.0
  0
LINE
  5
D8832
330
1F
100
AcDbEntity
  8
虚线
 48
4.0
100
AcDbLine
 10
108421.7679611034
 20
-168781.9585319656
 30
0.0
 11
108421.7679611033
 21
-168615.7505424192
 31
0.0
  0
LINE
  5
D8833
330
1F
100
AcDbEntity
  8
虚线
 48
4.0
100
AcDbLine
 10
108424.7679611034
 20
-168784.9585319656
 30
0.0
 11
108810.7679611133
 21
-168784.9585319656
 31
0.0
  0
DIMENSION
  5
D886B
102
{ACAD_XDICTIONARY
360
D8879
102
}
102
{ACAD_REACTORS
330
D8884
102
}
330
1F
100
AcDbEntity
  8
标注
 48
5.0
100
AcDbDimension
  2
*D21
 10
108421.7679611033
 20
-168822.2375039881
 30
0.0
 11
108225.7679610983
 21
-168822.2375039881
 31
0.0
 70
    32
 71
     5
 42
392.0000000100117
  3
副本Standard
100
AcDbAlignedDimension
 13
108029.7679610933
 23
-168784.9585319656
 33
0.0
 14
108421.7679611033
 24
-168784.9585319656
 34
0.0
100
AcDbRotatedDimension
  0
DIMENSION
  5
D8885
102
{ACAD_XDICTIONARY
360
D8893
102
}
102
{ACAD_REACTORS
330
D889E
102
}
330
1F
100
AcDbEntity
  8
标注
 48
5.0
100
AcDbDimension
  2
*D22
 10
108813.7679611133
 20
-168857.4822463105
 30
0.0
 11
108223.2957388761
 21
-168857.4822463105
 31
0.0
 70
   160
 71
     5
 42
784.0000000200086
  3
副本Standard
100
AcDbAlignedDimension
 13
108029.7679610933
 23
-168784.9585319656
 33
0.0
 14
108813.7679611133
 24
-168784.9585319656
 34
0.0
100
AcDbRotatedDimension
  0
DIMENSION
  5
D88A9
102
{ACAD_XDICTIONARY
360
D88B8
102
}
102
{ACAD_REACTORS
330
D88C4
102
}
330
1F
100
AcDbEntity
  8
标注
 48
5.0
100
AcDbDimension
  2
*D23
 10
108380.3984826155
 20
-169005.9585319757
 30
0.0
 11
108380.3984826155
 21
-168961.1807541979
 31
0.0
 70
   160
 71
     5
 42
17.99999998998828
  3
副本Standard
100
AcDbAlignedDimension
 13
108686.5215273585
 23
-169023.9585319657
 33
0.0
 14
108421.7679611033
 24
-169005.9585319757
 34
0.0
 50
90.0
100
AcDbRotatedDimension
  0
DIMENSION
  5
D88DF
102
{ACAD_XDICTIONARY
360
D88ED
102
}
102
{ACAD_REACTORS
330
D88F8
102
}
330
1F
100
AcDbEntity
  8
标注
 48
5.0
100
AcDbDimension
  2
*D24
 10
108503.496055386
 20
-168612.7505424192
 30
0.0
 11
108503.496055386
 21
-168894.7031833713
 31
0.0
 70
   160
 71
     5
 42
392.8820240917266
  3
副本Standard
100
AcDbAlignedDimension
 13
108421.7679611034
 23
-169005.632566511
 33
0.0
 14
108421.7679611033
 24
-168612.7505424192
 34
0.0
 50
90.0
100
AcDbRotatedDimension
  0
DIMENSION
  5
D8A2E
102
{ACAD_XDICTIONARY
360
D8A3D
102
}
102
{ACAD_REACTORS
330
D8A49
102
}
330
1F
100
AcDbEntity
  8
标注
 48
5.0
100
AcDbDimension
  2
*D25
 10
108011.7679611033
 20
-168745.6719563652
 30
0.0
 11
108074.5457388711
 21
-168745.6719563652
 31
0.0
 70
   160
 71
     5
 42
17.99999998998828
  3
副本Standard
100
AcDbAlignedDimension
 13
108029.7679610933
 23
-168784.9585319656
 33
0.0
 14
108011.7679611033
 24
-168784.9585319656
 34
0.0
100
AcDbRotatedDimension
  0
DIMENSION
  5
D8A55
102
{ACAD_XDICTIONARY
360
D8A5E
102
}
102
{ACAD_REACTORS
330
D8A64
102
}
330
1F
100
AcDbEntity
  8
标注
 48
5.0
100
AcDbDimension
  2
*D26
 10
107527.7679611033
 20
-168809.4585319658
 30
0.0
 11
108759.4804154953
 21
-168762.3991978194
 31
0.0
 70
   164
 71
     5
 42
1300.000000000044
  3
副本Standard
100
AcDbRadialDimension
 15
108826.8201733344
 25
-168759.8263861585
 35
0.0
 40
0.0
1001
ACAD
1000
DSTYLE
1002
{
1070
   288
1070
     1
1002
}
1001
ACAD_DSTYLE_DIMRADIAL_EXTENSION
1070
   387
1070
     1
1070
   388
1040
0.0000000000000672
1070
   390
1040
0.0968938897108645
  0
DIMENSION
  5
D8C21
330
1F
100
AcDbEntity
  8
标注
 48
5.0
100
AcDbDimension
  2
*D48
 10
108452.3024111254
 20
-168784.9585319656
 30
0.0
 11
108452.3024111254
 21
-168895.4585319707
 31
0.0
 70
    32
 71
     5
 42
221.0000000101281
  3
副本Standard
100
AcDbAlignedDimension
 13
108421.7679611033
 23
-169005.9585319757
 33
0.0
 14
108421.7679611033
 24
-168784.9585319656
 34
0.0
 50
90.0
100
AcDbRotatedDimension
  0
ENDSEC
  0
SECTION
  2
OBJECTS
  0
DICTIONARY
  5
C
330
0
100
AcDbDictionary
281
     1
  3
ACAD_2007HEADERVARS_RT
350
D8CBC
  3
ACAD_COLOR
350
6C
  3
ACAD_GROUP
350
D
  3
ACAD_LAYOUT
350
1A
  3
ACAD_MATERIAL
350
6B
  3
ACAD_MLEADERSTYLE
350
CEDBA
  3
ACAD_MLINESTYLE
350
17
  3
ACAD_PLOTSETTINGS
350
19
  3
ACAD_PLOTSTYLENAME
350
E
  3
ACAD_SCALELIST
350
CED98
  3
ACAD_TABLESTYLE
350
FAF
  3
ACAD_VISUALSTYLE
350
CED87
  3
AcadDim
350
100FD
  3
ACDB_RECOMPOSE_DATA
350
D0C4C
  3
AcDbVariableDictionary
350
59
  3
ASE_INDEX_DICTIONARY
350
C2668
  3
DWGPROPS
350
D8CBB
  3
lxx_dict
350
A9D16
  0
DICTIONARY
  5
AB
330
2
100
AcDbDictionary
280
     1
281
     1
  3
ACAD_LAYERFILTERS
360
D6FEB
  3
ACAD_LAYERSTATES
360
AC
  3
ACLYDICTIONARY
360
D6FEA
  0
DICTIONARY
  5
CF251
330
10
100
AcDbDictionary
280
     1
281
     1
  3
ADSK_XREC_LAYER_RECONCILED
360
CF252
  0
DICTIONARY
  5
CF259
330
9D
100
AcDbDictionary
280
     1
281
     1
  3
ADSK_XREC_LAYER_RECONCILED
360
CF25A
  0
DICTIONARY
  5
CF25B
330
9E
100
AcDbDictionary
280
     1
281
     1
  3
ADSK_XREC_LAYER_RECONCILED
360
CF25C
  0
DICTIONARY
  5
CF25D
330
16DF9
100
AcDbDictionary
280
     1
281
     1
  3
ADSK_XREC_LAYER_RECONCILED
360
CF25E
  0
DICTIONARY
  5
118B
330
1F
100
AcDbDictionary
280
     1
281
     1
  3
ACAD_SORTENTS
360
118C
  0
DICTIONARY
  5
D872D
330
D871F
100
AcDbDictionary
280
     1
281
     1
  3
ACAD_DIMASSOC
360
D8738
  0
DICTIONARY
  5
D8747
330
D8739
100
AcDbDictionary
280
     1
281
     1
  3
ACAD_DIMASSOC
360
D8752
  0
DICTIONARY
  5
D8779
330
D8770
100
AcDbDictionary
280
     1
281
     1
  3
ACAD_DIMASSOC
360
D877F
  0
DICTIONARY
  5
D8789
330
D8780
100
AcDbDictionary
280
     1
281
     1
  3
ACAD_DIMASSOC
360
D878F
  0
DICTIONARY
  5
D8879
330
D886B
100
AcDbDictionary
280
     1
281
     1
  3
ACAD_DIMASSOC
360
D8884
  0
DICTIONARY
  5
D8893
330
D8885
100
AcDbDictionary
280
     1
281
     1
  3
ACAD_DIMASSOC
360
D889E
  0
DICTIONARY
  5
D88B8
330
D88A9
100
AcDbDictionary
280
     1
281
     1
  3
ACAD_DIMASSOC
360
D88C4
  0
DICTIONARY
  5
D88ED
330
D88DF
100
AcDbDictionary
280
     1
281
     1
  3
ACAD_DIMASSOC
360
D88F8
  0
DICTIONARY
  5
D8A3D
330
D8A2E
100
AcDbDictionary
280
     1
281
     1
  3
ACAD_DIMASSOC
360
D8A49
  0
DICTIONARY
  5
D8A5E
330
D8A55
100
AcDbDictionary
280
     1
281
     1
  3
ACAD_DIMASSOC
360
D8A64
  0
DICTIONARY
  5
D8CBC
102
{ACAD_REACTORS
330
C
102
}
330
C
100
AcDbDictionary
281
     1
  3
DIMARCSYM
350
D8CBE
  3
DIMFXL
350
D8CBD
  3
DIMLTEX1
350
D8CC0
  3
DIMLTEX2
350
D8CC1
  3
DIMLTYPE
350
D8CBF
  0
DICTIONARY
  5
6C
102
{ACAD_REACTORS
330
C
102
}
330
C
100
AcDbDictionary
281
     1
  0
DICTIONARY
  5
D
102
{ACAD_REACTORS
330
C
102
}
330
C
100
AcDbDictionary
281
     1
  0
DICTIONARY
  5
1A
102
{ACAD_REACTORS
330
C
102
}
330
C
100
AcDbDictionary
281
     1
  3
Model
350
22
  3
布局1
350
74
  3
布局2
350
79
  0
DICTIONARY
  5
6B
102
{ACAD_REACTORS
330
C
102
}
330
C
100
AcDbDictionary
281
     1
  3
ByBlock
350
CED77
  3
ByLayer
350
CED6F
  3
Global
350
CED7F
  0
DICTIONARY
  5
CEDBA
102
{ACAD_REACTORS
330
C
102
}
330
C
100
AcDbDictionary
281
     1
  3
Standard
350
CEDBB
  0
DICTIONARY
  5
17
102
{ACAD_REACTORS
330
C
102
}
330
C
100
AcDbDictionary
281
     1
  3
Standard
350
18
  0
DICTIONARY
  5
19
102
{ACAD_REACTORS
330
C
102
}
330
C
100
AcDbDictionary
281
     1
  0
ACDBDICTIONARYWDFLT
  5
E
102
{ACAD_REACTORS
330
C
102
}
330
C
100
AcDbDictionary
281
     1
  3
Normal
350
F
100
AcDbDictionaryWithDefault
340
F
  0
DICTIONARY
  5
CED98
102
{ACAD_REACTORS
330
C
102
}
330
C
100
AcDbDictionary
281
     1
  3
A0
350
CED99
  3
A1
350
CED9A
  3
A2
350
CED9B
  3
A3
350
CED9C
  3
A4
350
CED9D
  3
A5
350
CED9E
  3
A6
350
CED9F
  3
A7
350
CEDA0
  3
A8
350
CEDA1
  3
A9
350
CEDA2
  3
B0
350
CEDA3
  3
B1
350
CEDA4
  3
B2
350
CEDA5
  3
B3
350
CEDA6
  3
B4
350
CEDA7
  3
B5
350
CEDA8
  3
B6
350
CEDA9
  3
B7
350
CEDAA
  3
B8
350
CEDAB
  3
B9
350
CEDAC
  3
C0
350
CEDAD
  3
C1
350
CEDAE
  3
C2
350
CEDAF
  3
C3
350
CEDB0
  3
C4
350
CEDB1
  3
C5
350
CEDB2
  3
C6
350
CEDB3
  3
C7
350
CEDB4
  3
C8
350
CEDB5
  3
C9
350
CEDB6
  3
D0
350
CEDB7
  3
D1
350
CEDB8
  3
D2
350
CEDB9
  0
DICTIONARY
  5
FAF
102
{ACAD_REACTORS
330
C
102
}
330
C
100
AcDbDictionary
281
     1
  3
Standard
350
FB0
  0
DICTIONARY
  5
CED87
102
{ACAD_REACTORS
330
C
102
}
330
C
100
AcDbDictionary
281
     1
  3
2dWireframe
350
CED8D
  3
3D Hidden
350
CED8F
  3
3dWireframe
350
CED8E
  3
Basic
350
CED8C
  3
Brighten
350
CED93
  3
ColorChange
350
CED97
  3
Conceptual
350
CED90
  3
Dim
350
CED92
  3
Facepattern
350
CED96
  3
Flat
350
CED88
  3
FlatWithEdges
350
CED89
  3
Gouraud
350
CED8A
  3
GouraudWithEdges
350
CED8B
  3
Linepattern
350
CED95
  3
Realistic
350
CED91
  3
Thicken
350
CED94
  0
XRECORD
  5
100FD
102
{ACAD_REACTORS
330
C
102
}
330
C
100
AcDbXrecord
280
     1
 90
   990106
  3

 60
     0
 61
     0
 62
     1
 63
     3
 64
     0
 65
     0
 66
     0
 67
     3
 68
     1
 69
     0
 70
     0
 71
     0
 72
     0
 40
0.0
170
     0
  0
XRECORD
  5
D0C4C
102
{ACAD_REACTORS
330
C
102
}
330
C
100
AcDbXrecord
280
     1
 90
        1
330
FB0
  0
DICTIONARY
  5
59
102
{ACAD_REACTORS
330
C
102
}
330
C
100
AcDbDictionary
281
     1
  3
CANNOSCALE
350
D0C4F
  3
CMLEADERSTYLE
350
D0C4D
  3
CTABLESTYLE
350
100D
  3
DIMASSOC
350
5A
  3
HIDETEXT
350
5E
  3
INDEXCTL
350
D8C8E
  3
LIGHTINGUNITS
350
D0C50
  3
MSLTSCALE
350
D0C4E
  3
SORTENTS
350
D8C8D
  0
DICTIONARY
  5
C2668
102
{ACAD_REACTORS
330
C
102
}
330
C
100
AcDbDictionary
281
     1
  3
ASEBlockHierarchyIndexRecord
350
C2669
1001
DCO15
1040
1779131318.625
  0
XRECORD
  5
D8CBB
102
{ACAD_REACTORS
330
C
102
}
330
C
100
AcDbXrecord
280
     1
  1
DWGPROPS COOKIE
  2

  3

  4

  6

  7

  8
Administrator
  9

300
=
301
=
302
=
303
=
304
=
305
=
306
=
307
=
308
=
309
=
 40
9.006106574074074
 41
2454355.343801713
 42
2457938.596395347
  1

 90
        0
  0
DICTIONARY
  5
A9D16
102
{ACAD_REACTORS
330
C
102
}
330
C
100
AcDbDictionary
281
     1
  3
lxx_dimth
350
A9D17
  0
DICTIONARY
  5
D6FEB
102
{ACAD_REACTORS
330
AB
102
}
330
AB
100
AcDbDictionary
281
     1
  0
DICTIONARY
  5
AC
102
{ACAD_REACTORS
330
AB
102
}
330
AB
100
AcDbDictionary
281
     1
  0
DICTIONARY
  5
D6FEA
102
{ACAD_REACTORS
330
AB
102
}
330
AB
100
AcDbDictionary
281
     1
1001
ACAD
1000
<All
  0
XRECORD
  5
CF252
102
{ACAD_REACTORS
330
CF251
102
}
330
CF251
100
AcDbXrecord
280
     1
290
     1
  0
XRECORD
  5
CF25A
102
{ACAD_REACTORS
330
CF259
102
}
330
CF259
100
AcDbXrecord
280
     1
290
     1
  0
XRECORD
  5
CF25C
102
{ACAD_REACTORS
330
CF25B
102
}
330
CF25B
100
AcDbXrecord
280
     1
290
     1
  0
XRECORD
  5
CF25E
102
{ACAD_REACTORS
330
CF25D
102
}
330
CF25D
100
AcDbXrecord
280
     1
290
     1
  0
SORTENTSTABLE
  5
118C
102
{ACAD_REACTORS
330
118B
102
}
330
118B
100
AcDbSortentsTable
330
1F
331
D882F
  5
D8831
331
D871F
  5
D871F
331
D8830
  5
D8832
331
D8510
  5
D86E6
331
D8831
  5
D8833
331
D8770
  5
D8770
331
D8780
  5
D8780
331
D86C3
  5
D86D6
331
D8501
  5
D86D7
331
D8509
  5
D86DF
331
D8511
  5
D86E7
331
D8832
  5
D882E
331
D8739
  5
D8739
331
D8823
  5
D8823
331
D8502
  5
D86D8
331
D8512
  5
D86E8
331
D8833
  5
D8824
331
D8824
  5
D8825
331
D8513
  5
D86E9
331
D8753
  5
D8753
331
D8825
  5
D882F
331
D8514
  5
D86EA
331
D8505
  5
D86DB
331
D850D
  5
D86E3
331
D8515
  5
D86EB
331
D882E
  5
D8830
331
D86DF
  5
D850E
331
D8506
  5
D86DC
331
D8516
  5
D86EC
  0
DIMASSOC
  5
D8738
102
{ACAD_REACTORS
330
D872D
102
}
330
D872D
100
AcDbDimAssoc
330
D871F
 90
        3
 70
     0
 71
     0
  1
AcDbOsnapPointRef
 72
     1
331
D86DF
 73
     2
 91
       10
 40
1.0
 10
0.0
 20
0.0
 30
2.000000000000000E+50
 75
     0
  1
AcDbOsnapPointRef
 72
     8
331
D86DF
 73
     2
 91
        3
 40
0.0
 10
0.0
 20
0.0
 30
0.0
 75
     1
  1
AcDbOsnapPointRef
 72
     1
331
D86DF
 73
     2
 91
       10
 40
1.0
 10
0.0
 20
0.0
 30
2.000000000000000E+50
 75
     0
  0
DIMASSOC
  5
D8752
102
{ACAD_REACTORS
330
D8747
102
}
330
D8747
100
AcDbDimAssoc
330
D8739
 90
        3
 70
     0
 71
     0
  1
AcDbOsnapPointRef
 72
     1
331
D86C3
 73
     2
 91
       11
 40
1.0
 10
0.0
 20
0.0
 30
2.000000000000000E+50
 75
     0
  1
AcDbOsnapPointRef
 72
     8
331
D86C3
 73
     2
 91
        3
 40
1.570796326794515
 10
0.0
 20
0.0
 30
0.0
 75
     1
  1
AcDbOsnapPointRef
 72
     1
331
D86C3
 73
     2
 91
       11
 40
1.0
 10
0.0
 20
0.0
 30
2.000000000000000E+50
 75
     0
  0
DIMASSOC
  5
D877F
102
{ACAD_REACTORS
330
D8779
102
}
330
D8779
100
AcDbDimAssoc
330
D8770
 90
        2
 70
     0
 71
     0
  1
AcDbOsnapPointRef
 72
     3
331
D86DF
 73
     2
 91
        2
 40
0.0
 10
0.0
 20
0.0
 30
0.0
 75
     0
  0
DIMASSOC
  5
D878F
102
{ACAD_REACTORS
330
D8789
102
}
330
D8789
100
AcDbDimAssoc
330
D8780
 90
        2
 70
     0
 71
     0
  1
AcDbOsnapPointRef
 72
     3
331
D86DF
 73
     2
 91
       11
 40
0.0
 10
0.0
 20
0.0
 30
0.0
 75
     0
  0
DIMASSOC
  5
D8884
102
{ACAD_REACTORS
330
D8879
102
}
330
D8879
100
AcDbDimAssoc
330
D886B
 90
        2
 70
     0
 71
     0
  1
AcDbOsnapPointRef
 72
     3
331
D8825
 73
     2
 91
        0
 40
0.0
 10
0.0
 20
0.0
 30
0.0
 75
     0
  0
DIMASSOC
  5
D889E
102
{ACAD_REACTORS
330
D8893
102
}
330
D8893
100
AcDbDimAssoc
330
D8885
 90
        2
 70
     0
 71
     0
  1
AcDbOsnapPointRef
 72
     3
331
D8831
 73
     2
 91
        0
 40
0.0
 10
0.0
 20
0.0
 30
0.0
 75
     0
  0
DIMASSOC
  5
D88C4
102
{ACAD_REACTORS
330
D88B8
102
}
330
D88B8
100
AcDbDimAssoc
330
D88A9
 90
        3
 70
     0
 71
     0
  1
AcDbOsnapPointRef
 72
     8
331
D86C3
 73
     2
 91
       11
 40
0.5599268069530861
 10
0.0
 20
0.0
 30
0.0
 75
     1
  1
AcDbOsnapPointRef
 72
     0
 40
0.0
 10
108686.5215273585
 20
-167704.5842740319
 30
0.0
 75
     0
  1
AcDbOsnapPointRef
 72
     3
331
D8830
 73
     2
 91
        0
 40
0.0
 10
0.0
 20
0.0
 30
0.0
 75
     0
  0
DIMASSOC
  5
D88F8
102
{ACAD_REACTORS
330
D88ED
102
}
330
D88ED
100
AcDbDimAssoc
330
D88DF
 90
        2
 70
     0
 71
     0
  1
AcDbOsnapPointRef
 72
     3
331
D882E
 73
     2
 91
        0
 40
0.0
 10
0.0
 20
0.0
 30
0.0
 75
     0
  0
DIMASSOC
  5
D8A49
102
{ACAD_REACTORS
330
D8A3D
102
}
330
D8A3D
100
AcDbDimAssoc
330
D8A2E
 90
        2
 70
     0
 71
     0
  1
AcDbOsnapPointRef
 72
     8
331
D86C3
 73
     2
 91
        9
 40
0.3353319043802962
 10
0.0
 20
0.0
 30
0.0
 75
     1
  1
AcDbOsnapPointRef
 72
     0
 40
0.0
 10
108029.7679610933
 20
-168784.9585319656
 30
0.0
 75
     0
  0
DIMASSOC
  5
D8A64
102
{ACAD_REACTORS
330
D8A5E
102
}
330
D8A5E
100
AcDbDimAssoc
330
D8A55
 90
        2
 70
     0
 71
     0
  1
AcDbOsnapPointRef
 72
     3
331
D86DF
 73
     2
 91
       14
 40
0.0
 10
0.0
 20
0.0
 30
0.0
 75
     0
  0
XRECORD
  5
D8CBE
102
{ACAD_REACTORS
330
D8CBC
102
}
330
D8CBC
100
AcDbXrecord
280
     1
 70
     1
  0
XRECORD
  5
D8CBD
102
{ACAD_REACTORS
330
D8CBC
102
}
330
D8CBC
100
AcDbXrecord
280
     1
 40
1.25
  0
XRECORD
  5
D8CC0
102
{ACAD_REACTORS
330
D8CBC
102
}
330
D8CBC
100
AcDbXrecord
280
     1
340
14
  0
XRECORD
  5
D8CC1
102
{ACAD_REACTORS
330
D8CBC
102
}
330
D8CBC
100
AcDbXrecord
280
     1
340
14
  0
XRECORD
  5
D8CBF
102
{ACAD_REACTORS
330
D8CBC
102
}
330
D8CBC
100
AcDbXrecord
280
     1
340
14
  0
LAYOUT
  5
22
102
{ACAD_XDICTIONARY
360
D8CC2
102
}
102
{ACAD_REACTORS
330
1A
102
}
330
1A
100
AcDbPlotSettings
  1

  2
\\PC-201204061032\Canon LBP2900
  4
A4
  6

 40
5.873749732971191
 41
6.805091857910156
 42
5.873748779296875
 43
4.857757568359375
 44
209.9733276367186
 45
296.9259948730469
 46
-5.889999999999998
 47
-5.87
 48
85766.02374884076
 49
-163980.7810393121
140
88736.02374884079
141
-161880.7810393122
142
1.0
143
10.0
 70
 11940
 72
     1
 73
     1
 74
     4
  7
monochrome.ctb
 75
     0
147
0.1
148
-85766.02374884076
149
163980.7810393121
100
AcDbLayout
  1
Model
 70
     1
 71
     0
 10
0.0
 20
0.0
 11
12.0
 21
9.0
 12
0.0
 22
0.0
 32
0.0
 14
0.0
 24
0.0
 34
0.0
 15
0.0
 25
0.0
 35
0.0
146
0.0
 13
0.0
 23
0.0
 33
0.0
 16
1.0
 26
0.0
 36
0.0
 17
0.0
 27
1.0
 37
0.0
 76
     0
330
1F
331
CED6D
  0
LAYOUT
  5
74
102
{ACAD_XDICTIONARY
360
D8CC4
102
}
102
{ACAD_REACTORS
330
1A
102
}
330
1A
100
AcDbPlotSettings
  1

  2
\\ADSCCNDC1\hq601xrx1
  4

  6

 40
0.0
 41
0.0
 42
0.0
 43
0.0
 44
0.0
 45
0.0
 46
0.0
 47
0.0
 48
0.0
 49
0.0
140
0.0
141
0.0
142
1.0
143
1.0
 70
   688
 72
     0
 73
     0
 74
     5
  7
monochrome.ctb
 75
    16
147
1.0
148
0.0
149
0.0
100
AcDbLayout
  1
布局1
 70
     1
 71
     1
 10
0.0
 20
0.0
 11
12.0
 21
9.0
 12
0.0
 22
0.0
 32
0.0
 14
0.0
 24
0.0
 34
0.0
 15
0.0
 25
0.0
 35
0.0
146
0.0
 13
0.0
 23
0.0
 33
0.0
 16
1.0
 26
0.0
 36
0.0
 17
0.0
 27
1.0
 37
0.0
 76
     0
330
73
  0
LAYOUT
  5
79
102
{ACAD_XDICTIONARY
360
D8CC6
102
}
102
{ACAD_REACTORS
330
1A
102
}
330
1A
100
AcDbPlotSettings
  1

  2
\\ADSCCNDC1\hq601xrx1
  4

  6

 40
0.0
 41
0.0
 42
0.0
 43
0.0
 44
0.0
 45
0.0
 46
0.0
 47
0.0
 48
0.0
 49
0.0
140
0.0
141
0.0
142
1.0
143
1.0
 70
   688
 72
     0
 73
     0
 74
     5
  7
monochrome.ctb
 75
    16
147
1.0
148
0.0
149
0.0
100
AcDbLayout
  1
布局2
 70
     1
 71
     2
 10
0.0
 20
0.0
 11
12.0
 21
9.0
 12
0.0
 22
0.0
 32
0.0
 14
0.0
 24
0.0
 34
0.0
 15
0.0
 25
0.0
 35
0.0
146
0.0
 13
0.0
 23
0.0
 33
0.0
 16
1.0
 26
0.0
 36
0.0
 17
0.0
 27
1.0
 37
0.0
 76
     0
330
78
  0
MATERIAL
  5
CED77
102
{ACAD_XDICTIONARY
360
CED78
102
}
102
{ACAD_REACTORS
330
6B
102
}
330
6B
100
AcDbMaterial
  1
ByBlock
 72
     0
 43
0.0208333333333333
 43
0.0
 43
0.0
 43
0.0
 43
0.0
 43
0.0208333333333333
 43
0.0
 43
0.0
 43
0.0
 43
0.0
 43
1.0
 43
0.0
 43
0.0
 43
0.0
 43
0.0
 43
1.0
 77
     0
 47
0.0208333333333333
 47
0.0
 47
0.0
 47
0.0
 47
0.0
 47
0.0208333333333333
 47
0.0
 47
0.0
 47
0.0
 47
0.0
 47
1.0
 47
0.0
 47
0.0
 47
0.0
 47
0.0
 47
1.0
171
     0
 49
0.0208333333333333
 49
0.0
 49
0.0
 49
0.0
 49
0.0
 49
0.0208333333333333
 49
0.0
 49
0.0
 49
0.0
 49
0.0
 49
1.0
 49
0.0
 49
0.0
 49
0.0
 49
0.0
 49
1.0
175
     0
142
0.0208333333333333
142
0.0
142
0.0
142
0.0
142
0.0
142
0.0208333333333333
142
0.0
142
0.0
142
0.0
142
0.0
142
1.0
142
0.0
142
0.0
142
0.0
142
0.0
142
1.0
179
     0
144
0.0208333333333333
144
0.0
144
0.0
144
0.0
144
0.0
144
0.0208333333333333
144
0.0
144
0.0
144
0.0
144
0.0
144
1.0
144
0.0
144
0.0
144
0.0
144
0.0
144
1.0
147
0.0208333333333333
147
0.0
147
0.0
147
0.0
147
0.0
147
0.0208333333333333
147
0.0
147
0.0
147
0.0
147
0.0
147
1.0
147
0.0
147
0.0
147
0.0
147
0.0
147
1.0
  0
MATERIAL
  5
CED6F
102
{ACAD_XDICTIONARY
360
CED70
102
}
102
{ACAD_REACTORS
330
6B
102
}
330
6B
100
AcDbMaterial
  1
ByLayer
 72
     0
 43
0.0208333333333333
 43
0.0
 43
0.0
 43
0.0
 43
0.0
 43
0.0208333333333333
 43
0.0
 43
0.0
 43
0.0
 43
0.0
 43
1.0
 43
0.0
 43
0.0
 43
0.0
 43
0.0
 43
1.0
 77
     0
 47
0.0208333333333333
 47
0.0
 47
0.0
 47
0.0
 47
0.0
 47
0.0208333333333333
 47
0.0
 47
0.0
 47
0.0
 47
0.0
 47
1.0
 47
0.0
 47
0.0
 47
0.0
 47
0.0
 47
1.0
171
     0
 49
0.0208333333333333
 49
0.0
 49
0.0
 49
0.0
 49
0.0
 49
0.0208333333333333
 49
0.0
 49
0.0
 49
0.0
 49
0.0
 49
1.0
 49
0.0
 49
0.0
 49
0.0
 49
0.0
 49
1.0
175
     0
142
0.0208333333333333
142
0.0
142
0.0
142
0.0
142
0.0
142
0.0208333333333333
142
0.0
142
0.0
142
0.0
142
0.0
142
1.0
142
0.0
142
0.0
142
0.0
142
0.0
142
1.0
179
     0
144
0.0208333333333333
144
0.0
144
0.0
144
0.0
144
0.0
144
0.0208333333333333
144
0.0
144
0.0
144
0.0
144
0.0
144
1.0
144
0.0
144
0.0
144
0.0
144
0.0
144
1.0
147
0.0208333333333333
147
0.0
147
0.0
147
0.0
147
0.0
147
0.0208333333333333
147
0.0
147
0.0
147
0.0
147
0.0
147
1.0
147
0.0
147
0.0
147
0.0
147
0.0
147
1.0
  0
MATERIAL
  5
CED7F
102
{ACAD_XDICTIONARY
360
CED80
102
}
102
{ACAD_REACTORS
330
6B
102
}
330
6B
100
AcDbMaterial
  1
Global
 72
     0
 43
0.0208333333333333
 43
0.0
 43
0.0
 43
0.0
 43
0.0
 43
0.0208333333333333
 43
0.0
 43
0.0
 43
0.0
 43
0.0
 43
1.0
 43
0.0
 43
0.0
 43
0.0
 43
0.0
 43
1.0
 77
     0
 47
0.0208333333333333
 47
0.0
 47
0.0
 47
0.0
 47
0.0
 47
0.0208333333333333
 47
0.0
 47
0.0
 47
0.0
 47
0.0
 47
1.0
 47
0.0
 47
0.0
 47
0.0
 47
0.0
 47
1.0
171
     0
 49
0.0208333333333333
 49
0.0
 49
0.0
 49
0.0
 49
0.0
 49
0.0208333333333333
 49
0.0
 49
0.0
 49
0.0
 49
0.0
 49
1.0
 49
0.0
 49
0.0
 49
0.0
 49
0.0
 49
1.0
175
     0
142
0.0208333333333333
142
0.0
142
0.0
142
0.0
142
0.0
142
0.0208333333333333
142
0.0
142
0.0
142
0.0
142
0.0
142
1.0
142
0.0
142
0.0
142
0.0
142
0.0
142
1.0
179
     0
144
0.0208333333333333
144
0.0
144
0.0
144
0.0
144
0.0
144
0.0208333333333333
144
0.0
144
0.0
144
0.0
144
0.0
144
1.0
144
0.0
144
0.0
144
0.0
144
0.0
144
1.0
147
0.0208333333333333
147
0.0
147
0.0
147
0.0
147
0.0
147
0.0208333333333333
147
0.0
147
0.0
147
0.0
147
0.0
147
1.0
147
0.0
147
0.0
147
0.0
147
0.0
147
1.0
  0
MLEADERSTYLE
  5
CEDBB
102
{ACAD_REACTORS
330
CEDBA
102
}
330
CEDBA
100
AcDbMLeaderStyle
170
     2
171
     1
172
     0
 90
        2
 40
0.0
 41
0.0
173
     1
 91
-1056964608
340
14
 92
       -2
290
     1
 42
0.09
291
     1
 43
0.36
  3
Standard
 44
0.18
300

342
11
174
     1
178
     6
175
     1
176
     0
 93
-1056964608
 45
0.18
292
     0
297
     0
 46
0.18
 94
-1056964608
 47
1.0
 49
1.0
140
1.0
293
     1
141
0.0
294
     1
177
     0
142
1.0
295
     0
296
     0
143
0.125
1001
ACAD_MLEADERVER
1070
     2
  0
MLINESTYLE
  5
18
102
{ACAD_REACTORS
330
17
102
}
330
17
100
AcDbMlineStyle
  2
STANDARD
 70
     0
  3

 62
   256
 51
90.0
 52
90.0
 71
     2
 49
0.5
 62
   256
  6
BYLAYER
 49
-0.5
 62
   256
  6
BYLAYER
  0
ACDBPLACEHOLDER
  5
F
102
{ACAD_REACTORS
330
E
102
}
330
E
  0
SCALE
  5
CED99
102
{ACAD_REACTORS
330
CED98
102
}
330
CED98
100
AcDbScale
 70
     0
300
1:1
140
1.0
141
1.0
290
     1
  0
SCALE
  5
CED9A
102
{ACAD_REACTORS
330
CED98
102
}
330
CED98
100
AcDbScale
 70
     0
300
1:2
140
1.0
141
2.0
290
     0
  0
SCALE
  5
CED9B
102
{ACAD_REACTORS
330
CED98
102
}
330
CED98
100
AcDbScale
 70
     0
300
1:4
140
1.0
141
4.0
290
     0
  0
SCALE
  5
CED9C
102
{ACAD_REACTORS
330
CED98
102
}
330
CED98
100
AcDbScale
 70
     0
300
1:5
140
1.0
141
5.0
290
     0
  0
SCALE
  5
CED9D
102
{ACAD_REACTORS
330
CED98
102
}
330
CED98
100
AcDbScale
 70
     0
300
1:8
140
1.0
141
8.0
290
     0
  0
SCALE
  5
CED9E
102
{ACAD_REACTORS
330
CED98
102
}
330
CED98
100
AcDbScale
 70
     0
300
1:10
140
1.0
141
10.0
290
     0
  0
SCALE
  5
CED9F
102
{ACAD_REACTORS
330
CED98
102
}
330
CED98
100
AcDbScale
 70
     0
300
1:16
140
1.0
141
16.0
290
     0
  0
SCALE
  5
CEDA0
102
{ACAD_REACTORS
330
CED98
102
}
330
CED98
100
AcDbScale
 70
     0
300
1:20
140
1.0
141
20.0
290
     0
  0
SCALE
  5
CEDA1
102
{ACAD_REACTORS
330
CED98
102
}
330
CED98
100
AcDbScale
 70
     0
300
1:30
140
1.0
141
30.0
290
     0
  0
SCALE
  5
CEDA2
102
{ACAD_REACTORS
330
CED98
102
}
330
CED98
100
AcDbScale
 70
     0
300
1:40
140
1.0
141
40.0
290
     0
  0
SCALE
  5
CEDA3
102
{ACAD_REACTORS
330
CED98
102
}
330
CED98
100
AcDbScale
 70
     0
300
1:50
140
1.0
141
50.0
290
     0
  0
SCALE
  5
CEDA4
102
{ACAD_REACTORS
330
CED98
102
}
330
CED98
100
AcDbScale
 70
     0
300
1:100
140
1.0
141
100.0
290
     0
  0
SCALE
  5
CEDA5
102
{ACAD_REACTORS
330
CED98
102
}
330
CED98
100
AcDbScale
 70
     0
300
2:1
140
2.0
141
1.0
290
     0
  0
SCALE
  5
CEDA6
102
{ACAD_REACTORS
330
CED98
102
}
330
CED98
100
AcDbScale
 70
     0
300
4:1
140
4.0
141
1.0
290
     0
  0
SCALE
  5
CEDA7
102
{ACAD_REACTORS
330
CED98
102
}
330
CED98
100
AcDbScale
 70
     0
300
8:1
140
8.0
141
1.0
290
     0
  0
SCALE
  5
CEDA8
102
{ACAD_REACTORS
330
CED98
102
}
330
CED98
100
AcDbScale
 70
     0
300
10:1
140
10.0
141
1.0
290
     0
  0
SCALE
  5
CEDA9
102
{ACAD_REACTORS
330
CED98
102
}
330
CED98
100
AcDbScale
 70
     0
300
100:1
140
100.0
141
1.0
290
     0
  0
SCALE
  5
CEDAA
102
{ACAD_REACTORS
330
CED98
102
}
330
CED98
100
AcDbScale
 70
     0
300
1/128" = 1'-0"
140
0.0078125
141
12.0
290
     0
  0
SCALE
  5
CEDAB
102
{ACAD_REACTORS
330
CED98
102
}
330
CED98
100
AcDbScale
 70
     0
300
1/64" = 1'-0"
140
0.015625
141
12.0
290
     0
  0
SCALE
  5
CEDAC
102
{ACAD_REACTORS
330
CED98
102
}
330
CED98
100
AcDbScale
 70
     0
300
1/32" = 1'-0"
140
0.03125
141
12.0
290
     0
  0
SCALE
  5
CEDAD
102
{ACAD_REACTORS
330
CED98
102
}
330
CED98
100
AcDbScale
 70
     0
300
1/16" = 1'-0"
140
0.0625
141
12.0
290
     0
  0
SCALE
  5
CEDAE
102
{ACAD_REACTORS
330
CED98
102
}
330
CED98
100
AcDbScale
 70
     0
300
3/32" = 1'-0"
140
0.09375
141
12.0
290
     0
  0
SCALE
  5
CEDAF
102
{ACAD_REACTORS
330
CED98
102
}
330
CED98
100
AcDbScale
 70
     0
300
1/8" = 1'-0"
140
0.125
141
12.0
290
     0
  0
SCALE
  5
CEDB0
102
{ACAD_REACTORS
330
CED98
102
}
330
CED98
100
AcDbScale
 70
     0
300
3/16" = 1'-0"
140
0.1875
141
12.0
290
     0
  0
SCALE
  5
CEDB1
102
{ACAD_REACTORS
330
CED98
102
}
330
CED98
100
AcDbScale
 70
     0
300
1/4" = 1'-0"
140
0.25
141
12.0
290
     0
  0
SCALE
  5
CEDB2
102
{ACAD_REACTORS
330
CED98
102
}
330
CED98
100
AcDbScale
 70
     0
300
3/8" = 1'-0"
140
0.375
141
12.0
290
     0
  0
SCALE
  5
CEDB3
102
{ACAD_REACTORS
330
CED98
102
}
330
CED98
100
AcDbScale
 70
     0
300
1/2" = 1'-0"
140
0.5
141
12.0
290
     0
  0
SCALE
  5
CEDB4
102
{ACAD_REACTORS
330
CED98
102
}
330
CED98
100
AcDbScale
 70
     0
300
3/4" = 1'-0"
140
0.75
141
12.0
290
     0
  0
SCALE
  5
CEDB5
102
{ACAD_REACTORS
330
CED98
102
}
330
CED98
100
AcDbScale
 70
     0
300
1" = 1'-0"
140
1.0
141
12.0
290
     0
  0
SCALE
  5
CEDB6
102
{ACAD_REACTORS
330
CED98
102
}
330
CED98
100
AcDbScale
 70
     0
300
1-1/2" = 1'-0"
140
1.5
141
12.0
290
     0
  0
SCALE
  5
CEDB7
102
{ACAD_REACTORS
330
CED98
102
}
330
CED98
100
AcDbScale
 70
     0
300
3" = 1'-0"
140
3.0
141
12.0
290
     0
  0
SCALE
  5
CEDB8
102
{ACAD_REACTORS
330
CED98
102
}
330
CED98
100
AcDbScale
 70
     0
300
6" = 1'-0"
140
6.0
141
12.0
290
     0
  0
SCALE
  5
CEDB9
102
{ACAD_REACTORS
330
CED98
102
}
330
CED98
100
AcDbScale
 70
     0
300
1'-0" = 1'-0"
140
12.0
141
12.0
290
     0
  0
TABLESTYLE
  5
FB0
102
{ACAD_XDICTIONARY
360
D0C45
102
}
102
{ACAD_REACTORS
330
FAF
102
}
330
FAF
100
AcDbTableStyle
  3
Standard
 70
     0
 71
     0
 40
0.06
 41
0.06
280
     0
281
     0
  7
Standard
140
0.18
170
     2
 62
     0
 63
     7
283
     0
274
    -2
284
     1
 64
     0
275
    -2
285
     1
 65
     0
276
    -2
286
     1
 66
     0
277
    -2
287
     1
 67
     0
278
    -2
288
     1
 68
     0
279
    -2
289
     1
 69
     0
  7
Standard
140
0.25
170
     5
 62
     0
 63
     7
283
     0
274
    -2
284
     1
 64
     0
275
    -2
285
     1
 65
     0
276
    -2
286
     1
 66
     0
277
    -2
287
     1
 67
     0
278
    -2
288
     1
 68
     0
279
    -2
289
     1
 69
     0
  7
Standard
140
0.18
170
     5
 62
     0
 63
     7
283
     0
274
    -2
284
     1
 64
     0
275
    -2
285
     1
 65
     0
276
    -2
286
     1
 66
     0
277
    -2
287
     1
 67
     0
278
    -2
288
     1
 68
     0
279
    -2
289
     1
 69
     0
  0
VISUALSTYLE
  5
CED8D
102
{ACAD_REACTORS
330
CED87
102
}
330
CED87
100
AcDbVisualStyle
  2
2dWireframe
 70
     4
 71
     0
 72
     2
 73
     0
 90
        0
 40
-0.6
 41
-30.0
 62
     5
 63
     7
 74
     1
 91
        4
 64
     7
 65
   257
 75
     1
175
     1
 42
1.0
 92
        0
 66
   257
 43
1.0
 76
     1
 77
     6
 78
     2
 67
     7
 79
     5
170
     0
171
     0
290
     0
174
     0
 93
        1
 44
0.0
173
     0
291
     0
 45
0.0
1001
ACAD
1000
AcDbSavedByObjectVersion
1070
     0
1000
AcDbSavedByObjectVersion
1070
     0
  0
VISUALSTYLE
  5
CED8F
102
{ACAD_REACTORS
330
CED87
102
}
330
CED87
100
AcDbVisualStyle
  2
3D Hidden
 70
     6
 71
     1
 72
     2
 73
     2
 90
        0
 40
-0.6
 41
-30.0
 62
     5
 63
     7
 74
     2
 91
        2
 64
     7
 65
   257
 75
     2
175
     1
 42
40.0
 92
        0
 66
   257
 43
1.0
 76
     1
 77
     6
 78
     2
 67
     7
 79
     3
170
     0
171
     0
290
     0
174
     0
 93
        1
 44
0.0
173
     0
291
     0
 45
0.0
1001
ACAD
1000
AcDbSavedByObjectVersion
1070
     0
1000
AcDbSavedByObjectVersion
1070
     0
  0
VISUALSTYLE
  5
CED8E
102
{ACAD_REACTORS
330
CED87
102
}
330
CED87
100
AcDbVisualStyle
  2
3dWireframe
 70
     5
 71
     0
 72
     2
 73
     0
 90
        0
 40
-0.6
 41
-30.0
 62
     5
 63
     7
 74
     1
 91
        4
 64
     7
 65
   257
 75
     1
175
     1
 42
1.0
 92
        0
 66
   257
 43
1.0
 76
     1
 77
     6
 78
     2
 67
     7
 79
     5
170
     0
171
     0
290
     0
174
     0
 93
        1
 44
0.0
173
     0
291
     0
 45
0.0
1001
ACAD
1000
AcDbSavedByObjectVersion
1070
     0
1000
AcDbSavedByObjectVersion
1070
     0
  0
VISUALSTYLE
  5
CED8C
102
{ACAD_REACTORS
330
CED87
102
}
330
CED87
100
AcDbVisualStyle
  2
Basic
 70
     7
 71
     1
 72
     0
 73
     1
 90
        0
 40
-0.6
 41
-30.0
 62
     5
 63
     7
 74
     0
 91
        4
 64
     7
 65
   257
 75
     1
175
     1
 42
1.0
 92
        8
 66
     7
 43
1.0
 76
     1
 77
     6
 78
     2
 67
     7
 79
     5
170
     0
171
     0
290
     0
174
     0
 93
        1
 44
0.0
173
     0
291
     1
 45
0.0
1001
ACAD
1000
AcDbSavedByObjectVersion
1070
     0
1000
AcDbSavedByObjectVersion
1070
     0
  0
VISUALSTYLE
  5
CED93
102
{ACAD_REACTORS
330
CED87
102
}
330
CED87
100
AcDbVisualStyle
  2
Brighten
 70
    12
 71
     2
 72
     2
 73
     0
 90
        0
 40
-0.6
 41
-30.0
 62
     5
 63
     7
 74
     1
 91
        4
 64
     7
 65
   257
 75
     1
175
     1
 42
1.0
 92
        8
 66
     7
 43
1.0
 76
     1
 77
     6
 78
     2
 67
     7
 79
     5
170
     0
171
     0
290
     0
174
     0
 93
        1
 44
50.0
173
     0
291
     1
 45
0.0
1001
ACAD
1000
AcDbSavedByObjectVersion
1070
     0
1000
AcDbSavedByObjectVersion
1070
     0
  0
VISUALSTYLE
  5
CED97
102
{ACAD_REACTORS
330
CED87
102
}
330
CED87
100
AcDbVisualStyle
  2
ColorChange
 70
    16
 71
     2
 72
     2
 73
     3
 90
        0
 40
-0.6
 41
-30.0
 62
     5
 63
     8
 74
     1
 91
        4
 64
     7
 65
   257
 75
     1
175
     1
 42
1.0
 92
        8
 66
     8
 43
1.0
 76
     1
 77
     6
 78
     2
 67
     7
 79
     5
170
     0
171
     0
290
     0
174
     0
 93
        1
 44
0.0
173
     0
291
     1
 45
0.0
1001
ACAD
1000
AcDbSavedByObjectVersion
1070
     0
1000
AcDbSavedByObjectVersion
1070
     0
  0
VISUALSTYLE
  5
CED90
102
{ACAD_REACTORS
330
CED87
102
}
330
CED87
100
AcDbVisualStyle
  2
Conceptual
 70
     9
 71
     3
 72
     2
 73
     0
 90
        0
 40
-0.6
 41
-30.0
 62
     5
 63
     7
 74
     2
 91
        2
 64
     7
 65
   257
 75
     1
175
     1
 42
40.0
 92
        8
 66
     7
 43
1.0
 76
     1
 77
     6
 78
     2
 67
     7
 79
     3
170
     0
171
     0
290
     0
174
     0
 93
        1
 44
0.0
173
     0
291
     0
 45
0.0
1001
ACAD
1000
AcDbSavedByObjectVersion
1070
     0
1000
AcDbSavedByObjectVersion
1070
     0
  0
VISUALSTYLE
  5
CED92
102
{ACAD_REACTORS
330
CED87
102
}
330
CED87
100
AcDbVisualStyle
  2
Dim
 70
    11
 71
     2
 72
     2
 73
     0
 90
        0
 40
-0.6
 41
-30.0
 62
     5
 63
     7
 74
     1
 91
        4
 64
     7
 65
   257
 75
     1
175
     1
 42
1.0
 92
        8
 66
     7
 43
1.0
 76
     1
 77
     6
 78
     2
 67
     7
 79
     5
170
     0
171
     0
290
     0
174
     0
 93
        1
 44
-50.0
173
     0
291
     1
 45
0.0
1001
ACAD
1000
AcDbSavedByObjectVersion
1070
     0
1000
AcDbSavedByObjectVersion
1070
     0
  0
VISUALSTYLE
  5
CED96
102
{ACAD_REACTORS
330
CED87
102
}
330
CED87
100
AcDbVisualStyle
  2
Facepattern
 70
    15
 71
     2
 72
     2
 73
     0
 90
        0
 40
-0.6
 41
-30.0
 62
     5
 63
     7
 74
     1
 91
        4
 64
     7
 65
   257
 75
     1
175
     1
 42
1.0
 92
        8
 66
     7
 43
1.0
 76
     1
 77
     6
 78
     2
 67
     7
 79
     5
170
     0
171
     0
290
     0
174
     0
 93
        1
 44
0.0
173
     0
291
     1
 45
0.0
1001
ACAD
1000
AcDbSavedByObjectVersion
1070
     0
1000
AcDbSavedByObjectVersion
1070
     0
  0
VISUALSTYLE
  5
CED88
102
{ACAD_REACTORS
330
CED87
102
}
330
CED87
100
AcDbVisualStyle
  2
Flat
 70
     0
 71
     2
 72
     1
 73
     1
 90
        2
 40
-0.6
 41
30.0
 62
     5
 63
     7
 74
     0
 91
        4
 64
     7
 65
   257
 75
     1
175
     1
 42
1.0
 92
        8
 66
     7
 43
1.0
 76
     1
 77
     6
 78
     2
 67
     7
 79
     5
170
     0
171
     0
290
     0
174
     0
 93
       13
 44
0.0
173
     0
291
     1
 45
0.0
1001
ACAD
1000
AcDbSavedByObjectVersion
1070
     0
1000
AcDbSavedByObjectVersion
1070
     0
  0
VISUALSTYLE
  5
CED89
102
{ACAD_REACTORS
330
CED87
102
}
330
CED87
100
AcDbVisualStyle
  2
FlatWithEdges
 70
     1
 71
     2
 72
     1
 73
     1
 90
        2
 40
-0.6
 41
30.0
 62
     5
 63
     7
 74
     1
 91
        4
 64
     7
 65
   257
 75
     1
175
     1
 42
1.0
 92
        0
 66
   257
 43
1.0
 76
     1
 77
     6
 78
     2
 67
     7
 79
     5
170
     0
171
     0
290
     0
174
     0
 93
       13
 44
0.0
173
     0
291
     1
 45
0.0
1001
ACAD
1000
AcDbSavedByObjectVersion
1070
     0
1000
AcDbSavedByObjectVersion
1070
     0
  0
VISUALSTYLE
  5
CED8A
102
{ACAD_REACTORS
330
CED87
102
}
330
CED87
100
AcDbVisualStyle
  2
Gouraud
 70
     2
 71
     2
 72
     2
 73
     1
 90
        2
 40
-0.6
 41
30.0
 62
     5
 63
     7
 74
     0
 91
        4
 64
     7
 65
   257
 75
     1
175
     1
 42
1.0
 92
        0
 66
     7
 43
1.0
 76
     1
 77
     6
 78
     2
 67
     7
 79
     5
170
     0
171
     0
290
     0
174
     0
 93
       13
 44
0.0
173
     0
291
     1
 45
0.0
1001
ACAD
1000
AcDbSavedByObjectVersion
1070
     0
1000
AcDbSavedByObjectVersion
1070
     0
  0
VISUALSTYLE
  5
CED8B
102
{ACAD_REACTORS
330
CED87
102
}
330
CED87
100
AcDbVisualStyle
  2
GouraudWithEdges
 70
     3
 71
     2
 72
     2
 73
     1
 90
        2
 40
-0.6
 41
30.0
 62
     5
 63
     7
 74
     1
 91
        4
 64
     7
 65
   257
 75
     1
175
     1
 42
1.0
 92
        0
 66
   257
 43
1.0
 76
     1
 77
     6
 78
     2
 67
     7
 79
     5
170
     0
171
     0
290
     0
174
     0
 93
       13
 44
0.0
173
     0
291
     1
 45
0.0
1001
ACAD
1000
AcDbSavedByObjectVersion
1070
     0
1000
AcDbSavedByObjectVersion
1070
     0
  0
VISUALSTYLE
  5
CED95
102
{ACAD_REACTORS
330
CED87
102
}
330
CED87
100
AcDbVisualStyle
  2
Linepattern
 70
    14
 71
     2
 72
     2
 73
     0
 90
        0
 40
-0.6
 41
-30.0
 62
     5
 63
     7
 74
     1
 91
        4
 64
     7
 65
   257
 75
     7
175
     7
 42
1.0
 92
        8
 66
     7
 43
1.0
 76
     1
 77
     6
 78
     2
 67
     7
 79
     5
170
     0
171
     0
290
     0
174
     0
 93
        1
 44
0.0
173
     0
291
     1
 45
0.0
1001
ACAD
1000
AcDbSavedByObjectVersion
1070
     0
1000
AcDbSavedByObjectVersion
1070
     0
  0
VISUALSTYLE
  5
CED91
102
{ACAD_REACTORS
330
CED87
102
}
330
CED87
100
AcDbVisualStyle
  2
Realistic
 70
     8
 71
     2
 72
     2
 73
     0
 90
        0
 40
-0.6
 41
-30.0
 62
     5
 63
     7
 74
     1
 91
        0
 64
     7
 65
   257
 75
     1
175
     1
 42
1.0
 92
        8
 66
     8
 43
1.0
 76
     1
 77
     6
 78
     2
 67
     7
 79
     5
170
     0
171
     0
290
     0
174
     0
 93
       13
 44
0.0
173
     0
291
     0
 45
0.0
1001
ACAD
1000
AcDbSavedByObjectVersion
1070
     0
1000
AcDbSavedByObjectVersion
1070
     0
  0
VISUALSTYLE
  5
CED94
102
{ACAD_REACTORS
330
CED87
102
}
330
CED87
100
AcDbVisualStyle
  2
Thicken
 70
    13
 71
     2
 72
     2
 73
     0
 90
        0
 40
-0.6
 41
-30.0
 62
     5
 63
     7
 74
     1
 91
        4
 64
     7
 65
   257
 75
     1
175
     1
 42
1.0
 92
       12
 66
     7
 43
1.0
 76
     1
 77
     6
 78
     2
 67
     7
 79
     5
170
     0
171
     0
290
     0
174
     0
 93
        1
 44
0.0
173
     0
291
     1
 45
0.0
1001
ACAD
1000
AcDbSavedByObjectVersion
1070
     0
1000
AcDbSavedByObjectVersion
1070
     0
  0
DICTIONARYVAR
  5
D0C4F
102
{ACAD_REACTORS
330
59
102
}
330
59
100
DictionaryVariables
280
     0
  1
1:1
  0
DICTIONARYVAR
  5
D0C4D
102
{ACAD_REACTORS
330
59
102
}
330
59
100
DictionaryVariables
280
     0
  1
STANDARD
  0
DICTIONARYVAR
  5
100D
102
{ACAD_REACTORS
330
59
102
}
330
59
100
DictionaryVariables
280
     0
  1
STANDARD
  0
DICTIONARYVAR
  5
5A
102
{ACAD_REACTORS
330
59
102
}
330
59
100
DictionaryVariables
280
     0
  1
2
  0
DICTIONARYVAR
  5
5E
102
{ACAD_REACTORS
330
59
102
}
330
59
100
DictionaryVariables
280
     0
  1
1
  0
DICTIONARYVAR
  5
D8C8E
102
{ACAD_REACTORS
330
59
102
}
330
59
100
DictionaryVariables
280
     0
  1
0
  0
DICTIONARYVAR
  5
D0C50
102
{ACAD_REACTORS
330
59
102
}
330
59
100
DictionaryVariables
280
     0
  1
0
  0
DICTIONARYVAR
  5
D0C4E
102
{ACAD_REACTORS
330
59
102
}
330
59
100
DictionaryVariables
280
     0
  1
0
  0
DICTIONARYVAR
  5
D8C8D
102
{ACAD_REACTORS
330
59
102
}
330
59
100
DictionaryVariables
280
     0
  1
127
  0
XRECORD
  5
C2669
102
{ACAD_REACTORS
330
C2668
102
}
330
C2668
100
AcDbXrecord
280
     1
330
0
330
0
330
0
330
0
330
0
330
0
330
0
330
0
330
0
330
0
330
0
330
0
330
0
330
0
330
0
330
0
330
0
330
0
330
0
330
0
330
0
330
0
330
0
330
0
330
0
330
0
330
0
330
0
330
0
330
0
330
0
330
0
330
0
  0
VLO-VL
  5
A9D17
102
{ACAD_REACTORS
330
A9D16
102
}
330
A9D16
100
vlo_VL
 90
   -64512
 91
       12
 92
        1
 40
2.5
300
(&VLO-R . 0)
  0
DICTIONARY
  5
D8CC2
330
22
100
AcDbDictionary
280
     1
281
     1
  3
ACAD_XREC_ROUNDTRIP
360
D8CC3
  0
DICTIONARY
  5
D8CC4
330
74
100
AcDbDictionary
280
     1
281
     1
  3
ACAD_XREC_ROUNDTRIP
360
D8CC5
  0
DICTIONARY
  5
D8CC6
330
79
100
AcDbDictionary
280
     1
281
     1
  3
ACAD_XREC_ROUNDTRIP
360
D8CC7
  0
DICTIONARY
  5
CED78
330
CED77
100
AcDbDictionary
280
     1
281
     1
  3
ACAD_XREC_ROUNDTRIP
360
D8CAA
  3
BUMPTILE
360
CED7A
  3
DIFFUSETILE
360
CED79
  3
OPACITYTILE
360
CED7D
  3
REFLECTIONTILE
360
CED7C
  3
REFRACTIONTILE
360
CED7E
  3
SPECULARTILE
360
CED7B
  0
DICTIONARY
  5
CED70
330
CED6F
100
AcDbDictionary
280
     1
281
     1
  3
ACAD_XREC_ROUNDTRIP
360
D8CA9
  3
BUMPTILE
360
CED72
  3
DIFFUSETILE
360
CED71
  3
OPACITYTILE
360
CED75
  3
REFLECTIONTILE
360
CED74
  3
REFRACTIONTILE
360
CED76
  3
SPECULARTILE
360
CED73
  0
DICTIONARY
  5
CED80
330
CED7F
100
AcDbDictionary
280
     1
281
     1
  3
ACAD_XREC_ROUNDTRIP
360
D8CAB
  3
BUMPTILE
360
CED82
  3
DIFFUSETILE
360
CED81
  3
OPACITYTILE
360
CED85
  3
REFLECTIONTILE
360
CED84
  3
REFRACTIONTILE
360
CED86
  3
SPECULARTILE
360
CED83
  0
DICTIONARY
  5
D0C45
330
FB0
100
AcDbDictionary
280
     1
281
     1
  3
ACAD_ROUNDTRIP_2008_TABLESTYLE_CELLSTYLEMAP
360
D8CBA
  3
ACAD_XREC_ROUNDTRIP
360
D8CC8
  0
XRECORD
  5
D8CC3
102
{ACAD_REACTORS
330
D8CC2
102
}
330
D8CC2
100
AcDbXrecord
280
     1
102
SHADEPLOT
 70
     0
102
SHADEPLOTRESLEVEL
 70
     2
102
SHADEPLOTCUSTOMDPI
 70
   300
  0
XRECORD
  5
D8CC5
102
{ACAD_REACTORS
330
D8CC4
102
}
330
D8CC4
100
AcDbXrecord
280
     1
102
SHADEPLOT
 70
     0
102
SHADEPLOTRESLEVEL
 70
     2
102
SHADEPLOTCUSTOMDPI
 70
   300
  0
XRECORD
  5
D8CC7
102
{ACAD_REACTORS
330
D8CC6
102
}
330
D8CC6
100
AcDbXrecord
280
     1
102
SHADEPLOT
 70
     0
102
SHADEPLOTRESLEVEL
 70
     2
102
SHADEPLOTCUSTOMDPI
 70
   300
  0
XRECORD
  5
D8CAA
102
{ACAD_REACTORS
330
CED78
102
}
330
CED78
100
AcDbXrecord
280
     1
102
MATERIAL
148
0.0
149
0.0
149
0.0
 93
        0
 94
      127
282
     0
 72
     0
 77
     0
171
     0
175
     0
179
     0
273
     0
  0
XRECORD
  5
CED7A
102
{ACAD_REACTORS
330
CED78
102
}
330
CED78
100
AcDbXrecord
280
     1
270
     1
271
     1
  0
XRECORD
  5
CED79
102
{ACAD_REACTORS
330
CED78
102
}
330
CED78
100
AcDbXrecord
280
     1
270
     1
271
     1
  0
XRECORD
  5
CED7D
102
{ACAD_REACTORS
330
CED78
102
}
330
CED78
100
AcDbXrecord
280
     1
270
     1
271
     1
  0
XRECORD
  5
CED7C
102
{ACAD_REACTORS
330
CED78
102
}
330
CED78
100
AcDbXrecord
280
     1
270
     1
271
     1
  0
XRECORD
  5
CED7E
102
{ACAD_REACTORS
330
CED78
102
}
330
CED78
100
AcDbXrecord
280
     1
270
     1
271
     1
  0
XRECORD
  5
CED7B
102
{ACAD_REACTORS
330
CED78
102
}
330
CED78
100
AcDbXrecord
280
     1
270
     1
271
     1
  0
XRECORD
  5
D8CA9
102
{ACAD_REACTORS
330
CED70
102
}
330
CED70
100
AcDbXrecord
280
     1
102
MATERIAL
148
0.0
149
0.0
149
0.0
 93
        0
 94
      127
282
     0
 72
     0
 77
     0
171
     0
175
     0
179
     0
273
     0
  0
XRECORD
  5
CED72
102
{ACAD_REACTORS
330
CED70
102
}
330
CED70
100
AcDbXrecord
280
     1
270
     1
271
     1
  0
XRECORD
  5
CED71
102
{ACAD_REACTORS
330
CED70
102
}
330
CED70
100
AcDbXrecord
280
     1
270
     1
271
     1
  0
XRECORD
  5
CED75
102
{ACAD_REACTORS
330
CED70
102
}
330
CED70
100
AcDbXrecord
280
     1
270
     1
271
     1
  0
XRECORD
  5
CED74
102
{ACAD_REACTORS
330
CED70
102
}
330
CED70
100
AcDbXrecord
280
     1
270
     1
271
     1
  0
XRECORD
  5
CED76
102
{ACAD_REACTORS
330
CED70
102
}
330
CED70
100
AcDbXrecord
280
     1
270
     1
271
     1
  0
XRECORD
  5
CED73
102
{ACAD_REACTORS
330
CED70
102
}
330
CED70
100
AcDbXrecord
280
     1
270
     1
271
     1
  0
XRECORD
  5
D8CAB
102
{ACAD_REACTORS
330
CED80
102
}
330
CED80
100
AcDbXrecord
280
     1
102
MATERIAL
148
0.0
149
0.0
149
0.0
 93
        0
 94
      127
282
     0
 72
     0
 77
     0
171
     0
175
     0
179
     0
273
     0
  0
XRECORD
  5
CED82
102
{ACAD_REACTORS
330
CED80
102
}
330
CED80
100
AcDbXrecord
280
     1
270
     1
271
     1
  0
XRECORD
  5
CED81
102
{ACAD_REACTORS
330
CED80
102
}
330
CED80
100
AcDbXrecord
280
     1
270
     1
271
     1
  0
XRECORD
  5
CED85
102
{ACAD_REACTORS
330
CED80
102
}
330
CED80
100
AcDbXrecord
280
     1
270
     1
271
     1
  0
XRECORD
  5
CED84
102
{ACAD_REACTORS
330
CED80
102
}
330
CED80
100
AcDbXrecord
280
     1
270
     1
271
     1
  0
XRECORD
  5
CED86
102
{ACAD_REACTORS
330
CED80
102
}
330
CED80
100
AcDbXrecord
280
     1
270
     1
271
     1
  0
XRECORD
  5
CED83
102
{ACAD_REACTORS
330
CED80
102
}
330
CED80
100
AcDbXrecord
280
     1
270
     1
271
     1
  0
CELLSTYLEMAP
  5
D8CBA
102
{ACAD_REACTORS
330
D0C45
102
}
330
D0C45
100
AcDbCellStyleMap
 90
        3
300
CELLSTYLE
  1
TABLEFORMAT_BEGIN
 90
        5
170
     1
 91
        0
 92
    32768
 62
   257
 93
        1
300
CONTENTFORMAT
  1
CONTENTFORMAT_BEGIN
 90
        0
 91
        0
 92
        4
 93
        0
300

 40
0.0
140
1.0
 94
        5
 62
     0
340
11
144
0.25
309
CONTENTFORMAT_END
171
     1
301
MARGIN
  1
CELLMARGIN_BEGIN
 40
0.06
 40
0.06
 40
0.06
 40
0.06
 40
0.18
 40
0.18
309
CELLMARGIN_END
 94
        6
 95
        1
302
GRIDFORMAT
  1
GRIDFORMAT_BEGIN
 90
        0
 91
        1
 62
     0
 92
       -2
340
0
 93
        0
 40
0.045
309
GRIDFORMAT_END
 95
        2
302
GRIDFORMAT
  1
GRIDFORMAT_BEGIN
 90
        0
 91
        1
 62
     0
 92
       -2
340
0
 93
        0
 40
0.045
309
GRIDFORMAT_END
 95
        4
302
GRIDFORMAT
  1
GRIDFORMAT_BEGIN
 90
        0
 91
        1
 62
     0
 92
       -2
340
0
 93
        0
 40
0.045
309
GRIDFORMAT_END
 95
        8
302
GRIDFORMAT
  1
GRIDFORMAT_BEGIN
 90
        0
 91
        1
 62
     0
 92
       -2
340
0
 93
        0
 40
0.045
309
GRIDFORMAT_END
 95
       16
302
GRIDFORMAT
  1
GRIDFORMAT_BEGIN
 90
        0
 91
        1
 62
     0
 92
       -2
340
0
 93
        0
 40
0.045
309
GRIDFORMAT_END
 95
       32
302
GRIDFORMAT
  1
GRIDFORMAT_BEGIN
 90
        0
 91
        1
 62
     0
 92
       -2
340
0
 93
        0
 40
0.045
309
GRIDFORMAT_END
309
TABLEFORMAT_END
  1
CELLSTYLE_BEGIN
 90
        1
 91
        1
300
_TITLE
309
CELLSTYLE_END
300
CELLSTYLE
  1
TABLEFORMAT_BEGIN
 90
        5
170
     1
 91
        0
 92
        0
 62
   257
 93
        1
300
CONTENTFORMAT
  1
CONTENTFORMAT_BEGIN
 90
        0
 91
        0
 92
        4
 93
        0
300

 40
0.0
140
1.0
 94
        5
 62
     0
340
11
144
0.18
309
CONTENTFORMAT_END
171
     1
301
MARGIN
  1
CELLMARGIN_BEGIN
 40
0.06
 40
0.06
 40
0.06
 40
0.06
 40
0.18
 40
0.18
309
CELLMARGIN_END
 94
        6
 95
        1
302
GRIDFORMAT
  1
GRIDFORMAT_BEGIN
 90
        0
 91
        1
 62
     0
 92
       -2
340
0
 93
        0
 40
0.045
309
GRIDFORMAT_END
 95
        2
302
GRIDFORMAT
  1
GRIDFORMAT_BEGIN
 90
        0
 91
        1
 62
     0
 92
       -2
340
0
 93
        0
 40
0.045
309
GRIDFORMAT_END
 95
        4
302
GRIDFORMAT
  1
GRIDFORMAT_BEGIN
 90
        0
 91
        1
 62
     0
 92
       -2
340
0
 93
        0
 40
0.045
309
GRIDFORMAT_END
 95
        8
302
GRIDFORMAT
  1
GRIDFORMAT_BEGIN
 90
        0
 91
        1
 62
     0
 92
       -2
340
0
 93
        0
 40
0.045
309
GRIDFORMAT_END
 95
       16
302
GRIDFORMAT
  1
GRIDFORMAT_BEGIN
 90
        0
 91
        1
 62
     0
 92
       -2
340
0
 93
        0
 40
0.045
309
GRIDFORMAT_END
 95
       32
302
GRIDFORMAT
  1
GRIDFORMAT_BEGIN
 90
        0
 91
        1
 62
     0
 92
       -2
340
0
 93
        0
 40
0.045
309
GRIDFORMAT_END
309
TABLEFORMAT_END
  1
CELLSTYLE_BEGIN
 90
        2
 91
        1
300
_HEADER
309
CELLSTYLE_END
300
CELLSTYLE
  1
TABLEFORMAT_BEGIN
 90
        5
170
     1
 91
        0
 92
        0
 62
   257
 93
        1
300
CONTENTFORMAT
  1
CONTENTFORMAT_BEGIN
 90
        0
 91
        0
 92
        4
 93
        0
300

 40
0.0
140
1.0
 94
        2
 62
     0
340
11
144
0.18
309
CONTENTFORMAT_END
171
     1
301
MARGIN
  1
CELLMARGIN_BEGIN
 40
0.06
 40
0.06
 40
0.06
 40
0.06
 40
0.18
 40
0.18
309
CELLMARGIN_END
 94
        6
 95
        1
302
GRIDFORMAT
  1
GRIDFORMAT_BEGIN
 90
        0
 91
        1
 62
     0
 92
       -2
340
0
 93
        0
 40
0.045
309
GRIDFORMAT_END
 95
        2
302
GRIDFORMAT
  1
GRIDFORMAT_BEGIN
 90
        0
 91
        1
 62
     0
 92
       -2
340
0
 93
        0
 40
0.045
309
GRIDFORMAT_END
 95
        4
302
GRIDFORMAT
  1
GRIDFORMAT_BEGIN
 90
        0
 91
        1
 62
     0
 92
       -2
340
0
 93
        0
 40
0.045
309
GRIDFORMAT_END
 95
        8
302
GRIDFORMAT
  1
GRIDFORMAT_BEGIN
 90
        0
 91
        1
 62
     0
 92
       -2
340
0
 93
        0
 40
0.045
309
GRIDFORMAT_END
 95
       16
302
GRIDFORMAT
  1
GRIDFORMAT_BEGIN
 90
        0
 91
        1
 62
     0
 92
       -2
340
0
 93
        0
 40
0.045
309
GRIDFORMAT_END
 95
       32
302
GRIDFORMAT
  1
GRIDFORMAT_BEGIN
 90
        0
 91
        1
 62
     0
 92
       -2
340
0
 93
        0
 40
0.045
309
GRIDFORMAT_END
309
TABLEFORMAT_END
  1
CELLSTYLE_BEGIN
 90
        3
 91
        2
300
_DATA
309
CELLSTYLE_END
  0
XRECORD
  5
D8CC8
102
{ACAD_REACTORS
330
D0C45
102
}
330
D0C45
100
AcDbXrecord
280
     1
102
ACAD_ROUNDTRIP_PRE2007_TABLESTYLE
 90
        4
 91
        0
  1

 92
        4
 93
        0
  2

 94
        4
 95
        0
  3

  0
ENDSEC
  0
EOF
