  0
SECTION
  2
HEADER
  9
$ACADVER
  1
AC1015
  9
$ACADMAINTVER
 70
    20
  9
$DWGCODEPAGE
  3
ANSI_936
  9
$INSBASE
 10
0.0
 20
0.0
 30
0.0
  9
$EXTMIN
 10
102490.317530302
 20
-169901.8264641094
 30
-0.0000000349181948
  9
$EXTMAX
 10
103345.287383646
 20
-167762.9693223098
 30
0.0000000814935747
  9
$LIMMIN
 10
0.0
 20
0.0
  9
$LIMMAX
 10
12.0
 20
9.0
  9
$ORTHOMODE
 70
     1
  9
$REGENMODE
 70
     1
  9
$FILLMODE
 70
     1
  9
$QTEXTMODE
 70
     0
  9
$MIRRTEXT
 70
     0
  9
$LTSCALE
 40
1.0
  9
$ATTMODE
 70
     1
  9
$TEXTSIZE
 40
0.2
  9
$TRACEWID
 40
0.05
  9
$TEXTSTYLE
  7
Standard
  9
$CLAYER
  8
标注
  9
$CELTYPE
  6
ByLayer
  9
$CECOLOR
 62
   256
  9
$CELTSCALE
 40
5.0
  9
$DISPSILH
 70
     0
  9
$DIMSCALE
 40
1.0
  9
$DIMASZ
 40
10.0
  9
$DIMEXO
 40
7.0
  9
$DIMDLI
 40
0.38
  9
$DIMRND
 40
0.0
  9
$DIMDLE
 40
0.0
  9
$DIMEXE
 40
7.0
  9
$DIMTP
 40
0.0
  9
$DIMTM
 40
0.0
  9
$DIMTXT
 40
12.0
  9
$DIMCEN
 40
2.5
  9
$DIMTSZ
 40
0.0
  9
$DIMTOL
 70
     0
  9
$DIMLIM
 70
     0
  9
$DIMTIH
 70
     0
  9
$DIMTOH
 70
     0
  9
$DIMSE1
 70
     0
  9
$DIMSE2
 70
     0
  9
$DIMTAD
 70
     0
  9
$DIMZIN
 70
     8
  9
$DIMBLK
  1

  9
$DIMASO
 70
     1
  9
$DIMSHO
 70
     1
  9
$DIMPOST
  1

  9
$DIMAPOST
  1
"
  9
$DIMALT
 70
     0
  9
$DIMALTD
 70
     3
  9
$DIMALTF
 40
0.03937
  9
$DIMLFAC
 40
1.0
  9
$DIMTOFL
 70
     1
  9
$DIMTVP
 40
0.0
  9
$DIMTIX
 70
     0
  9
$DIMSOXD
 70
     0
  9
$DIMSAH
 70
     0
  9
$DIMBLK1
  1

  9
$DIMBLK2
  1

  9
$DIMSTYLE
  2
副本Standard
  9
$DIMCLRD
 70
   256
  9
$DIMCLRE
 70
   256
  9
$DIMCLRT
 70
   256
  9
$DIMTFAC
 40
1.0
  9
$DIMGAP
 40
0.5
  9
$DIMJUST
 70
     0
  9
$DIMSD1
 70
     0
  9
$DIMSD2
 70
     0
  9
$DIMTOLJ
 70
     1
  9
$DIMTZIN
 70
     0
  9
$DIMALTZ
 70
     0
  9
$DIMALTTZ
 70
     0
  9
$DIMUPT
 70
     0
  9
$DIMDEC
 70
     1
  9
$DIMTDEC
 70
     1
  9
$DIMALTU
 70
     7
  9
$DIMALTTD
 70
     3
  9
$DIMTXSTY
  7
Standard
  9
$DIMAUNIT
 70
     0
  9
$DIMADEC
 70
     0
  9
$DIMALTRND
 40
0.0
  9
$DIMAZIN
 70
     2
  9
$DIMDSEP
 70
    44
  9
$DIMATFIT
 70
     3
  9
$DIMFRAC
 70
     0
  9
$DIMLDRBLK
  1

  9
$DIMLUNIT
 70
     2
  9
$DIMLWD
 70
    -2
  9
$DIMLWE
 70
    -2
  9
$DIMTMOVE
 70
     0
  9
$LUNITS
 70
     2
  9
$LUPREC
 70
     4
  9
$SKETCHINC
 40
0.1
  9
$FILLETRAD
 40
30.0
  9
$AUNITS
 70
     0
  9
$AUPREC
 70
     0
  9
$MENU
  1
.
  9
$ELEVATION
 40
0.0
  9
$PELEVATION
 40
0.0
  9
$THICKNESS
 40
0.0
  9
$LIMCHECK
 70
     0
  9
$CHAMFERA
 40
26.6
  9
$CHAMFERB
 40
26.6
  9
$CHAMFERC
 40
0.0
  9
$CHAMFERD
 40
0.0
  9
$SKPOLY
 70
     0
  9
$TDCREATE
 40
2454355.343801713
  9
$TDUCREATE
 40
2454355.010468380
  9
$TDUPDATE
 40
2457938.595209340
  9
$TDUUPDATE
 40
2457938.261876007
  9
$TDINDWG
 40
8.9480285185
  9
$TDUSRTIMER
 40
8.9480284375
  9
$USRTIMER
 70
     1
  9
$ANGBASE
 50
0.0
  9
$ANGDIR
 70
     0
  9
$PDMODE
 70
     0
  9
$PDSIZE
 40
0.0
  9
$PLINEWID
 40
0.0
  9
$SPLFRAME
 70
     0
  9
$SPLINETYPE
 70
     6
  9
$SPLINESEGS
 70
     8
  9
$HANDSEED
  5
D74FD
  9
$SURFTAB1
 70
     6
  9
$SURFTAB2
 70
     6
  9
$SURFTYPE
 70
     6
  9
$SURFU
 70
     6
  9
$SURFV
 70
     6
  9
$UCSBASE
  2

  9
$UCSNAME
  2

  9
$UCSORG
 10
0.0
 20
0.0
 30
0.0
  9
$UCSXDIR
 10
1.0
 20
0.0
 30
0.0
  9
$UCSYDIR
 10
0.0
 20
1.0
 30
0.0
  9
$UCSORTHOREF
  2

  9
$UCSORTHOVIEW
 70
     0
  9
$UCSORGTOP
 10
0.0
 20
0.0
 30
0.0
  9
$UCSORGBOTTOM
 10
0.0
 20
0.0
 30
0.0
  9
$UCSORGLEFT
 10
0.0
 20
0.0
 30
0.0
  9
$UCSORGRIGHT
 10
0.0
 20
0.0
 30
0.0
  9
$UCSORGFRONT
 10
0.0
 20
0.0
 30
0.0
  9
$UCSORGBACK
 10
0.0
 20
0.0
 30
0.0
  9
$PUCSBASE
  2

  9
$PUCSNAME
  2

  9
$PUCSORG
 10
0.0
 20
0.0
 30
0.0
  9
$PUCSXDIR
 10
1.0
 20
0.0
 30
0.0
  9
$PUCSYDIR
 10
0.0
 20
1.0
 30
0.0
  9
$PUCSORTHOREF
  2

  9
$PUCSORTHOVIEW
 70
     0
  9
$PUCSORGTOP
 10
0.0
 20
0.0
 30
0.0
  9
$PUCSORGBOTTOM
 10
0.0
 20
0.0
 30
0.0
  9
$PUCSORGLEFT
 10
0.0
 20
0.0
 30
0.0
  9
$PUCSORGRIGHT
 10
0.0
 20
0.0
 30
0.0
  9
$PUCSORGFRONT
 10
0.0
 20
0.0
 30
0.0
  9
$PUCSORGBACK
 10
0.0
 20
0.0
 30
0.0
  9
$USERI1
 70
     0
  9
$USERI2
 70
     0
  9
$USERI3
 70
     0
  9
$USERI4
 70
     0
  9
$USERI5
 70
     0
  9
$USERR1
 40
0.0
  9
$USERR2
 40
0.0
  9
$USERR3
 40
0.0
  9
$USERR4
 40
0.0
  9
$USERR5
 40
2.5
  9
$WORLDVIEW
 70
     1
  9
$SHADEDGE
 70
     3
  9
$SHADEDIF
 70
    70
  9
$TILEMODE
 70
     1
  9
$MAXACTVP
 70
    64
  9
$PINSBASE
 10
0.0
 20
0.0
 30
0.0
  9
$PLIMCHECK
 70
     0
  9
$PEXTMIN
 10
0.0
 20
0.0
 30
0.0
  9
$PEXTMAX
 10
0.0
 20
0.0
 30
0.0
  9
$PLIMMIN
 10
0.0
 20
0.0
  9
$PLIMMAX
 10
12.0
 20
9.0
  9
$UNITMODE
 70
     0
  9
$VISRETAIN
 70
     1
  9
$PLINEGEN
 70
     0
  9
$PSLTSCALE
 70
     1
  9
$TREEDEPTH
 70
  3020
  9
$CMLSTYLE
  2
Standard
  9
$CMLJUST
 70
     0
  9
$CMLSCALE
 40
1.0
  9
$PROXYGRAPHICS
 70
     1
  9
$MEASUREMENT
 70
     0
  9
$CELWEIGHT
370
    -1
  9
$ENDCAPS
280
     0
  9
$JOINSTYLE
280
     0
  9
$LWDISPLAY
290
     0
  9
$INSUNITS
 70
     4
  9
$HYPERLINKBASE
  1

  9
$STYLESHEET
  1
MONOCHROME.CTB
  9
$XEDIT
290
     1
  9
$CEPSNTYPE
380
     0
  9
$PSTYLEMODE
290
     1
  9
$FINGERPRINTGUID
  2
{35BD88C0-9548-11D2-9A29-0060089B3A3F}
  9
$VERSIONGUID
  2
{EA9474CB-F968-48D8-B25C-9CCC915EBE48}
  9
$EXTNAMES
290
     1
  9
$PSVPSCALE
 40
0.0
  9
$OLESTARTUP
290
     0
  0
ENDSEC
  0
SECTION
  2
CLASSES
  0
CLASS
  1
ACDBDICTIONARYWDFLT
  2
AcDbDictionaryWithDefault
  3
ObjectDBX Classes
 90
        0
280
     0
281
     0
  0
CLASS
  1
ACDBPLACEHOLDER
  2
AcDbPlaceHolder
  3
ObjectDBX Classes
 90
        0
280
     0
281
     0
  0
CLASS
  1
LAYOUT
  2
AcDbLayout
  3
ObjectDBX Classes
 90
        0
280
     0
281
     0
  0
CLASS
  1
DICTIONARYVAR
  2
AcDbDictionaryVar
  3
ObjectDBX Classes
 90
        0
280
     0
281
     0
  0
CLASS
  1
SORTENTSTABLE
  2
AcDbSortentsTable
  3
ObjectDBX Classes
 90
        0
280
     0
281
     0
  0
CLASS
  1
DIMASSOC
  2
AcDbDimAssoc
  3
"AcDbDimAssoc|Product Desc:     AcDim ARX App For Dimension|Company:          Autodesk, Inc.|WEB Address:      www.autodesk.com"
 90
        0
280
     0
281
     0
  0
CLASS
  1
TABLESTYLE
  2
AcDbTableStyle
  3
ObjectDBX Classes
 90
     4095
280
     0
281
     0
  0
CLASS
  1
VLO-VL
  2
vlo_VL
  3
VL|AutoLISP based application
 90
      129
280
     0
281
     0
  0
CLASS
  1
MATERIAL
  2
AcDbMaterial
  3
ObjectDBX Classes
 90
     1153
280
     0
281
     0
  0
CLASS
  1
VISUALSTYLE
  2
AcDbVisualStyle
  3
ObjectDBX Classes
 90
     4095
280
     0
281
     0
  0
CLASS
  1
SCALE
  2
AcDbScale
  3
ObjectDBX Classes
 90
     1153
280
     0
281
     0
  0
CLASS
  1
MLEADERSTYLE
  2
AcDbMLeaderStyle
  3
ACDB_MLEADERSTYLE_CLASS
 90
     4095
280
     0
281
     0
  0
CLASS
  1
CELLSTYLEMAP
  2
AcDbCellStyleMap
  3
ObjectDBX Classes
 90
     1152
280
     0
281
     0
  0
ENDSEC
  0
SECTION
  2
TABLES
  0
TABLE
  2
VPORT
  5
8
330
0
100
AcDbSymbolTable
 70
     1
  0
VPORT
  5
CED6D
330
8
100
AcDbSymbolTableRecord
100
AcDbViewportTableRecord
  2
*Active
 70
     0
 10
0.0
 20
0.0
 11
1.0
 21
1.0
 12
102917.802456974
 22
-168832.3978932096
 13
0.0
 23
0.0
 14
0.5
 24
0.5
 15
0.5
 25
0.5
 16
0.0
 26
0.0
 36
1.0
 17
0.0
 27
0.0
 37
0.0
 40
2154.66150491644
 41
2.241676942046855
 42
50.0
 43
0.0
 44
0.0
 50
0.0
 51
0.0
 71
     0
 72
  1000
 73
     1
 74
     3
 75
     0
 76
     0
 77
     0
 78
     0
281
     0
 65
     1
110
0.0
120
0.0
130
0.0
111
1.0
121
0.0
131
0.0
112
0.0
122
1.0
132
0.0
 79
     0
146
0.0
  0
ENDTAB
  0
TABLE
  2
LTYPE
  5
5
330
0
100
AcDbSymbolTable
 70
     3
  0
LTYPE
  5
14
330
5
100
AcDbSymbolTableRecord
100
AcDbLinetypeTableRecord
  2
ByBlock
 70
     0
  3

 72
    65
 73
     0
 40
0.0
  0
LTYPE
  5
15
330
5
100
AcDbSymbolTableRecord
100
AcDbLinetypeTableRecord
  2
ByLayer
 70
     0
  3

 72
    65
 73
     0
 40
0.0
  0
LTYPE
  5
16
330
5
100
AcDbSymbolTableRecord
100
AcDbLinetypeTableRecord
  2
Continuous
 70
     0
  3
Solid line
 72
    65
 73
     0
 40
0.0
  0
LTYPE
  5
98
330
5
100
AcDbSymbolTableRecord
100
AcDbLinetypeTableRecord
  2
HIDDEN2
 70
     0
  3
Hidden (.5x) _ _ _ _ _ _ _ _ _ _ _ _ _ _ _ _ _
 72
    65
 73
     2
 40
4.762499999999998
 49
3.174999999999998
 74
     0
 49
-1.587499999999999
 74
     0
  0
LTYPE
  5
D5C97
330
5
100
AcDbSymbolTableRecord
100
AcDbLinetypeTableRecord
  2
CENTER
 70
     0
  3
Center ____ _ ____ _ ____ _ ____ _ ____ _ ____
 72
    65
 73
     4
 40
50.8
 49
31.75
 74
     0
 49
-6.349999999999998
 74
     0
 49
6.349999999999998
 74
     0
 49
-6.349999999999998
 74
     0
  0
ENDTAB
  0
TABLE
  2
LAYER
  5
2
102
{ACAD_XDICTIONARY
360
AB
102
}
330
0
100
AcDbSymbolTable
 70
     6
  0
LAYER
  5
10
102
{ACAD_XDICTIONARY
360
CF251
102
}
330
2
100
AcDbSymbolTableRecord
100
AcDbLayerTableRecord
  2
0
 70
     0
 62
     7
  6
Continuous
370
    18
390
F
  0
LAYER
  5
9D
102
{ACAD_XDICTIONARY
360
CF259
102
}
330
2
100
AcDbSymbolTableRecord
100
AcDbLayerTableRecord
  2
虚线
 70
     0
 62
     4
  6
HIDDEN2
370
     9
390
F
  0
LAYER
  5
9E
102
{ACAD_XDICTIONARY
360
CF25B
102
}
330
2
100
AcDbSymbolTableRecord
100
AcDbLayerTableRecord
  2
细实线
 70
     0
 62
     7
  6
Continuous
370
     9
390
F
  0
LAYER
  5
582
330
2
100
AcDbSymbolTableRecord
100
AcDbLayerTableRecord
  2
Defpoints
 70
     0
 62
     7
  6
Continuous
290
     0
370
     9
390
F
  0
LAYER
  5
16DF9
102
{ACAD_XDICTIONARY
360
CF25D
102
}
330
2
100
AcDbSymbolTableRecord
100
AcDbLayerTableRecord
  2
标注
 70
     0
 62
    80
  6
Continuous
370
     5
390
F
1001
AcAecLayerStandard
1000

1000

  0
LAYER
  5
D6B9B
330
2
100
AcDbSymbolTableRecord
100
AcDbLayerTableRecord
  2
粗实线
 70
     0
 62
     7
  6
Continuous
370
    25
390
F
1001
AcAecLayerStandard
1000

1000

  0
ENDTAB
  0
TABLE
  2
STYLE
  5
3
330
0
100
AcDbSymbolTable
 70
     2
  0
STYLE
  5
11
330
3
100
AcDbSymbolTableRecord
100
AcDbTextStyleTableRecord
  2
Standard
 70
     0
 40
0.0
 41
1.0
 50
0.0
 71
     0
 42
0.2
  3
SimSun.ttf
  4

1001
ACAD
1000
SimSun
1071
    34306
  0
STYLE
  5
9D6ED
330
3
100
AcDbSymbolTableRecord
100
AcDbTextStyleTableRecord
  2
A301
 70
     0
 40
3.5
 41
0.75
 50
0.0
 71
     0
 42
0.0
  3
SimSun.ttf
  4

1001
ACAD
1000
SimSun
1071
    34306
  0
ENDTAB
  0
TABLE
  2
VIEW
  5
6
330
0
100
AcDbSymbolTable
 70
     0
  0
ENDTAB
  0
TABLE
  2
UCS
  5
7
330
0
100
AcDbSymbolTable
 70
     0
  0
ENDTAB
  0
TABLE
  2
APPID
  5
9
330
0
100
AcDbSymbolTable
 70
    19
  0
APPID
  5
12
330
9
100
AcDbSymbolTableRecord
100
AcDbRegAppTableRecord
  2
ACAD
 70
     0
  0
APPID
  5
A5
330
9
100
AcDbSymbolTableRecord
100
AcDbRegAppTableRecord
  2
AcAecLayerStandard
 70
     0
  0
APPID
  5
A6
330
9
100
AcDbSymbolTableRecord
100
AcDbRegAppTableRecord
  2
ACAD_DSTYLE_DIMEXT_LENGTH
 70
     0
  0
APPID
  5
A7
330
9
100
AcDbSymbolTableRecord
100
AcDbRegAppTableRecord
  2
ACAD_DSTYLE_DIMEXT_ENABLED
 70
     0
  0
APPID
  5
A8
330
9
100
AcDbSymbolTableRecord
100
AcDbRegAppTableRecord
  2
ACAD_DSTYLE_DIMJOGGED_JOGANGLE_SYMBOL
 70
     0
  0
APPID
  5
A9
330
9
100
AcDbSymbolTableRecord
100
AcDbRegAppTableRecord
  2
ACAD_DSTYLE_DIMARC_LENGTH_SYMBOL
 70
     0
  0
APPID
  5
AA
330
9
100
AcDbSymbolTableRecord
100
AcDbRegAppTableRecord
  2
ACAD_PSEXT
 70
     0
  0
APPID
  5
173
330
9
100
AcDbSymbolTableRecord
100
AcDbRegAppTableRecord
  2
DCO15
 70
     0
  0
APPID
  5
11D5
330
9
100
AcDbSymbolTableRecord
100
AcDbRegAppTableRecord
  2
ACAD_EXEMPT_FROM_CAD_STANDARDS
 70
     0
  0
APPID
  5
B456
330
9
100
AcDbSymbolTableRecord
100
AcDbRegAppTableRecord
  2
ACAD_DSTYLE_DIMTEXT_FILL
 70
     0
  0
APPID
  5
B459
330
9
100
AcDbSymbolTableRecord
100
AcDbRegAppTableRecord
  2
ACAD_DSTYLE_DIM_LINETYPE
 70
     0
  0
APPID
  5
B45A
330
9
100
AcDbSymbolTableRecord
100
AcDbRegAppTableRecord
  2
ACAD_DSTYLE_DIM_EXT1_LINETYPE
 70
     0
  0
APPID
  5
B45B
330
9
100
AcDbSymbolTableRecord
100
AcDbRegAppTableRecord
  2
ACAD_DSTYLE_DIM_EXT2_LINETYPE
 70
     0
  0
APPID
  5
CEDBC
330
9
100
AcDbSymbolTableRecord
100
AcDbRegAppTableRecord
  2
ACAD_MLEADERVER
 70
     0
  0
APPID
  5
CF35C
330
9
100
AcDbSymbolTableRecord
100
AcDbRegAppTableRecord
  2
ACAD_DSTYLE_DIMRADIAL_EXTENSION
 70
     0
  0
APPID
  5
CF43A
330
9
100
AcDbSymbolTableRecord
100
AcDbRegAppTableRecord
  2
ACAD_DSTYLE_DIMJAG
 70
     0
  0
APPID
  5
CF43B
330
9
100
AcDbSymbolTableRecord
100
AcDbRegAppTableRecord
  2
ACAD_DSTYLE_DIMTALN
 70
     0
  0
APPID
  5
D5B2B
330
9
100
AcDbSymbolTableRecord
100
AcDbRegAppTableRecord
  2
ACAD_DSTYLE_DIMBREAK
 70
     0
  0
APPID
  5
D6B9C
330
9
100
AcDbSymbolTableRecord
100
AcDbRegAppTableRecord
  2
AcDbBlockRepETag
 70
     0
  0
ENDTAB
  0
TABLE
  2
DIMSTYLE
  5
A
330
0
100
AcDbSymbolTable
 70
     7
100
AcDbDimStyleTable
 71
     2
340
3BDB5
340
27
  0
DIMSTYLE
105
27
330
A
100
AcDbSymbolTableRecord
100
AcDbDimStyleTableRecord
  2
Standard
 70
     0
 41
20.0
 42
25.0
 44
8.0
 73
     0
 74
     0
 78
     8
 79
     2
140
20.0
147
5.0
172
     1
176
     3
177
     3
178
     3
179
     1
271
     1
272
     1
278
    44
340
11
1001
ACAD_DSTYLE_DIMJOGGED_JOGANGLE_SYMBOL
1070
   384
1040
0.7853981633974483
1001
ACAD_DSTYLE_DIMEXT_LENGTH
1070
   378
1040
8.0
  0
DIMSTYLE
105
3BDB5
102
{ACAD_REACTORS
330
D6F09
330
D6F32
330
D6F4C
330
D6F70
330
D6F99
330
D6FA7
330
D6FCB
330
D6FE9
330
D7003
330
D701D
330
D702A
330
D7044
330
D705E
330
D707F
330
D7099
330
D70B3
330
D70C3
330
D70D3
330
D70E3
330
D70F3
330
D7103
330
D7113
330
D7133
330
D7143
330
D7153
102
}
330
A
100
AcDbSymbolTableRecord
100
AcDbDimStyleTableRecord
  2
副本Standard
 70
     0
  4
"
 41
16.0
 42
7.0
 44
7.0
 73
     0
 74
     0
 78
     8
 79
     2
140
20.0
141
2.5
143
0.03937
147
1.0
171
     3
172
     1
176
   256
177
   256
178
   256
179
     1
271
     1
272
     1
273
     7
274
     3
278
    44
340
11
1001
ACAD_DSTYLE_DIMJAG
1070
   388
1040
1.5
1001
ACAD_DSTYLE_DIMTALN
1070
   392
1070
     0
  0
DIMSTYLE
105
D5B2A
330
A
100
AcDbSymbolTableRecord
100
AcDbDimStyleTableRecord
  2
副本Standard(2)
 70
     0
  3
mm
  4
"
 41
16.0
 42
22.0
 44
8.0
 73
     0
 74
     0
 78
     8
 79
     2
140
16.0
143
0.03937
147
5.0
170
     1
171
     3
172
     1
176
   256
177
   256
178
   256
179
     1
271
     1
272
     1
273
     7
274
     3
278
    44
340
11
1001
ACAD_DSTYLE_DIMBREAK
1070
   391
1040
0.125
1001
ACAD_DSTYLE_DIMJAG
1070
   388
1040
1.5
1001
ACAD_DSTYLE_DIMTALN
1070
   392
1070
     0
  0
DIMSTYLE
105
D6A02
330
A
100
AcDbSymbolTableRecord
100
AcDbDimStyleTableRecord
  2
ISO-25
 70
     0
 41
20.0
 42
0.0
 43
3.75
 44
3.0
 73
     0
 74
     0
 77
     1
 78
     8
140
20.0
141
7.0
143
0.03937007874016
147
8.0
171
     3
172
     1
271
     1
272
     1
274
     3
278
    44
283
     0
284
     8
340
11
1001
ACAD_DSTYLE_DIMEXT_LENGTH
1070
   378
1040
1.25
1001
ACAD_DSTYLE_DIMJOGGED_JOGANGLE_SYMBOL
1070
   384
1040
1.570796326794896
  0
DIMSTYLE
105
D6A03
330
A
100
AcDbSymbolTableRecord
100
AcDbDimStyleTableRecord
  2
副本ISO-25
 70
     0
 41
15.0
 42
0.625
 43
3.75
 44
1.25
 73
     0
 77
     1
 78
     8
140
15.0
141
2.5
143
0.03937007874016
147
0.625
170
     1
171
     1
172
     1
176
     6
177
     6
271
     2
272
     2
274
     1
278
    44
283
     0
284
     8
340
11
371
    15
372
    15
  0
DIMSTYLE
105
D6A04
330
A
100
AcDbSymbolTableRecord
100
AcDbDimStyleTableRecord
  2
01
 70
     0
 41
15.0
 42
0.0
 43
3.75
 44
1.25
 73
     0
 74
     0
 77
     1
 78
     8
 79
     2
140
15.0
141
2.5
143
0.03937007874016
147
5.0
171
     1
172
     1
176
     6
177
     6
179
     1
271
     1
272
     1
274
     1
278
    44
283
     0
284
     8
340
11
371
     5
372
     5
  0
DIMSTYLE
105
D6A05
330
A
100
AcDbSymbolTableRecord
100
AcDbDimStyleTableRecord
  2
副本01
 70
     0
 41
15.0
 42
0.625
 43
3.75
 44
1.25
 73
     0
 77
     1
 78
     9
 79
     2
140
18.0
141
0.5
143
0.03937007874
147
0.625
170
     1
176
     6
177
     6
271
     2
272
     2
283
     0
284
     8
285
    12
340
11
371
     5
372
     5
  0
ENDTAB
  0
TABLE
  2
BLOCK_RECORD
  5
1
330
0
100
AcDbSymbolTable
 70
    52
  0
BLOCK_RECORD
  5
1F
102
{ACAD_XDICTIONARY
360
118B
102
}
330
1
100
AcDbSymbolTableRecord
100
AcDbBlockTableRecord
  2
*Model_Space
340
22
  0
BLOCK_RECORD
  5
73
330
1
100
AcDbSymbolTableRecord
100
AcDbBlockTableRecord
  2
*Paper_Space
340
74
  0
BLOCK_RECORD
  5
78
330
1
100
AcDbSymbolTableRecord
100
AcDbBlockTableRecord
  2
*Paper_Space0
340
79
  0
BLOCK_RECORD
  5
D6F0A
330
1
100
AcDbSymbolTableRecord
100
AcDbBlockTableRecord
  2
*D1
340
0
  0
BLOCK_RECORD
  5
D6F33
330
1
100
AcDbSymbolTableRecord
100
AcDbBlockTableRecord
  2
*D2
340
0
  0
BLOCK_RECORD
  5
D6F4D
330
1
100
AcDbSymbolTableRecord
100
AcDbBlockTableRecord
  2
*D3
340
0
  0
BLOCK_RECORD
  5
D6F71
330
1
100
AcDbSymbolTableRecord
100
AcDbBlockTableRecord
  2
*D4
340
0
  0
BLOCK_RECORD
  5
D6F9A
330
1
100
AcDbSymbolTableRecord
100
AcDbBlockTableRecord
  2
*D5
340
0
  0
BLOCK_RECORD
  5
D6FA8
330
1
100
AcDbSymbolTableRecord
100
AcDbBlockTableRecord
  2
*D6
340
0
  0
BLOCK_RECORD
  5
D6FCC
330
1
100
AcDbSymbolTableRecord
100
AcDbBlockTableRecord
  2
*D7
340
0
  0
BLOCK_RECORD
  5
D6FEA
330
1
100
AcDbSymbolTableRecord
100
AcDbBlockTableRecord
  2
*D8
340
0
  0
BLOCK_RECORD
  5
D7004
330
1
100
AcDbSymbolTableRecord
100
AcDbBlockTableRecord
  2
*D9
340
0
  0
BLOCK_RECORD
  5
D701E
330
1
100
AcDbSymbolTableRecord
100
AcDbBlockTableRecord
  2
*D10
340
0
  0
BLOCK_RECORD
  5
D702B
330
1
100
AcDbSymbolTableRecord
100
AcDbBlockTableRecord
  2
*D11
340
0
  0
BLOCK_RECORD
  5
D7045
330
1
100
AcDbSymbolTableRecord
100
AcDbBlockTableRecord
  2
*D12
340
0
  0
BLOCK_RECORD
  5
D705F
330
1
100
AcDbSymbolTableRecord
100
AcDbBlockTableRecord
  2
*D13
340
0
  0
BLOCK_RECORD
  5
D7080
330
1
100
AcDbSymbolTableRecord
100
AcDbBlockTableRecord
  2
*D14
340
0
  0
BLOCK_RECORD
  5
D709A
330
1
100
AcDbSymbolTableRecord
100
AcDbBlockTableRecord
  2
*D15
340
0
  0
BLOCK_RECORD
  5
D70B4
330
1
100
AcDbSymbolTableRecord
100
AcDbBlockTableRecord
  2
*D16
340
0
  0
BLOCK_RECORD
  5
D70C4
330
1
100
AcDbSymbolTableRecord
100
AcDbBlockTableRecord
  2
*D17
340
0
  0
BLOCK_RECORD
  5
D70D4
330
1
100
AcDbSymbolTableRecord
100
AcDbBlockTableRecord
  2
*D18
340
0
  0
BLOCK_RECORD
  5
D70E4
330
1
100
AcDbSymbolTableRecord
100
AcDbBlockTableRecord
  2
*D19
340
0
  0
BLOCK_RECORD
  5
D70F4
330
1
100
AcDbSymbolTableRecord
100
AcDbBlockTableRecord
  2
*D20
340
0
  0
BLOCK_RECORD
  5
D7104
330
1
100
AcDbSymbolTableRecord
100
AcDbBlockTableRecord
  2
*D21
340
0
  0
BLOCK_RECORD
  5
D7114
330
1
100
AcDbSymbolTableRecord
100
AcDbBlockTableRecord
  2
*D22
340
0
  0
BLOCK_RECORD
  5
D7134
330
1
100
AcDbSymbolTableRecord
100
AcDbBlockTableRecord
  2
*D23
340
0
  0
BLOCK_RECORD
  5
D7144
330
1
100
AcDbSymbolTableRecord
100
AcDbBlockTableRecord
  2
*D24
340
0
  0
BLOCK_RECORD
  5
D7154
330
1
100
AcDbSymbolTableRecord
100
AcDbBlockTableRecord
  2
*D25
340
0
  0
BLOCK_RECORD
  5
D71B1
330
1
100
AcDbSymbolTableRecord
100
AcDbBlockTableRecord
  2
*D26
340
0
  0
BLOCK_RECORD
  5
D71BE
330
1
100
AcDbSymbolTableRecord
100
AcDbBlockTableRecord
  2
*D27
340
0
  0
BLOCK_RECORD
  5
D71CB
330
1
100
AcDbSymbolTableRecord
100
AcDbBlockTableRecord
  2
*D28
340
0
  0
BLOCK_RECORD
  5
D71D7
330
1
100
AcDbSymbolTableRecord
100
AcDbBlockTableRecord
  2
*D29
340
0
  0
BLOCK_RECORD
  5
D71E3
330
1
100
AcDbSymbolTableRecord
100
AcDbBlockTableRecord
  2
*D30
340
0
  0
BLOCK_RECORD
  5
D71EF
330
1
100
AcDbSymbolTableRecord
100
AcDbBlockTableRecord
  2
*D31
340
0
  0
BLOCK_RECORD
  5
D71F8
330
1
100
AcDbSymbolTableRecord
100
AcDbBlockTableRecord
  2
*D32
340
0
  0
BLOCK_RECORD
  5
D7201
330
1
100
AcDbSymbolTableRecord
100
AcDbBlockTableRecord
  2
*D33
340
0
  0
BLOCK_RECORD
  5
D720A
330
1
100
AcDbSymbolTableRecord
100
AcDbBlockTableRecord
  2
*D34
340
0
  0
BLOCK_RECORD
  5
D7213
330
1
100
AcDbSymbolTableRecord
100
AcDbBlockTableRecord
  2
*D35
340
0
  0
BLOCK_RECORD
  5
D721C
330
1
100
AcDbSymbolTableRecord
100
AcDbBlockTableRecord
  2
*D36
340
0
  0
BLOCK_RECORD
  5
D722F
330
1
100
AcDbSymbolTableRecord
100
AcDbBlockTableRecord
  2
*D37
340
0
  0
BLOCK_RECORD
  5
D723D
330
1
100
AcDbSymbolTableRecord
100
AcDbBlockTableRecord
  2
*D38
340
0
  0
BLOCK_RECORD
  5
D724A
330
1
100
AcDbSymbolTableRecord
100
AcDbBlockTableRecord
  2
*D39
340
0
  0
BLOCK_RECORD
  5
D7257
330
1
100
AcDbSymbolTableRecord
100
AcDbBlockTableRecord
  2
*D40
340
0
  0
BLOCK_RECORD
  5
D726F
330
1
100
AcDbSymbolTableRecord
100
AcDbBlockTableRecord
  2
*D41
340
0
  0
BLOCK_RECORD
  5
D727C
330
1
100
AcDbSymbolTableRecord
100
AcDbBlockTableRecord
  2
*D42
340
0
  0
BLOCK_RECORD
  5
D7287
330
1
100
AcDbSymbolTableRecord
100
AcDbBlockTableRecord
  2
*D43
340
0
  0
BLOCK_RECORD
  5
D7294
330
1
100
AcDbSymbolTableRecord
100
AcDbBlockTableRecord
  2
*D44
340
0
  0
BLOCK_RECORD
  5
D72AA
330
1
100
AcDbSymbolTableRecord
100
AcDbBlockTableRecord
  2
*D45
340
0
  0
BLOCK_RECORD
  5
D72B7
330
1
100
AcDbSymbolTableRecord
100
AcDbBlockTableRecord
  2
*D46
340
0
  0
BLOCK_RECORD
  5
D72CD
330
1
100
AcDbSymbolTableRecord
100
AcDbBlockTableRecord
  2
*D47
340
0
  0
BLOCK_RECORD
  5
D72DA
330
1
100
AcDbSymbolTableRecord
100
AcDbBlockTableRecord
  2
*D48
340
0
  0
BLOCK_RECORD
  5
D72F0
330
1
100
AcDbSymbolTableRecord
100
AcDbBlockTableRecord
  2
*D49
340
0
  0
BLOCK_RECORD
  5
D72F9
330
1
100
AcDbSymbolTableRecord
100
AcDbBlockTableRecord
  2
*D50
340
0
  0
BLOCK_RECORD
  5
D7302
330
1
100
AcDbSymbolTableRecord
100
AcDbBlockTableRecord
  2
*D51
340
0
  0
ENDTAB
  0
ENDSEC
  0
SECTION
  2
BLOCKS
  0
BLOCK
  5
20
330
1F
100
AcDbEntity
  8
0
100
AcDbBlockBegin
  2
*Model_Space
 70
     0
 10
0.0
 20
0.0
 30
0.0
  3
*Model_Space
  1

  0
ENDBLK
  5
21
330
1F
100
AcDbEntity
  8
0
100
AcDbBlockEnd
  0
BLOCK
  5
75
330
73
100
AcDbEntity
 67
     1
  8
0
100
AcDbBlockBegin
  2
*Paper_Space
 70
     0
 10
0.0
 20
0.0
 30
0.0
  3
*Paper_Space
  1

  0
ENDBLK
  5
76
330
73
100
AcDbEntity
 67
     1
  8
0
100
AcDbBlockEnd
  0
BLOCK
  5
7A
330
78
100
AcDbEntity
 67
     1
  8
0
100
AcDbBlockBegin
  2
*Paper_Space0
 70
     0
 10
0.0
 20
0.0
 30
0.0
  3
*Paper_Space0
  1

  0
ENDBLK
  5
7B
330
78
100
AcDbEntity
 67
     1
  8
0
100
AcDbBlockEnd
  0
BLOCK
  5
D6F0B
330
D6F0A
100
AcDbEntity
  8
0
 48
5.0
100
AcDbBlockBegin
  2
*D1
 70
     1
 10
0.0
 20
0.0
 30
0.0
  3
*D1
  1

  0
LINE
  5
D6F27
330
D6F0A
100
AcDbEntity
  8
标注
 48
5.0
370
    -2
100
AcDbLine
 10
102599.3727673362
 20
-168838.4571960987
 30
0.0
 11
102599.3727673362
 21
-168864.2519708363
 31
0.0
  0
LINE
  5
D6F28
330
D6F0A
100
AcDbEntity
  8
标注
 48
5.0
370
    -2
100
AcDbLine
 10
102581.3727673462
 20
-168838.4571960988
 30
0.0
 11
102581.3727673462
 21
-168864.2519708363
 31
0.0
  0
LINE
  5
D6F29
330
D6F0A
100
AcDbEntity
  8
标注
 48
5.0
370
    -2
100
AcDbLine
 10
102609.3727673362
 20
-168857.2519708363
 30
0.0
 11
102619.3727673362
 21
-168857.2519708363
 31
0.0
  0
LINE
  5
D6F2A
330
D6F0A
100
AcDbEntity
  8
标注
 48
5.0
370
    -2
100
AcDbLine
 10
102571.3727673462
 20
-168857.2519708363
 30
0.0
 11
102561.3727673462
 21
-168857.2519708363
 31
0.0
  0
LINE
  5
D6F2B
330
D6F0A
100
AcDbEntity
  8
标注
 48
5.0
370
    -2
100
AcDbLine
 10
102599.3727673362
 20
-168857.2519708363
 30
0.0
 11
102581.3727673462
 21
-168857.2519708363
 31
0.0
  0
SOLID
  5
D6F2C
330
D6F0A
100
AcDbEntity
  8
标注
 48
5.0
100
AcDbTrace
 10
102609.3727673362
 20
-168855.5853041696
 30
0.0
 11
102609.3727673362
 21
-168858.918637503
 31
0.0
 12
102599.3727673362
 22
-168857.2519708363
 32
0.0
 13
102599.3727673362
 23
-168857.2519708363
 33
0.0
  0
SOLID
  5
D6F2D
330
D6F0A
100
AcDbEntity
  8
标注
 48
5.0
100
AcDbTrace
 10
102571.3727673462
 20
-168855.5853041696
 30
0.0
 11
102571.3727673462
 21
-168858.918637503
 31
0.0
 12
102581.3727673462
 22
-168857.2519708363
 32
0.0
 13
102581.3727673462
 23
-168857.2519708363
 33
0.0
  0
MTEXT
  5
D6F2E
330
D6F0A
100
AcDbEntity
  8
标注
 48
5.0
100
AcDbMText
 10
102553.8061006795
 20
-168857.2519708363
 30
0.0
 40
12.0
 41
0.0
 71
     5
 72
     1
  1
\A1;18
 73
     1
 44
1.0
1001
ACAD
1000
MTEXTBEGIN
1070
    73
1070
     1
1070
    44
1040
1.0
1070
    74
1070
     0
1000
MTEXTEND
  0
POINT
  5
D6F2F
330
D6F0A
100
AcDbEntity
  8
Defpoints
 62
     0
 48
5.0
100
AcDbPoint
 10
102599.3727673362
 20
-168831.4571960987
 30
0.0
  0
POINT
  5
D6F30
330
D6F0A
100
AcDbEntity
  8
Defpoints
 62
     0
 48
5.0
100
AcDbPoint
 10
102581.3727673462
 20
-168831.4571960988
 30
0.0
  0
POINT
  5
D6F31
330
D6F0A
100
AcDbEntity
  8
Defpoints
 62
     0
 48
5.0
100
AcDbPoint
 10
102581.3727673462
 20
-168857.2519708363
 30
0.0
  0
ENDBLK
  5
D6F0C
330
D6F0A
100
AcDbEntity
  8
0
 48
5.0
100
AcDbBlockEnd
  0
BLOCK
  5
D6F34
330
D6F33
100
AcDbEntity
  8
0
 48
5.0
100
AcDbBlockBegin
  2
*D2
 70
     1
 10
0.0
 20
0.0
 30
0.0
  3
*D2
  1

  0
LINE
  5
D6F41
330
D6F33
100
AcDbEntity
  8
标注
 48
5.0
370
    -2
100
AcDbLine
 10
102599.3727673362
 20
-168838.4571960987
 30
0.0
 11
102599.3727673362
 21
-168864.2519708363
 31
0.0
  0
LINE
  5
D6F42
330
D6F33
100
AcDbEntity
  8
标注
 48
5.0
370
    -2
100
AcDbLine
 10
102929.3727673462
 20
-168838.4571960987
 30
0.0
 11
102929.3727673462
 21
-168864.2519708363
 31
0.0
  0
LINE
  5
D6F43
330
D6F33
100
AcDbEntity
  8
标注
 48
5.0
370
    -2
100
AcDbLine
 10
102609.3727673362
 20
-168857.2519708363
 30
0.0
 11
102752.0061006745
 21
-168857.2519708363
 31
0.0
  0
LINE
  5
D6F44
330
D6F33
100
AcDbEntity
  8
标注
 48
5.0
370
    -2
100
AcDbLine
 10
102919.3727673462
 20
-168857.2519708363
 30
0.0
 11
102776.7394340078
 21
-168857.2519708363
 31
0.0
  0
SOLID
  5
D6F45
330
D6F33
100
AcDbEntity
  8
标注
 48
5.0
100
AcDbTrace
 10
102609.3727673362
 20
-168855.5853041696
 30
0.0
 11
102609.3727673362
 21
-168858.918637503
 31
0.0
 12
102599.3727673362
 22
-168857.2519708363
 32
0.0
 13
102599.3727673362
 23
-168857.2519708363
 33
0.0
  0
SOLID
  5
D6F46
330
D6F33
100
AcDbEntity
  8
标注
 48
5.0
100
AcDbTrace
 10
102919.3727673462
 20
-168855.5853041696
 30
0.0
 11
102919.3727673462
 21
-168858.918637503
 31
0.0
 12
102929.3727673462
 22
-168857.2519708363
 32
0.0
 13
102929.3727673462
 23
-168857.2519708363
 33
0.0
  0
MTEXT
  5
D6F47
330
D6F33
100
AcDbEntity
  8
标注
 48
5.0
100
AcDbMText
 10
102764.3727673412
 20
-168857.2519708363
 30
0.0
 40
12.0
 41
0.0
 71
     5
 72
     1
  1
\A1;330
 73
     1
 44
1.0
1001
ACAD
1000
MTEXTBEGIN
1070
    73
1070
     1
1070
    44
1040
1.0
1070
    74
1070
     0
1000
MTEXTEND
  0
POINT
  5
D6F48
330
D6F33
100
AcDbEntity
  8
Defpoints
 62
     0
 48
5.0
100
AcDbPoint
 10
102599.3727673362
 20
-168831.4571960987
 30
0.0
  0
POINT
  5
D6F49
330
D6F33
100
AcDbEntity
  8
Defpoints
 62
     0
 48
5.0
100
AcDbPoint
 10
102929.3727673462
 20
-168831.4571960987
 30
0.0
  0
POINT
  5
D6F4A
330
D6F33
100
AcDbEntity
  8
Defpoints
 62
     0
 48
5.0
100
AcDbPoint
 10
102929.3727673462
 20
-168857.2519708363
 30
0.0
  0
ENDBLK
  5
D6F35
330
D6F33
100
AcDbEntity
  8
0
 48
5.0
100
AcDbBlockEnd
  0
BLOCK
  5
D6F4E
330
D6F4D
100
AcDbEntity
  8
0
 48
5.0
100
AcDbBlockBegin
  2
*D3
 70
     1
 10
0.0
 20
0.0
 30
0.0
  3
*D3
  1

  0
LINE
  5
D6F66
330
D6F4D
100
AcDbEntity
  8
标注
 48
5.0
370
    -2
100
AcDbLine
 10
102599.3727673362
 20
-168838.4571960987
 30
0.0
 11
102599.3727673362
 21
-168893.7379965963
 31
0.0
  0
LINE
  5
D6F67
330
D6F4D
100
AcDbEntity
  8
标注
 48
5.0
370
    -2
100
AcDbLine
 10
103259.3727673562
 20
-168838.4571960987
 30
0.0
 11
103259.3727673562
 21
-168893.7379965963
 31
0.0
  0
LINE
  5
D6F68
330
D6F4D
100
AcDbEntity
  8
标注
 48
5.0
370
    -2
100
AcDbLine
 10
102609.3727673362
 20
-168886.7379965963
 30
0.0
 11
102750.6727673412
 21
-168886.7379965963
 31
0.0
  0
LINE
  5
D6F69
330
D6F4D
100
AcDbEntity
  8
标注
 48
5.0
370
    -2
100
AcDbLine
 10
103249.3727673561
 20
-168886.7379965963
 30
0.0
 11
102775.6061006745
 21
-168886.7379965963
 31
0.0
  0
SOLID
  5
D6F6A
330
D6F4D
100
AcDbEntity
  8
标注
 48
5.0
100
AcDbTrace
 10
102609.3727673362
 20
-168885.0713299297
 30
0.0
 11
102609.3727673362
 21
-168888.404663263
 31
0.0
 12
102599.3727673362
 22
-168886.7379965963
 32
0.0
 13
102599.3727673362
 23
-168886.7379965963
 33
0.0
  0
SOLID
  5
D6F6B
330
D6F4D
100
AcDbEntity
  8
标注
 48
5.0
100
AcDbTrace
 10
103249.3727673561
 20
-168885.0713299297
 30
0.0
 11
103249.3727673561
 21
-168888.404663263
 31
0.0
 12
103259.3727673562
 22
-168886.7379965963
 32
0.0
 13
103259.3727673562
 23
-168886.7379965963
 33
0.0
  0
MTEXT
  5
D6F6C
330
D6F4D
100
AcDbEntity
  8
标注
 48
5.0
100
AcDbMText
 10
102763.1394340078
 20
-168886.7379965963
 30
0.0
 40
12.0
 41
0.0
 71
     5
 72
     1
  1
\A1;660
 73
     1
 44
1.0
1001
ACAD
1000
MTEXTBEGIN
1070
    73
1070
     1
1070
    44
1040
1.0
1070
    74
1070
     0
1000
MTEXTEND
  0
POINT
  5
D6F6D
330
D6F4D
100
AcDbEntity
  8
Defpoints
 62
     0
 48
5.0
100
AcDbPoint
 10
102599.3727673362
 20
-168831.4571960987
 30
0.0
  0
POINT
  5
D6F6E
330
D6F4D
100
AcDbEntity
  8
Defpoints
 62
     0
 48
5.0
100
AcDbPoint
 10
103259.3727673562
 20
-168831.4571960987
 30
0.0
  0
POINT
  5
D6F6F
330
D6F4D
100
AcDbEntity
  8
Defpoints
 62
     0
 48
5.0
100
AcDbPoint
 10
103259.3727673562
 20
-168886.7379965963
 30
0.0
  0
ENDBLK
  5
D6F4F
330
D6F4D
100
AcDbEntity
  8
0
 48
5.0
100
AcDbBlockEnd
  0
BLOCK
  5
D6F72
330
D6F71
100
AcDbEntity
  8
0
 48
5.0
100
AcDbBlockBegin
  2
*D4
 70
     1
 10
0.0
 20
0.0
 30
0.0
  3
*D4
  1

  0
LINE
  5
D6F8E
330
D6F71
100
AcDbEntity
  8
标注
 48
5.0
370
    -2
100
AcDbLine
 10
102936.3727673462
 20
-169057.4571961088
 30
0.0
 11
102959.7742722811
 21
-169057.4571961088
 31
0.0
  0
LINE
  5
D6F8F
330
D6F71
100
AcDbEntity
  8
标注
 48
5.0
370
    -2
100
AcDbLine
 10
102936.3727673462
 20
-169075.4571960986
 30
0.0
 11
102959.7742722811
 21
-169075.4571960986
 31
0.0
  0
LINE
  5
D6F90
330
D6F71
100
AcDbEntity
  8
标注
 48
5.0
370
    -2
100
AcDbLine
 10
102952.7742722811
 20
-169047.4571961088
 30
0.0
 11
102952.7742722811
 21
-169037.4571961088
 31
0.0
  0
LINE
  5
D6F91
330
D6F71
100
AcDbEntity
  8
标注
 48
5.0
370
    -2
100
AcDbLine
 10
102952.7742722811
 20
-169085.4571960986
 30
0.0
 11
102952.7742722811
 21
-169095.4571960986
 31
0.0
  0
LINE
  5
D6F92
330
D6F71
100
AcDbEntity
  8
标注
 48
5.0
370
    -2
100
AcDbLine
 10
102952.7742722811
 20
-169057.4571961088
 30
0.0
 11
102952.7742722811
 21
-169075.4571960986
 31
0.0
  0
SOLID
  5
D6F93
330
D6F71
100
AcDbEntity
  8
标注
 48
5.0
100
AcDbTrace
 10
102951.1076056144
 20
-169047.4571961088
 30
0.0
 11
102954.4409389478
 21
-169047.4571961088
 31
0.0
 12
102952.7742722811
 22
-169057.4571961088
 32
0.0
 13
102952.7742722811
 23
-169057.4571961088
 33
0.0
  0
SOLID
  5
D6F94
330
D6F71
100
AcDbEntity
  8
标注
 48
5.0
100
AcDbTrace
 10
102951.1076056144
 20
-169085.4571960986
 30
0.0
 11
102954.4409389478
 21
-169085.4571960986
 31
0.0
 12
102952.7742722811
 22
-169075.4571960986
 32
0.0
 13
102952.7742722811
 23
-169075.4571960986
 33
0.0
  0
MTEXT
  5
D6F95
330
D6F71
100
AcDbEntity
  8
标注
 48
5.0
100
AcDbMText
 10
102952.7742722812
 20
-169103.0238627652
 30
0.0
 40
12.0
 41
0.0
 71
     5
 72
     1
  1
\A1;18
 11
0.0000000000000001
 21
1.0
 31
0.0
 73
     1
 44
1.0
1001
ACAD
1000
MTEXTBEGIN
1070
    73
1070
     1
1070
    44
1040
1.0
1070
    74
1070
     0
1000
MTEXTEND
  0
POINT
  5
D6F96
330
D6F71
100
AcDbEntity
  8
Defpoints
 62
     0
 48
5.0
100
AcDbPoint
 10
102929.3727673462
 20
-169057.4571961088
 30
0.0
  0
POINT
  5
D6F97
330
D6F71
100
AcDbEntity
  8
Defpoints
 62
     0
 48
5.0
100
AcDbPoint
 10
102929.3727673462
 20
-169075.4571960986
 30
0.0
  0
POINT
  5
D6F98
330
D6F71
100
AcDbEntity
  8
Defpoints
 62
     0
 48
5.0
100
AcDbPoint
 10
102952.7742722811
 20
-169075.4571960986
 30
0.0
  0
ENDBLK
  5
D6F73
330
D6F71
100
AcDbEntity
  8
0
 48
5.0
100
AcDbBlockEnd
  0
BLOCK
  5
D6F9B
330
D6F9A
100
AcDbEntity
  8
0
 48
5.0
100
AcDbBlockBegin
  2
*D5
 70
     1
 10
0.0
 20
0.0
 30
0.0
  3
*D5
  1

  0
LINE
  5
D6F9D
330
D6F9A
100
AcDbEntity
  8
标注
 48
5.0
370
    -2
100
AcDbLine
 10
102936.3727673462
 20
-169057.4571961088
 30
0.0
 11
102959.7742722811
 21
-169057.4571961088
 31
0.0
  0
LINE
  5
D6F9E
330
D6F9A
100
AcDbEntity
  8
标注
 48
5.0
370
    -2
100
AcDbLine
 10
102936.3727673462
 20
-168831.4571960987
 30
0.0
 11
102959.7742722811
 21
-168831.4571960987
 31
0.0
  0
LINE
  5
D6F9F
330
D6F9A
100
AcDbEntity
  8
标注
 48
5.0
370
    -2
100
AcDbLine
 10
102952.7742722811
 20
-169047.4571961088
 30
0.0
 11
102952.7742722811
 21
-168956.890529437
 31
0.0
  0
LINE
  5
D6FA0
330
D6F9A
100
AcDbEntity
  8
标注
 48
5.0
370
    -2
100
AcDbLine
 10
102952.7742722811
 20
-168841.4571960987
 30
0.0
 11
102952.7742722811
 21
-168932.0238627704
 31
0.0
  0
SOLID
  5
D6FA1
330
D6F9A
100
AcDbEntity
  8
标注
 48
5.0
100
AcDbTrace
 10
102951.1076056144
 20
-169047.4571961088
 30
0.0
 11
102954.4409389478
 21
-169047.4571961088
 31
0.0
 12
102952.7742722811
 22
-169057.4571961088
 32
0.0
 13
102952.7742722811
 23
-169057.4571961088
 33
0.0
  0
SOLID
  5
D6FA2
330
D6F9A
100
AcDbEntity
  8
标注
 48
5.0
100
AcDbTrace
 10
102951.1076056144
 20
-168841.4571960987
 30
0.0
 11
102954.4409389478
 21
-168841.4571960987
 31
0.0
 12
102952.7742722811
 22
-168831.4571960987
 32
0.0
 13
102952.7742722811
 23
-168831.4571960987
 33
0.0
  0
MTEXT
  5
D6FA3
330
D6F9A
100
AcDbEntity
  8
标注
 48
5.0
100
AcDbMText
 10
102952.7742722812
 20
-168944.4571961037
 30
0.0
 40
12.0
 41
0.0
 71
     5
 72
     1
  1
\A1;226
 11
0.0000000000000001
 21
1.0
 31
0.0
 73
     1
 44
1.0
1001
ACAD
1000
MTEXTBEGIN
1070
    73
1070
     1
1070
    44
1040
1.0
1070
    74
1070
     0
1000
MTEXTEND
  0
POINT
  5
D6FA4
330
D6F9A
100
AcDbEntity
  8
Defpoints
 62
     0
 48
5.0
100
AcDbPoint
 10
102929.3727673462
 20
-169057.4571961088
 30
0.0
  0
POINT
  5
D6FA5
330
D6F9A
100
AcDbEntity
  8
Defpoints
 62
     0
 48
5.0
100
AcDbPoint
 10
102929.3727673462
 20
-168831.4571960987
 30
0.0
  0
POINT
  5
D6FA6
330
D6F9A
100
AcDbEntity
  8
Defpoints
 62
     0
 48
5.0
100
AcDbPoint
 10
102952.7742722811
 20
-168831.4571960987
 30
0.0
  0
ENDBLK
  5
D6F9C
330
D6F9A
100
AcDbEntity
  8
0
 48
5.0
100
AcDbBlockEnd
  0
BLOCK
  5
D6FA9
330
D6FA8
100
AcDbEntity
  8
0
 48
5.0
100
AcDbBlockBegin
  2
*D6
 70
     1
 10
0.0
 20
0.0
 30
0.0
  3
*D6
  1

  0
LINE
  5
D6FC1
330
D6FA8
100
AcDbEntity
  8
标注
 48
5.0
370
    -2
100
AcDbLine
 10
102936.3727673462
 20
-169057.4571961088
 30
0.0
 11
102985.3628587116
 21
-169057.4571961088
 31
0.0
  0
LINE
  5
D6FC2
330
D6FA8
100
AcDbEntity
  8
标注
 48
5.0
370
    -2
100
AcDbLine
 10
102936.3727673462
 20
-168619.8076744753
 30
0.0
 11
102985.3628587116
 21
-168619.8076744753
 31
0.0
  0
LINE
  5
D6FC3
330
D6FA8
100
AcDbEntity
  8
标注
 48
5.0
370
    -2
100
AcDbLine
 10
102978.3628587116
 20
-169047.4571961088
 30
0.0
 11
102978.3628587116
 21
-168966.2728725223
 31
0.0
  0
LINE
  5
D6FC4
330
D6FA8
100
AcDbEntity
  8
标注
 48
5.0
370
    -2
100
AcDbLine
 10
102978.3628587116
 20
-168629.8076744754
 30
0.0
 11
102978.3628587116
 21
-168924.0728725224
 31
0.0
  0
SOLID
  5
D6FC5
330
D6FA8
100
AcDbEntity
  8
标注
 48
5.0
100
AcDbTrace
 10
102976.696192045
 20
-169047.4571961088
 30
0.0
 11
102980.0295253783
 21
-169047.4571961088
 31
0.0
 12
102978.3628587116
 22
-169057.4571961088
 32
0.0
 13
102978.3628587116
 23
-169057.4571961088
 33
0.0
  0
SOLID
  5
D6FC6
330
D6FA8
100
AcDbEntity
  8
标注
 48
5.0
100
AcDbTrace
 10
102976.696192045
 20
-168629.8076744754
 30
0.0
 11
102980.0295253783
 21
-168629.8076744754
 31
0.0
 12
102978.3628587116
 22
-168619.8076744753
 32
0.0
 13
102978.3628587116
 23
-168619.8076744753
 33
0.0
  0
MTEXT
  5
D6FC7
330
D6FA8
100
AcDbEntity
  8
标注
 48
5.0
100
AcDbMText
 10
102978.3628587117
 20
-168945.1728725223
 30
0.0
 40
12.0
 41
0.0
 71
     5
 72
     1
  1
\A1;437,6
 11
0.0000000000000001
 21
1.0
 31
0.0
 73
     1
 44
1.0
1001
ACAD
1000
MTEXTBEGIN
1070
    73
1070
     1
1070
    44
1040
1.0
1070
    74
1070
     0
1000
MTEXTEND
  0
POINT
  5
D6FC8
330
D6FA8
100
AcDbEntity
  8
Defpoints
 62
     0
 48
5.0
100
AcDbPoint
 10
102929.3727673462
 20
-169057.4571961088
 30
0.0
  0
POINT
  5
D6FC9
330
D6FA8
100
AcDbEntity
  8
Defpoints
 62
     0
 48
5.0
100
AcDbPoint
 10
102929.3727673462
 20
-168619.8076744753
 30
0.0
  0
POINT
  5
D6FCA
330
D6FA8
100
AcDbEntity
  8
Defpoints
 62
     0
 48
5.0
100
AcDbPoint
 10
102978.3628587116
 20
-168619.8076744753
 30
0.0
  0
ENDBLK
  5
D6FAA
330
D6FA8
100
AcDbEntity
  8
0
 48
5.0
100
AcDbBlockEnd
  0
BLOCK
  5
D6FCD
330
D6FCC
100
AcDbEntity
  8
0
 48
5.0
100
AcDbBlockBegin
  2
*D7
 70
     1
 10
0.0
 20
0.0
 30
0.0
  3
*D7
  1

  0
LINE
  5
D6FE1
330
D6FCC
100
AcDbEntity
  8
标注
 48
5.0
370
    -2
100
AcDbLine
 10
102913.3980405234
 20
-168814.9100482194
 30
0.0
 11
102920.3435739246
 21
-168822.1044603408
 31
0.0
  0
LINE
  5
D6FE2
330
D6FCC
100
AcDbEntity
  8
标注
 48
5.0
370
    -2
100
AcDbLine
 10
102938.4019607678
 20
-168840.8099318565
 30
0.0
 11
102945.347494169
 21
-168848.0043439779
 31
0.0
  0
MTEXT
  5
D6FE3
102
{ACAD_XDICTIONARY
360
D74F9
102
}
330
D6FCC
100
AcDbEntity
  8
标注
 48
5.0
100
AcDbMText
 10
102899.1282525588
 20
-168800.1289321306
 30
0.0
 40
12.0
 41
0.0
 71
     5
 72
     1
  1
\A1;{\fGulim|b0|i0|c129|p34;5-\U+22056}
 11
0.6945533401218601
 21
-0.7194412121400663
 31
0.0
 73
     1
 44
1.0
1001
ACAD
1000
MTEXTBEGIN
1070
    73
1070
     1
1070
    44
1040
1.0
1070
    74
1070
     0
1000
MTEXTEND
  0
LINE
  5
D6FE4
330
D6FCC
100
AcDbEntity
  8
标注
 48
5.0
370
    -2
100
AcDbLine
 10
102931.4564273665
 20
-168833.6155197351
 30
0.0
 11
102927.2891073258
 21
-168829.2988724622
 31
0.0
  0
SOLID
  5
D6FE5
330
D6FCC
100
AcDbEntity
  8
标注
 48
5.0
100
AcDbTrace
 10
102939.6010294546
 20
-168839.6523429563
 30
0.0
 11
102937.2028920809
 21
-168841.9675207567
 31
0.0
 12
102931.4564273665
 22
-168833.6155197351
 32
0.0
 13
102931.4564273665
 23
-168833.6155197351
 33
0.0
  0
SOLID
  5
D6FE6
330
D6FCC
100
AcDbEntity
  8
标注
 48
5.0
100
AcDbTrace
 10
102921.5426426115
 20
-168820.9468714407
 30
0.0
 11
102919.1445052377
 21
-168823.2620492411
 31
0.0
 12
102927.2891073258
 22
-168829.2988724622
 32
0.0
 13
102927.2891073258
 23
-168829.2988724622
 33
0.0
  0
POINT
  5
D6FE7
330
D6FCC
100
AcDbEntity
  8
Defpoints
 62
     0
 48
5.0
100
AcDbPoint
 10
102927.2891073258
 20
-168829.2988724622
 30
0.0
  0
POINT
  5
D6FE8
330
D6FCC
100
AcDbEntity
  8
Defpoints
 62
     0
 48
5.0
100
AcDbPoint
 10
102931.4564273665
 20
-168833.6155197351
 30
0.0
  0
ENDBLK
  5
D6FCE
330
D6FCC
100
AcDbEntity
  8
0
 48
5.0
100
AcDbBlockEnd
  0
BLOCK
  5
D6FEB
330
D6FEA
100
AcDbEntity
  8
0
 48
5.0
100
AcDbBlockBegin
  2
*D8
 70
     1
 10
0.0
 20
0.0
 30
0.0
  3
*D8
  1

  0
LINE
  5
D6FF8
330
D6FEA
100
AcDbEntity
  8
标注
 48
5.0
370
    -2
100
AcDbLine
 10
102585.3727673462
 20
-168838.4571960987
 30
0.0
 11
102585.3727673462
 21
-169133.7433283951
 31
0.0
  0
LINE
  5
D6FF9
330
D6FEA
100
AcDbEntity
  8
标注
 48
5.0
370
    -2
100
AcDbLine
 10
103273.3727673462
 20
-168997.4571960985
 30
0.0
 11
103273.3727673462
 21
-169133.7433283951
 31
0.0
  0
LINE
  5
D6FFA
330
D6FEA
100
AcDbEntity
  8
标注
 48
5.0
370
    -2
100
AcDbLine
 10
102595.3727673462
 20
-169126.7433283951
 30
0.0
 11
102916.9727673462
 21
-169126.7433283951
 31
0.0
  0
LINE
  5
D6FFB
330
D6FEA
100
AcDbEntity
  8
标注
 48
5.0
370
    -2
100
AcDbLine
 10
103263.3727673462
 20
-169126.7433283951
 30
0.0
 11
102941.7727673462
 21
-169126.7433283951
 31
0.0
  0
SOLID
  5
D6FFC
330
D6FEA
100
AcDbEntity
  8
标注
 48
5.0
100
AcDbTrace
 10
102595.3727673462
 20
-169125.0766617285
 30
0.0
 11
102595.3727673462
 21
-169128.4099950618
 31
0.0
 12
102585.3727673462
 22
-169126.7433283951
 32
0.0
 13
102585.3727673462
 23
-169126.7433283951
 33
0.0
  0
SOLID
  5
D6FFD
330
D6FEA
100
AcDbEntity
  8
标注
 48
5.0
100
AcDbTrace
 10
103263.3727673462
 20
-169125.0766617285
 30
0.0
 11
103263.3727673462
 21
-169128.4099950618
 31
0.0
 12
103273.3727673462
 22
-169126.7433283951
 32
0.0
 13
103273.3727673462
 23
-169126.7433283951
 33
0.0
  0
MTEXT
  5
D6FFE
330
D6FEA
100
AcDbEntity
  8
标注
 48
5.0
100
AcDbMText
 10
102929.3727673462
 20
-169126.7433283951
 30
0.0
 40
12.0
 41
0.0
 71
     5
 72
     1
  1
\A1;688
 73
     1
 44
1.0
1001
ACAD
1000
MTEXTBEGIN
1070
    73
1070
     1
1070
    44
1040
1.0
1070
    74
1070
     0
1000
MTEXTEND
  0
POINT
  5
D6FFF
330
D6FEA
100
AcDbEntity
  8
Defpoints
 62
     0
 48
5.0
100
AcDbPoint
 10
102585.3727673462
 20
-168831.4571960987
 30
0.0
  0
POINT
  5
D7000
330
D6FEA
100
AcDbEntity
  8
Defpoints
 62
     0
 48
5.0
100
AcDbPoint
 10
103273.3727673462
 20
-168990.4571960985
 30
0.0
  0
POINT
  5
D7001
330
D6FEA
100
AcDbEntity
  8
Defpoints
 62
     0
 48
5.0
100
AcDbPoint
 10
103273.3727673462
 20
-169126.7433283951
 30
0.0
  0
ENDBLK
  5
D6FEC
330
D6FEA
100
AcDbEntity
  8
0
 48
5.0
100
AcDbBlockEnd
  0
BLOCK
  5
D7005
330
D7004
100
AcDbEntity
  8
0
 48
5.0
100
AcDbBlockBegin
  2
*D9
 70
     1
 10
0.0
 20
0.0
 30
0.0
  3
*D9
  1

  0
LINE
  5
D7012
330
D7004
100
AcDbEntity
  8
标注
 48
5.0
370
    -2
100
AcDbLine
 10
102581.3727673462
 20
-168845.4571960988
 30
0.0
 11
102581.3727673462
 21
-169161.014296807
 31
0.0
  0
LINE
  5
D7013
330
D7004
100
AcDbEntity
  8
标注
 48
5.0
370
    -2
100
AcDbLine
 10
103277.3727673462
 20
-168997.4571960985
 30
0.0
 11
103277.3727673462
 21
-169161.014296807
 31
0.0
  0
LINE
  5
D7014
330
D7004
100
AcDbEntity
  8
标注
 48
5.0
370
    -2
100
AcDbLine
 10
102591.3727673462
 20
-169154.014296807
 30
0.0
 11
102916.9061006795
 21
-169154.014296807
 31
0.0
  0
LINE
  5
D7015
330
D7004
100
AcDbEntity
  8
标注
 48
5.0
370
    -2
100
AcDbLine
 10
103267.3727673462
 20
-169154.014296807
 30
0.0
 11
102941.8394340128
 21
-169154.014296807
 31
0.0
  0
SOLID
  5
D7016
330
D7004
100
AcDbEntity
  8
标注
 48
5.0
100
AcDbTrace
 10
102591.3727673462
 20
-169152.3476301403
 30
0.0
 11
102591.3727673462
 21
-169155.6809634737
 31
0.0
 12
102581.3727673462
 22
-169154.014296807
 32
0.0
 13
102581.3727673462
 23
-169154.014296807
 33
0.0
  0
SOLID
  5
D7017
330
D7004
100
AcDbEntity
  8
标注
 48
5.0
100
AcDbTrace
 10
103267.3727673462
 20
-169152.3476301403
 30
0.0
 11
103267.3727673462
 21
-169155.6809634737
 31
0.0
 12
103277.3727673462
 22
-169154.014296807
 32
0.0
 13
103277.3727673462
 23
-169154.014296807
 33
0.0
  0
MTEXT
  5
D7018
330
D7004
100
AcDbEntity
  8
标注
 48
5.0
100
AcDbMText
 10
102929.3727673462
 20
-169154.014296807
 30
0.0
 40
12.0
 41
0.0
 71
     5
 72
     1
  1
\A1;696
 73
     1
 44
1.0
1001
ACAD
1000
MTEXTBEGIN
1070
    73
1070
     1
1070
    44
1040
1.0
1070
    74
1070
     0
1000
MTEXTEND
  0
POINT
  5
D7019
330
D7004
100
AcDbEntity
  8
Defpoints
 62
     0
 48
5.0
100
AcDbPoint
 10
102581.3727673462
 20
-168838.4571960988
 30
0.0
  0
POINT
  5
D701A
330
D7004
100
AcDbEntity
  8
Defpoints
 62
     0
 48
5.0
100
AcDbPoint
 10
103277.3727673462
 20
-168990.4571960985
 30
0.0
  0
POINT
  5
D701B
330
D7004
100
AcDbEntity
  8
Defpoints
 62
     0
 48
5.0
100
AcDbPoint
 10
103277.3727673462
 20
-169154.014296807
 30
0.0
  0
ENDBLK
  5
D7006
330
D7004
100
AcDbEntity
  8
0
 48
5.0
100
AcDbBlockEnd
  0
BLOCK
  5
D701F
330
D701E
100
AcDbEntity
  8
0
 48
5.0
100
AcDbBlockBegin
  2
*D10
 70
     1
 10
0.0
 20
0.0
 30
0.0
  3
*D10
  1

  0
LINE
  5
D7021
330
D701E
100
AcDbEntity
  8
标注
 48
5.0
370
    -2
100
AcDbLine
 10
103263.3727673462
 20
-169126.7433283951
 30
0.0
 11
103253.3727673462
 21
-169126.7433283951
 31
0.0
  0
LINE
  5
D7022
330
D701E
100
AcDbEntity
  8
标注
 48
5.0
370
    -2
100
AcDbLine
 10
103287.3727673462
 20
-169126.7433283951
 30
0.0
 11
103297.3727673462
 21
-169126.7433283951
 31
0.0
  0
LINE
  5
D7023
330
D701E
100
AcDbEntity
  8
标注
 48
5.0
370
    -2
100
AcDbLine
 10
103273.3727673462
 20
-169126.7433283951
 30
0.0
 11
103277.3727673462
 21
-169126.7433283951
 31
0.0
  0
SOLID
  5
D7024
330
D701E
100
AcDbEntity
  8
标注
 48
5.0
100
AcDbTrace
 10
103263.3727673462
 20
-169125.0766617285
 30
0.0
 11
103263.3727673462
 21
-169128.4099950618
 31
0.0
 12
103273.3727673462
 22
-169126.7433283951
 32
0.0
 13
103273.3727673462
 23
-169126.7433283951
 33
0.0
  0
SOLID
  5
D7025
330
D701E
100
AcDbEntity
  8
标注
 48
5.0
100
AcDbTrace
 10
103287.3727673462
 20
-169125.0766617285
 30
0.0
 11
103287.3727673462
 21
-169128.4099950618
 31
0.0
 12
103277.3727673462
 22
-169126.7433283951
 32
0.0
 13
103277.3727673462
 23
-169126.7433283951
 33
0.0
  0
MTEXT
  5
D7026
330
D701E
100
AcDbEntity
  8
标注
 48
5.0
100
AcDbMText
 10
103301.5394340128
 20
-169126.7433283951
 30
0.0
 40
12.0
 41
0.0
 71
     5
 72
     1
  1
\A1;4
 73
     1
 44
1.0
1001
ACAD
1000
MTEXTBEGIN
1070
    73
1070
     1
1070
    44
1040
1.0
1070
    74
1070
     0
1000
MTEXTEND
  0
POINT
  5
D7027
330
D701E
100
AcDbEntity
  8
Defpoints
 62
     0
 48
5.0
100
AcDbPoint
 10
103273.3727673462
 20
-169126.7433283951
 30
0.0
  0
POINT
  5
D7028
330
D701E
100
AcDbEntity
  8
Defpoints
 62
     0
 48
5.0
100
AcDbPoint
 10
103277.3727673462
 20
-169126.7433283951
 30
0.0
  0
POINT
  5
D7029
330
D701E
100
AcDbEntity
  8
Defpoints
 62
     0
 48
5.0
100
AcDbPoint
 10
103277.3727673462
 20
-169126.7433283951
 30
0.0
  0
ENDBLK
  5
D7020
330
D701E
100
AcDbEntity
  8
0
 48
5.0
100
AcDbBlockEnd
  0
BLOCK
  5
D702C
330
D702B
100
AcDbEntity
  8
0
 48
5.0
100
AcDbBlockBegin
  2
*D11
 70
     1
 10
0.0
 20
0.0
 30
0.0
  3
*D11
  1

  0
LINE
  5
D7039
330
D702B
100
AcDbEntity
  8
标注
 48
5.0
370
    -2
100
AcDbLine
 10
103199.3727673462
 20
-169071.4571960985
 30
0.0
 11
103321.3404149021
 21
-169071.4571960985
 31
0.0
  0
LINE
  5
D703A
330
D702B
100
AcDbEntity
  8
标注
 48
5.0
370
    -2
100
AcDbLine
 10
103199.3727673462
 20
-168643.4571960985
 30
0.0
 11
103321.3404149021
 21
-168643.4571960985
 31
0.0
  0
LINE
  5
D703B
330
D702B
100
AcDbEntity
  8
标注
 48
5.0
370
    -2
100
AcDbLine
 10
103314.3404149021
 20
-169061.4571960985
 30
0.0
 11
103314.3404149021
 21
-168869.9571960986
 31
0.0
  0
LINE
  5
D703C
330
D702B
100
AcDbEntity
  8
标注
 48
5.0
370
    -2
100
AcDbLine
 10
103314.3404149021
 20
-168653.4571960985
 30
0.0
 11
103314.3404149021
 21
-168844.9571960985
 31
0.0
  0
SOLID
  5
D703D
330
D702B
100
AcDbEntity
  8
标注
 48
5.0
100
AcDbTrace
 10
103312.6737482355
 20
-169061.4571960985
 30
0.0
 11
103316.0070815688
 21
-169061.4571960985
 31
0.0
 12
103314.3404149021
 22
-169071.4571960985
 32
0.0
 13
103314.3404149021
 23
-169071.4571960985
 33
0.0
  0
SOLID
  5
D703E
330
D702B
100
AcDbEntity
  8
标注
 48
5.0
100
AcDbTrace
 10
103312.6737482355
 20
-168653.4571960985
 30
0.0
 11
103316.0070815688
 21
-168653.4571960985
 31
0.0
 12
103314.3404149021
 22
-168643.4571960985
 32
0.0
 13
103314.3404149021
 23
-168643.4571960985
 33
0.0
  0
MTEXT
  5
D703F
330
D702B
100
AcDbEntity
  8
标注
 48
5.0
100
AcDbMText
 10
103314.3404149022
 20
-168857.4571960985
 30
0.0
 40
12.0
 41
0.0
 71
     5
 72
     1
  1
\A1;428
 11
0.0000000000000001
 21
1.0
 31
0.0
 73
     1
 44
1.0
1001
ACAD
1000
MTEXTBEGIN
1070
    73
1070
     1
1070
    44
1040
1.0
1070
    74
1070
     0
1000
MTEXTEND
  0
POINT
  5
D7040
330
D702B
100
AcDbEntity
  8
Defpoints
 62
     0
 48
5.0
100
AcDbPoint
 10
103192.3727673462
 20
-169071.4571960985
 30
0.0
  0
POINT
  5
D7041
330
D702B
100
AcDbEntity
  8
Defpoints
 62
     0
 48
5.0
100
AcDbPoint
 10
103192.3727673462
 20
-168643.4571960985
 30
0.0
  0
POINT
  5
D7042
330
D702B
100
AcDbEntity
  8
Defpoints
 62
     0
 48
5.0
100
AcDbPoint
 10
103314.3404149021
 20
-168643.4571960985
 30
0.0
  0
ENDBLK
  5
D702D
330
D702B
100
AcDbEntity
  8
0
 48
5.0
100
AcDbBlockEnd
  0
BLOCK
  5
D7046
330
D7045
100
AcDbEntity
  8
0
 48
5.0
100
AcDbBlockBegin
  2
*D12
 70
     1
 10
0.0
 20
0.0
 30
0.0
  3
*D12
  1

  0
LINE
  5
D7075
330
D7045
100
AcDbEntity
  8
标注
 48
5.0
370
    -2
100
AcDbLine
 10
103199.3727673462
 20
-169075.4571960986
 30
0.0
 11
103340.7166475601
 21
-169075.4571960986
 31
0.0
  0
LINE
  5
D7076
330
D7045
100
AcDbEntity
  8
标注
 48
5.0
370
    -2
100
AcDbLine
 10
103199.3727673462
 20
-168639.4571960985
 30
0.0
 11
103340.7166475601
 21
-168639.4571960985
 31
0.0
  0
LINE
  5
D7077
330
D7045
100
AcDbEntity
  8
标注
 48
5.0
370
    -2
100
AcDbLine
 10
103333.7166475601
 20
-169065.4571960985
 30
0.0
 11
103333.7166475601
 21
-168871.3093039739
 31
0.0
  0
LINE
  5
D7078
330
D7045
100
AcDbEntity
  8
标注
 48
5.0
370
    -2
100
AcDbLine
 10
103333.7166475601
 20
-168649.4571960986
 30
0.0
 11
103333.7166475601
 21
-168846.1759706405
 31
0.0
  0
SOLID
  5
D7079
330
D7045
100
AcDbEntity
  8
标注
 48
5.0
100
AcDbTrace
 10
103332.0499808934
 20
-169065.4571960985
 30
0.0
 11
103335.3833142268
 21
-169065.4571960985
 31
0.0
 12
103333.7166475601
 22
-169075.4571960986
 32
0.0
 13
103333.7166475601
 23
-169075.4571960986
 33
0.0
  0
SOLID
  5
D707A
330
D7045
100
AcDbEntity
  8
标注
 48
5.0
100
AcDbTrace
 10
103332.0499808934
 20
-168649.4571960986
 30
0.0
 11
103335.3833142268
 21
-168649.4571960986
 31
0.0
 12
103333.7166475601
 22
-168639.4571960985
 32
0.0
 13
103333.7166475601
 23
-168639.4571960985
 33
0.0
  0
MTEXT
  5
D707B
330
D7045
100
AcDbEntity
  8
标注
 48
5.0
100
AcDbMText
 10
103333.7166475601
 20
-168858.7426373072
 30
0.0
 40
12.0
 41
0.0
 71
     5
 72
     1
  1
\A1;436
 11
0.0000000000000001
 21
1.0
 31
0.0
 73
     1
 44
1.0
1001
ACAD
1000
MTEXTBEGIN
1070
    73
1070
     1
1070
    44
1040
1.0
1070
    74
1070
     0
1000
MTEXTEND
  0
POINT
  5
D707C
330
D7045
100
AcDbEntity
  8
Defpoints
 62
     0
 48
5.0
100
AcDbPoint
 10
103192.3727673462
 20
-169075.4571960986
 30
0.0
  0
POINT
  5
D707D
330
D7045
100
AcDbEntity
  8
Defpoints
 62
     0
 48
5.0
100
AcDbPoint
 10
103192.3727673462
 20
-168639.4571960985
 30
0.0
  0
POINT
  5
D707E
330
D7045
100
AcDbEntity
  8
Defpoints
 62
     0
 48
5.0
100
AcDbPoint
 10
103333.7166475601
 20
-168639.4571960985
 30
0.0
  0
ENDBLK
  5
D7047
330
D7045
100
AcDbEntity
  8
0
 48
5.0
100
AcDbBlockEnd
  0
BLOCK
  5
D7060
330
D705F
100
AcDbEntity
  8
0
 48
5.0
100
AcDbBlockBegin
  2
*D13
 70
     1
 10
0.0
 20
0.0
 30
0.0
  3
*D13
  1

  0
LINE
  5
D7062
330
D705F
100
AcDbEntity
  8
标注
 48
5.0
370
    -2
100
AcDbLine
 10
103314.3404149021
 20
-168653.4571960985
 30
0.0
 11
103314.3404149021
 21
-168663.4571960986
 31
0.0
  0
LINE
  5
D7063
330
D705F
100
AcDbEntity
  8
标注
 48
5.0
370
    -2
100
AcDbLine
 10
103314.3404149021
 20
-168629.4571960985
 30
0.0
 11
103314.3404149021
 21
-168619.4571960985
 31
0.0
  0
LINE
  5
D7064
330
D705F
100
AcDbEntity
  8
标注
 48
5.0
370
    -2
100
AcDbLine
 10
103314.3404149021
 20
-168643.4571960985
 30
0.0
 11
103314.3404149021
 21
-168639.4571960985
 31
0.0
  0
SOLID
  5
D7065
330
D705F
100
AcDbEntity
  8
标注
 48
5.0
100
AcDbTrace
 10
103312.6737482355
 20
-168653.4571960985
 30
0.0
 11
103316.0070815688
 21
-168653.4571960985
 31
0.0
 12
103314.3404149021
 22
-168643.4571960985
 32
0.0
 13
103314.3404149021
 23
-168643.4571960985
 33
0.0
  0
SOLID
  5
D7066
330
D705F
100
AcDbEntity
  8
标注
 48
5.0
100
AcDbTrace
 10
103312.6737482355
 20
-168629.4571960985
 30
0.0
 11
103316.0070815688
 21
-168629.4571960985
 31
0.0
 12
103314.3404149021
 22
-168639.4571960985
 32
0.0
 13
103314.3404149021
 23
-168639.4571960985
 33
0.0
  0
MTEXT
  5
D7067
330
D705F
100
AcDbEntity
  8
标注
 48
5.0
100
AcDbMText
 10
103314.3404149022
 20
-168615.2905294318
 30
0.0
 40
12.0
 41
0.0
 71
     5
 72
     1
  1
\A1;4
 11
0.0000000000000001
 21
1.0
 31
0.0
 73
     1
 44
1.0
1001
ACAD
1000
MTEXTBEGIN
1070
    73
1070
     1
1070
    44
1040
1.0
1070
    74
1070
     0
1000
MTEXTEND
  0
POINT
  5
D7068
330
D705F
100
AcDbEntity
  8
Defpoints
 62
     0
 48
5.0
100
AcDbPoint
 10
103314.3404149021
 20
-168643.4571960985
 30
0.0
  0
POINT
  5
D7069
330
D705F
100
AcDbEntity
  8
Defpoints
 62
     0
 48
5.0
100
AcDbPoint
 10
103314.3404149021
 20
-168639.4571960985
 30
0.0
  0
POINT
  5
D706A
330
D705F
100
AcDbEntity
  8
Defpoints
 62
     0
 48
5.0
100
AcDbPoint
 10
103314.3404149021
 20
-168639.4571960985
 30
0.0
  0
ENDBLK
  5
D7061
330
D705F
100
AcDbEntity
  8
0
 48
5.0
100
AcDbBlockEnd
  0
BLOCK
  5
D7081
330
D7080
100
AcDbEntity
  8
0
 48
5.0
100
AcDbBlockBegin
  2
*D14
 70
     1
 10
0.0
 20
0.0
 30
0.0
  3
*D14
  1

  0
LINE
  5
D708E
330
D7080
100
AcDbEntity
  8
标注
 48
5.0
370
    -2
100
AcDbLine
 10
102780.3727673462
 20
-169071.4571960988
 30
0.0
 11
102522.0879326495
 21
-169071.4571960988
 31
0.0
  0
LINE
  5
D708F
330
D7080
100
AcDbEntity
  8
标注
 48
5.0
370
    -2
100
AcDbLine
 10
102780.3727673463
 20
-168591.4571960986
 30
0.0
 11
102522.0879326495
 21
-168591.4571960986
 31
0.0
  0
LINE
  5
D7090
330
D7080
100
AcDbEntity
  8
标注
 48
5.0
370
    -2
100
AcDbLine
 10
102529.0879326495
 20
-169061.4571960988
 30
0.0
 11
102529.0879326495
 21
-168844.0238627653
 31
0.0
  0
LINE
  5
D7091
330
D7080
100
AcDbEntity
  8
标注
 48
5.0
370
    -2
100
AcDbLine
 10
102529.0879326495
 20
-168601.4571960986
 30
0.0
 11
102529.0879326495
 21
-168818.8905294319
 31
0.0
  0
SOLID
  5
D7092
330
D7080
100
AcDbEntity
  8
标注
 48
5.0
100
AcDbTrace
 10
102527.4212659828
 20
-169061.4571960988
 30
0.0
 11
102530.7545993162
 21
-169061.4571960988
 31
0.0
 12
102529.0879326495
 22
-169071.4571960988
 32
0.0
 13
102529.0879326495
 23
-169071.4571960988
 33
0.0
  0
SOLID
  5
D7093
330
D7080
100
AcDbEntity
  8
标注
 48
5.0
100
AcDbTrace
 10
102527.4212659828
 20
-168601.4571960986
 30
0.0
 11
102530.7545993162
 21
-168601.4571960986
 31
0.0
 12
102529.0879326495
 22
-168591.4571960986
 32
0.0
 13
102529.0879326495
 23
-168591.4571960986
 33
0.0
  0
MTEXT
  5
D7094
330
D7080
100
AcDbEntity
  8
标注
 48
5.0
100
AcDbMText
 10
102529.0879326496
 20
-168831.4571960986
 30
0.0
 40
12.0
 41
0.0
 71
     5
 72
     1
  1
\A1;480
 11
0.0000000000000001
 21
1.0
 31
0.0
 73
     1
 44
1.0
1001
ACAD
1000
MTEXTBEGIN
1070
    73
1070
     1
1070
    44
1040
1.0
1070
    74
1070
     0
1000
MTEXTEND
  0
POINT
  5
D7095
330
D7080
100
AcDbEntity
  8
Defpoints
 62
     0
 48
5.0
100
AcDbPoint
 10
102787.3727673462
 20
-169071.4571960988
 30
0.0
  0
POINT
  5
D7096
330
D7080
100
AcDbEntity
  8
Defpoints
 62
     0
 48
5.0
100
AcDbPoint
 10
102787.3727673463
 20
-168591.4571960986
 30
0.0
  0
POINT
  5
D7097
330
D7080
100
AcDbEntity
  8
Defpoints
 62
     0
 48
5.0
100
AcDbPoint
 10
102529.0879326495
 20
-168591.4571960986
 30
0.0
  0
ENDBLK
  5
D7082
330
D7080
100
AcDbEntity
  8
0
 48
5.0
100
AcDbBlockEnd
  0
BLOCK
  5
D709B
330
D709A
100
AcDbEntity
  8
0
 48
5.0
100
AcDbBlockBegin
  2
*D15
 70
     1
 10
0.0
 20
0.0
 30
0.0
  3
*D15
  1

  0
LINE
  5
D70A8
330
D709A
100
AcDbEntity
  8
标注
 48
5.0
370
    -2
100
AcDbLine
 10
102780.3735246189
 20
-169075.4571960986
 30
0.0
 11
102496.1651437395
 21
-169075.4571960986
 31
0.0
  0
LINE
  5
D70A9
330
D709A
100
AcDbEntity
  8
标注
 48
5.0
370
    -2
100
AcDbLine
 10
102780.3739774977
 20
-168587.4571960991
 30
0.0
 11
102496.1651437395
 21
-168587.4571960991
 31
0.0
  0
LINE
  5
D70AA
330
D709A
100
AcDbEntity
  8
标注
 48
5.0
370
    -2
100
AcDbLine
 10
102503.1651437395
 20
-169065.4571960986
 30
0.0
 11
102503.1651437395
 21
-168843.9571960988
 31
0.0
  0
LINE
  5
D70AB
330
D709A
100
AcDbEntity
  8
标注
 48
5.0
370
    -2
100
AcDbLine
 10
102503.1651437395
 20
-168597.4571960991
 30
0.0
 11
102503.1651437395
 21
-168818.9571960988
 31
0.0
  0
SOLID
  5
D70AC
330
D709A
100
AcDbEntity
  8
标注
 48
5.0
100
AcDbTrace
 10
102501.4984770729
 20
-169065.4571960986
 30
0.0
 11
102504.8318104062
 21
-169065.4571960986
 31
0.0
 12
102503.1651437395
 22
-169075.4571960986
 32
0.0
 13
102503.1651437395
 23
-169075.4571960986
 33
0.0
  0
SOLID
  5
D70AD
330
D709A
100
AcDbEntity
  8
标注
 48
5.0
100
AcDbTrace
 10
102501.4984770729
 20
-168597.4571960991
 30
0.0
 11
102504.8318104062
 21
-168597.4571960991
 31
0.0
 12
102503.1651437395
 22
-168587.4571960991
 32
0.0
 13
102503.1651437395
 23
-168587.4571960991
 33
0.0
  0
MTEXT
  5
D70AE
330
D709A
100
AcDbEntity
  8
标注
 48
5.0
100
AcDbMText
 10
102503.1651437396
 20
-168831.4571960988
 30
0.0
 40
12.0
 41
0.0
 71
     5
 72
     1
  1
\A1;488
 11
0.0000000000000001
 21
1.0
 31
0.0
 73
     1
 44
1.0
1001
ACAD
1000
MTEXTBEGIN
1070
    73
1070
     1
1070
    44
1040
1.0
1070
    74
1070
     0
1000
MTEXTEND
  0
POINT
  5
D70AF
330
D709A
100
AcDbEntity
  8
Defpoints
 62
     0
 48
5.0
100
AcDbPoint
 10
102787.3735246189
 20
-169075.4571960986
 30
0.0
  0
POINT
  5
D70B0
330
D709A
100
AcDbEntity
  8
Defpoints
 62
     0
 48
5.0
100
AcDbPoint
 10
102787.3739774977
 20
-168587.4571960991
 30
0.0
  0
POINT
  5
D70B1
330
D709A
100
AcDbEntity
  8
Defpoints
 62
     0
 48
5.0
100
AcDbPoint
 10
102503.1651437395
 20
-168587.4571960991
 30
0.0
  0
ENDBLK
  5
D709C
330
D709A
100
AcDbEntity
  8
0
 48
5.0
100
AcDbBlockEnd
  0
BLOCK
  5
D70B5
330
D70B4
100
AcDbEntity
  8
0
 48
5.0
100
AcDbBlockBegin
  2
*D16
 70
     1
 10
0.0
 20
0.0
 30
0.0
  3
*D16
  1

  0
LINE
  5
D70B7
330
D70B4
100
AcDbEntity
  8
标注
 48
5.0
370
    -2
100
AcDbLine
 10
102529.0879326495
 20
-168601.4571960986
 30
0.0
 11
102529.0879326495
 21
-168611.4571960986
 31
0.0
  0
LINE
  5
D70B8
330
D70B4
100
AcDbEntity
  8
标注
 48
5.0
370
    -2
100
AcDbLine
 10
102529.0879326495
 20
-168577.4571960991
 30
0.0
 11
102529.0879326495
 21
-168567.4571960991
 31
0.0
  0
LINE
  5
D70B9
330
D70B4
100
AcDbEntity
  8
标注
 48
5.0
370
    -2
100
AcDbLine
 10
102529.0879326495
 20
-168591.4571960986
 30
0.0
 11
102529.0879326495
 21
-168587.4571960991
 31
0.0
  0
SOLID
  5
D70BA
330
D70B4
100
AcDbEntity
  8
标注
 48
5.0
100
AcDbTrace
 10
102527.4212659828
 20
-168601.4571960986
 30
0.0
 11
102530.7545993162
 21
-168601.4571960986
 31
0.0
 12
102529.0879326495
 22
-168591.4571960986
 32
0.0
 13
102529.0879326495
 23
-168591.4571960986
 33
0.0
  0
SOLID
  5
D70BB
330
D70B4
100
AcDbEntity
  8
标注
 48
5.0
100
AcDbTrace
 10
102527.4212659828
 20
-168577.4571960991
 30
0.0
 11
102530.7545993162
 21
-168577.4571960991
 31
0.0
 12
102529.0879326495
 22
-168587.4571960991
 32
0.0
 13
102529.0879326495
 23
-168587.4571960991
 33
0.0
  0
MTEXT
  5
D70BC
330
D70B4
100
AcDbEntity
  8
标注
 48
5.0
100
AcDbMText
 10
102529.0879326496
 20
-168563.2905294324
 30
0.0
 40
12.0
 41
0.0
 71
     5
 72
     1
  1
\A1;4
 11
0.0000000000000001
 21
1.0
 31
0.0
 73
     1
 44
1.0
1001
ACAD
1000
MTEXTBEGIN
1070
    73
1070
     1
1070
    44
1040
1.0
1070
    74
1070
     0
1000
MTEXTEND
  0
POINT
  5
D70BD
330
D70B4
100
AcDbEntity
  8
Defpoints
 62
     0
 48
5.0
100
AcDbPoint
 10
102529.0879326495
 20
-168591.4571960986
 30
0.0
  0
POINT
  5
D70BE
330
D70B4
100
AcDbEntity
  8
Defpoints
 62
     0
 48
5.0
100
AcDbPoint
 10
102529.0879326495
 20
-168587.4571960991
 30
0.0
  0
POINT
  5
D70BF
330
D70B4
100
AcDbEntity
  8
Defpoints
 62
     0
 48
5.0
100
AcDbPoint
 10
102529.0879326495
 20
-168587.4571960991
 30
0.0
  0
ENDBLK
  5
D70B6
330
D70B4
100
AcDbEntity
  8
0
 48
5.0
100
AcDbBlockEnd
  0
BLOCK
  5
D70C5
330
D70C4
100
AcDbEntity
  8
0
 48
5.0
100
AcDbBlockBegin
  2
*D17
 70
     1
 10
0.0
 20
0.0
 30
0.0
  3
*D17
  1

  0
LINE
  5
D70CD
330
D70C4
100
AcDbEntity
  8
标注
 48
5.0
370
    -2
100
AcDbLine
 10
103237.4576735296
 20
-168683.3676446964
 30
0.0
 11
103244.8486417564
 21
-168676.6316526632
 31
0.0
  0
MTEXT
  5
D70CE
330
D70C4
100
AcDbEntity
  8
标注
 48
5.0
100
AcDbMText
 10
103228.4653288536
 20
-168691.5631016701
 30
0.0
 40
12.0
 41
0.0
 71
     5
 72
     1
  1
\A1;R81
 11
0.7390968226785378
 21
0.6735992033149163
 31
0.0
 73
     1
 44
1.0
1001
ACAD
1000
MTEXTBEGIN
1070
    73
1070
     1
1070
    44
1040
1.0
1070
    74
1070
     0
1000
MTEXTEND
  0
SOLID
  5
D70CF
330
D70C4
100
AcDbEntity
  8
标注
 48
5.0
100
AcDbTrace
 10
103243.7259764175
 20
-168675.3998246254
 30
0.0
 11
103245.9713070952
 21
-168677.863480701
 31
0.0
 12
103252.2396099832
 22
-168669.8956606301
 32
0.0
 13
103252.2396099832
 23
-168669.8956606301
 33
0.0
  0
POINT
  5
D70D0
330
D70C4
100
AcDbEntity
  8
Defpoints
 62
     0
 48
5.0
100
AcDbPoint
 10
103252.2396099832
 20
-168669.8956606301
 30
0.0
  0
POINT
  5
D70D1
330
D70C4
100
AcDbEntity
  8
Defpoints
 62
     0
 48
5.0
100
AcDbPoint
 10
103192.3727673462
 20
-168724.4571960986
 30
0.0
  0
ENDBLK
  5
D70C6
330
D70C4
100
AcDbEntity
  8
0
 48
5.0
100
AcDbBlockEnd
  0
BLOCK
  5
D70D5
330
D70D4
100
AcDbEntity
  8
0
 48
5.0
100
AcDbBlockBegin
  2
*D18
 70
     1
 10
0.0
 20
0.0
 30
0.0
  3
*D18
  1

  0
LINE
  5
D70DD
330
D70D4
100
AcDbEntity
  8
标注
 48
5.0
370
    -2
100
AcDbLine
 10
103234.7733375624
 20
-169034.3114050794
 30
0.0
 11
103241.7242507126
 21
-169041.5006196664
 31
0.0
  0
MTEXT
  5
D70DE
330
D70D4
100
AcDbEntity
  8
标注
 48
5.0
100
AcDbMText
 10
103226.3163932296
 20
-169025.5645273318
 30
0.0
 40
12.0
 41
0.0
 71
     5
 72
     1
  1
\A1;R81
 11
0.6950913150192778
 21
-0.7189214587037803
 31
0.0
 73
     1
 44
1.0
1001
ACAD
1000
MTEXTBEGIN
1070
    73
1070
     1
1070
    44
1040
1.0
1070
    74
1070
     0
1000
MTEXTEND
  0
SOLID
  5
D70DF
330
D70D4
100
AcDbEntity
  8
标注
 48
5.0
100
AcDbTrace
 10
103242.9224531437
 20
-169040.3421341414
 30
0.0
 11
103240.5260482814
 21
-169042.6591051914
 31
0.0
 12
103248.6751638628
 22
-169048.6898342534
 32
0.0
 13
103248.6751638628
 23
-169048.6898342534
 33
0.0
  0
POINT
  5
D70E0
330
D70D4
100
AcDbEntity
  8
Defpoints
 62
     0
 48
5.0
100
AcDbPoint
 10
103248.6751638628
 20
-169048.6898342534
 30
0.0
  0
POINT
  5
D70E1
330
D70D4
100
AcDbEntity
  8
Defpoints
 62
     0
 48
5.0
100
AcDbPoint
 10
103192.3727673462
 20
-168990.4571960984
 30
0.0
  0
ENDBLK
  5
D70D6
330
D70D4
100
AcDbEntity
  8
0
 48
5.0
100
AcDbBlockEnd
  0
BLOCK
  5
D70E5
330
D70E4
100
AcDbEntity
  8
0
 48
5.0
100
AcDbBlockBegin
  2
*D19
 70
     1
 10
0.0
 20
0.0
 30
0.0
  3
*D19
  1

  0
LINE
  5
D70ED
330
D70E4
100
AcDbEntity
  8
标注
 48
5.0
370
    -2
100
AcDbLine
 10
102979.4447248782
 20
-168621.8505830052
 30
0.0
 11
102974.0086365571
 21
-168630.2439699118
 31
0.0
  0
MTEXT
  5
D70EE
330
D70E4
100
AcDbEntity
  8
标注
 48
5.0
100
AcDbMText
 10
102986.294196163
 20
-168611.2749155029
 30
0.0
 40
12.0
 41
0.0
 71
     5
 72
     1
  1
\A1;R30
 11
0.5436088321214571
 21
0.8393386906604185
 31
0.0
 73
     1
 44
1.0
1001
ACAD
1000
MTEXTBEGIN
1070
    73
1070
     1
1070
    44
1040
1.0
1070
    74
1070
     0
1000
MTEXTEND
  0
SOLID
  5
D70EF
330
D70E4
100
AcDbEntity
  8
标注
 48
5.0
100
AcDbTrace
 10
102972.6097387393
 20
-168629.3379551917
 30
0.0
 11
102975.4075343748
 21
-168631.149984632
 31
0.0
 12
102968.5725482358
 22
-168638.6373568185
 32
0.0
 13
102968.5725482358
 23
-168638.6373568185
 33
0.0
  0
POINT
  5
D70F0
330
D70E4
100
AcDbEntity
  8
Defpoints
 62
     0
 48
5.0
100
AcDbPoint
 10
102968.5725482358
 20
-168638.6373568185
 30
0.0
  0
POINT
  5
D70F1
330
D70E4
100
AcDbEntity
  8
Defpoints
 62
     0
 48
5.0
100
AcDbPoint
 10
102984.8808131995
 20
-168613.4571960986
 30
0.0
  0
ENDBLK
  5
D70E6
330
D70E4
100
AcDbEntity
  8
0
 48
5.0
100
AcDbBlockEnd
  0
BLOCK
  5
D70F5
330
D70F4
100
AcDbEntity
  8
0
 48
5.0
100
AcDbBlockBegin
  2
*D20
 70
     1
 10
0.0
 20
0.0
 30
0.0
  3
*D20
  1

  0
LINE
  5
D70FD
330
D70F4
100
AcDbEntity
  8
标注
 48
5.0
370
    -2
100
AcDbLine
 10
102915.9178258926
 20
-168622.026956621
 30
0.0
 11
102919.9181554921
 21
-168612.8619490872
 31
0.0
  0
MTEXT
  5
D70FE
330
D70F4
100
AcDbEntity
  8
标注
 48
5.0
100
AcDbMText
 10
102909.1706033014
 20
-168637.485269328
 30
0.0
 40
12.0
 41
0.0
 71
     5
 72
     1
  1
\A1;R100
 11
0.4000329599532155
 21
0.9165007533827067
 31
0.0
 73
     1
 44
1.0
1001
ACAD
1000
MTEXTBEGIN
1070
    73
1070
     1
1070
    44
1040
1.0
1070
    74
1070
     0
1000
MTEXTEND
  0
SOLID
  5
D70FF
330
D70F4
100
AcDbEntity
  8
标注
 48
5.0
100
AcDbTrace
 10
102918.3906542365
 20
-168612.1952274873
 30
0.0
 11
102921.4456567478
 21
-168613.5286706871
 31
0.0
 12
102923.9184850917
 22
-168603.6969415533
 32
0.0
 13
102923.9184850917
 23
-168603.6969415533
 33
0.0
  0
POINT
  5
D7100
330
D70F4
100
AcDbEntity
  8
Defpoints
 62
     0
 48
5.0
100
AcDbPoint
 10
102923.9184850917
 20
-168603.6969415533
 30
0.0
  0
POINT
  5
D7101
330
D70F4
100
AcDbEntity
  8
Defpoints
 62
     0
 48
5.0
100
AcDbPoint
 10
102883.9151890961
 20
-168695.3470168922
 30
0.0
  0
ENDBLK
  5
D70F6
330
D70F4
100
AcDbEntity
  8
0
 48
5.0
100
AcDbBlockEnd
  0
BLOCK
  5
D7105
330
D7104
100
AcDbEntity
  8
0
 48
5.0
100
AcDbBlockBegin
  2
*D21
 70
     1
 10
0.0
 20
0.0
 30
0.0
  3
*D21
  1

  0
LINE
  5
D710D
330
D7104
100
AcDbEntity
  8
标注
 48
5.0
370
    -2
100
AcDbLine
 10
102824.17613169
 20
-168611.9864022259
 30
0.0
 11
102824.4636579739
 21
-168601.9905366487
 31
0.0
  0
MTEXT
  5
D710E
330
D7104
100
AcDbEntity
  8
标注
 48
5.0
100
AcDbMText
 10
102823.56849281
 20
-168633.1109981456
 30
0.0
 40
12.0
 41
0.0
 71
     5
 72
     1
  1
\A1;R1300
 11
0.0287526283937795
 21
0.9995865577129622
 31
0.0
 73
     1
 44
1.0
1001
ACAD
1000
MTEXTBEGIN
1070
    73
1070
     1
1070
    44
1040
1.0
1070
    74
1070
     0
1000
MTEXTEND
  0
SOLID
  5
D710F
330
D7104
100
AcDbEntity
  8
标注
 48
5.0
100
AcDbTrace
 10
102822.7976803777
 20
-168601.9426156014
 30
0.0
 11
102826.1296355701
 21
-168602.0384576961
 31
0.0
 12
102824.7511842579
 22
-168591.9946710716
 32
0.0
 13
102824.7511842579
 23
-168591.9946710716
 33
0.0
  0
POINT
  5
D7110
330
D7104
100
AcDbEntity
  8
Defpoints
 62
     0
 48
5.0
100
AcDbPoint
 10
102824.7511842579
 20
-168591.9946710716
 30
0.0
  0
POINT
  5
D7111
330
D7104
100
AcDbEntity
  8
Defpoints
 62
     0
 48
5.0
100
AcDbPoint
 10
102787.3727673459
 20
-169891.4571960981
 30
0.0
  0
ENDBLK
  5
D7106
330
D7104
100
AcDbEntity
  8
0
 48
5.0
100
AcDbBlockEnd
  0
BLOCK
  5
D7115
330
D7114
100
AcDbEntity
  8
0
 48
5.0
100
AcDbBlockBegin
  2
*D22
 70
     1
 10
0.0
 20
0.0
 30
0.0
  3
*D22
  1

  0
LINE
  5
D711D
330
D7114
100
AcDbEntity
  8
标注
 48
5.0
370
    -2
100
AcDbLine
 10
102638.048428591
 20
-168635.2298875739
 30
0.0
 11
102631.4506889655
 21
-168627.7152464092
 31
0.0
  0
MTEXT
  5
D711E
330
D7114
100
AcDbEntity
  8
标注
 48
5.0
100
AcDbMText
 10
102649.1766160926
 20
-168647.9045823385
 30
0.0
 40
12.0
 41
0.0
 71
     5
 72
     1
  1
\A1;R100
 11
0.6597739625448051
 21
-0.7514641164739181
 31
0.0
 73
     1
 44
1.0
1001
ACAD
1000
MTEXTBEGIN
1070
    73
1070
     1
1070
    44
1040
1.0
1070
    74
1070
     0
1000
MTEXTEND
  0
SOLID
  5
D711F
330
D7114
100
AcDbEntity
  8
标注
 48
5.0
100
AcDbTrace
 10
102632.7031291597
 20
-168626.6156231383
 30
0.0
 11
102630.1982487714
 21
-168628.8148696801
 31
0.0
 12
102624.8529493401
 22
-168620.2006052445
 32
0.0
 13
102624.8529493401
 23
-168620.2006052445
 33
0.0
  0
POINT
  5
D7120
330
D7114
100
AcDbEntity
  8
Defpoints
 62
     0
 48
5.0
100
AcDbPoint
 10
102624.8529493401
 20
-168620.2006052445
 30
0.0
  0
POINT
  5
D7121
330
D7114
100
AcDbEntity
  8
Defpoints
 62
     0
 48
5.0
100
AcDbPoint
 10
102690.830345595
 20
-168695.3470168923
 30
0.0
  0
ENDBLK
  5
D7116
330
D7114
100
AcDbEntity
  8
0
 48
5.0
100
AcDbBlockEnd
  0
BLOCK
  5
D7135
330
D7134
100
AcDbEntity
  8
0
 48
5.0
100
AcDbBlockBegin
  2
*D23
 70
     1
 10
0.0
 20
0.0
 30
0.0
  3
*D23
  1

  0
LINE
  5
D713D
330
D7134
100
AcDbEntity
  8
标注
 48
5.0
370
    -2
100
AcDbLine
 10
102632.9891568041
 20
-169022.8339735343
 30
0.0
 11
102625.7590082055
 21
-169029.7422983126
 31
0.0
  0
MTEXT
  5
D713E
330
D7134
100
AcDbEntity
  8
标注
 48
5.0
100
AcDbMText
 10
102645.1840074403
 20
-169011.1819324082
 30
0.0
 40
12.0
 41
0.0
 71
     5
 72
     1
  1
\A1;R100
 11
0.7230148598569128
 21
0.6908324778309782
 31
0.0
 73
     1
 44
1.0
1001
ACAD
1000
MTEXTBEGIN
1070
    73
1070
     1
1070
    44
1040
1.0
1070
    74
1070
     0
1000
MTEXTEND
  0
SOLID
  5
D713F
330
D7134
100
AcDbEntity
  8
标注
 48
5.0
100
AcDbTrace
 10
102624.6076207425
 20
-169028.5372735462
 30
0.0
 11
102626.9103956686
 21
-169030.947323079
 31
0.0
 12
102618.5288596069
 22
-169036.6506230908
 32
0.0
 13
102618.5288596069
 23
-169036.6506230908
 33
0.0
  0
POINT
  5
D7140
330
D7134
100
AcDbEntity
  8
Defpoints
 62
     0
 48
5.0
100
AcDbPoint
 10
102618.5288596069
 20
-169036.6506230908
 30
0.0
  0
POINT
  5
D7141
330
D7134
100
AcDbEntity
  8
Defpoints
 62
     0
 48
5.0
100
AcDbPoint
 10
102690.8303455861
 20
-168967.5673753141
 30
0.0
  0
ENDBLK
  5
D7136
330
D7134
100
AcDbEntity
  8
0
 48
5.0
100
AcDbBlockEnd
  0
BLOCK
  5
D7145
330
D7144
100
AcDbEntity
  8
0
 48
5.0
100
AcDbBlockBegin
  2
*D24
 70
     1
 10
0.0
 20
0.0
 30
0.0
  3
*D24
  1

  0
LINE
  5
D714D
330
D7144
100
AcDbEntity
  8
标注
 48
5.0
370
    -2
100
AcDbLine
 10
102726.4338474475
 20
-169050.0057669562
 30
0.0
 11
102725.9577621358
 21
-169059.994427666
 31
0.0
  0
MTEXT
  5
D714E
330
D7144
100
AcDbEntity
  8
标注
 48
5.0
100
AcDbMText
 10
102727.4399744062
 20
-169028.8963973227
 30
0.0
 40
12.0
 41
0.0
 71
     5
 72
     1
  1
\A1;R1300
 11
0.0476085311707223
 21
0.9988660709823747
 31
0.0
 73
     1
 44
1.0
1001
ACAD
1000
MTEXTBEGIN
1070
    73
1070
     1
1070
    44
1040
1.0
1070
    74
1070
     0
1000
MTEXTEND
  0
SOLID
  5
D714F
330
D7144
100
AcDbEntity
  8
标注
 48
5.0
100
AcDbTrace
 10
102724.2929853508
 20
-169059.9150801141
 30
0.0
 11
102727.6225389208
 21
-169060.0737752179
 31
0.0
 12
102725.4816768241
 22
-169069.9830883758
 32
0.0
 13
102725.4816768241
 23
-169069.9830883758
 33
0.0
  0
POINT
  5
D7150
330
D7144
100
AcDbEntity
  8
Defpoints
 62
     0
 48
5.0
100
AcDbPoint
 10
102725.4816768241
 20
-169069.9830883758
 30
0.0
  0
POINT
  5
D7151
330
D7144
100
AcDbEntity
  8
Defpoints
 62
     0
 48
5.0
100
AcDbPoint
 10
102787.3727673465
 20
-167771.4571960875
 30
0.0
  0
ENDBLK
  5
D7146
330
D7144
100
AcDbEntity
  8
0
 48
5.0
100
AcDbBlockEnd
  0
BLOCK
  5
D7155
330
D7154
100
AcDbEntity
  8
0
 48
5.0
100
AcDbBlockBegin
  2
*D25
 70
     1
 10
0.0
 20
0.0
 30
0.0
  3
*D25
  1

  0
LINE
  5
D7157
330
D7154
100
AcDbEntity
  8
标注
 48
5.0
370
    -2
100
AcDbLine
 10
102585.3727673462
 20
-168824.4571960987
 30
0.0
 11
102585.3727673462
 21
-168553.9096274526
 31
0.0
  0
LINE
  5
D7158
330
D7154
100
AcDbEntity
  8
标注
 48
5.0
370
    -2
100
AcDbLine
 10
102787.3727673463
 20
-168584.4571960986
 30
0.0
 11
102787.3727673463
 21
-168553.9096274526
 31
0.0
  0
LINE
  5
D7159
330
D7154
100
AcDbEntity
  8
标注
 48
5.0
370
    -2
100
AcDbLine
 10
102595.3727673462
 20
-168560.9096274525
 30
0.0
 11
102674.0394340129
 21
-168560.9096274525
 31
0.0
  0
LINE
  5
D715A
330
D7154
100
AcDbEntity
  8
标注
 48
5.0
370
    -2
100
AcDbLine
 10
102777.3727673463
 20
-168560.9096274525
 30
0.0
 11
102698.7061006796
 21
-168560.9096274525
 31
0.0
  0
SOLID
  5
D715B
330
D7154
100
AcDbEntity
  8
标注
 48
5.0
100
AcDbTrace
 10
102595.3727673462
 20
-168559.2429607859
 30
0.0
 11
102595.3727673462
 21
-168562.5762941192
 31
0.0
 12
102585.3727673462
 22
-168560.9096274525
 32
0.0
 13
102585.3727673462
 23
-168560.9096274525
 33
0.0
  0
SOLID
  5
D715C
330
D7154
100
AcDbEntity
  8
标注
 48
5.0
100
AcDbTrace
 10
102777.3727673463
 20
-168559.2429607859
 30
0.0
 11
102777.3727673463
 21
-168562.5762941192
 31
0.0
 12
102787.3727673463
 22
-168560.9096274525
 32
0.0
 13
102787.3727673463
 23
-168560.9096274525
 33
0.0
  0
MTEXT
  5
D715D
330
D7154
100
AcDbEntity
  8
标注
 48
5.0
100
AcDbMText
 10
102686.3727673463
 20
-168560.9096274525
 30
0.0
 40
12.0
 41
0.0
 71
     5
 72
     1
  1
\A1;202
 73
     1
 44
1.0
1001
ACAD
1000
MTEXTBEGIN
1070
    73
1070
     1
1070
    44
1040
1.0
1070
    74
1070
     0
1000
MTEXTEND
  0
POINT
  5
D715E
330
D7154
100
AcDbEntity
  8
Defpoints
 62
     0
 48
5.0
100
AcDbPoint
 10
102585.3727673462
 20
-168831.4571960987
 30
0.0
  0
POINT
  5
D715F
330
D7154
100
AcDbEntity
  8
Defpoints
 62
     0
 48
5.0
100
AcDbPoint
 10
102787.3727673463
 20
-168591.4571960986
 30
0.0
  0
POINT
  5
D7160
330
D7154
100
AcDbEntity
  8
Defpoints
 62
     0
 48
5.0
100
AcDbPoint
 10
102787.3727673463
 20
-168560.9096274525
 30
0.0
  0
ENDBLK
  5
D7156
330
D7154
100
AcDbEntity
  8
0
 48
5.0
100
AcDbBlockEnd
  0
BLOCK
  5
D71B2
330
D71B1
100
AcDbEntity
  8
0
 48
5.0
100
AcDbBlockBegin
  2
*D26
 70
     1
 10
0.0
 20
0.0
 30
0.0
  3
*D26
  1

  0
LINE
  5
D740F
330
D71B1
100
AcDbEntity
  8
标注
 48
5.0
370
    -2
100
AcDbLine
 10
105476.1994026016
 20
-168824.4571960987
 30
0.0
 11
105476.1994026016
 21
-168553.9096274526
 31
0.0
  0
LINE
  5
D7410
330
D71B1
100
AcDbEntity
  8
标注
 48
5.0
370
    -2
100
AcDbLine
 10
105274.1994026014
 20
-168584.4571960986
 30
0.0
 11
105274.1994026014
 21
-168553.9096274526
 31
0.0
  0
LINE
  5
D7411
330
D71B1
100
AcDbEntity
  8
标注
 48
5.0
370
    -2
100
AcDbLine
 10
105466.1994026015
 20
-168560.9096274525
 30
0.0
 11
105387.5327359348
 21
-168560.9096274525
 31
0.0
  0
LINE
  5
D7412
330
D71B1
100
AcDbEntity
  8
标注
 48
5.0
370
    -2
100
AcDbLine
 10
105284.1994026014
 20
-168560.9096274525
 30
0.0
 11
105362.8660692681
 21
-168560.9096274525
 31
0.0
  0
SOLID
  5
D7413
330
D71B1
100
AcDbEntity
  8
标注
 48
5.0
100
AcDbTrace
 10
105466.1994026015
 20
-168559.2429607859
 30
0.0
 11
105466.1994026015
 21
-168562.5762941192
 31
0.0
 12
105476.1994026016
 22
-168560.9096274525
 32
0.0
 13
105476.1994026016
 23
-168560.9096274525
 33
0.0
  0
SOLID
  5
D7414
330
D71B1
100
AcDbEntity
  8
标注
 48
5.0
100
AcDbTrace
 10
105284.1994026014
 20
-168559.2429607859
 30
0.0
 11
105284.1994026014
 21
-168562.5762941192
 31
0.0
 12
105274.1994026014
 22
-168560.9096274525
 32
0.0
 13
105274.1994026014
 23
-168560.9096274525
 33
0.0
  0
MTEXT
  5
D7415
330
D71B1
100
AcDbEntity
  8
标注
 48
5.0
100
AcDbMText
 10
105375.1994026015
 20
-168560.9096274525
 30
0.0
 40
12.0
 41
0.0
 71
     5
 72
     1
  1
\A1;202
 73
     1
 44
1.0
1001
ACAD
1000
MTEXTBEGIN
1070
    73
1070
     1
1070
    44
1040
1.0
1070
    74
1070
     0
1000
MTEXTEND
  0
POINT
  5
D7416
330
D71B1
100
AcDbEntity
  8
Defpoints
 62
     0
 48
5.0
100
AcDbPoint
 10
105476.1994026016
 20
-168831.4571960987
 30
0.0
  0
POINT
  5
D7417
330
D71B1
100
AcDbEntity
  8
Defpoints
 62
     0
 48
5.0
100
AcDbPoint
 10
105274.1994026014
 20
-168591.4571960986
 30
0.0
  0
POINT
  5
D7418
330
D71B1
100
AcDbEntity
  8
Defpoints
 62
     0
 48
5.0
100
AcDbPoint
 10
105274.1994026014
 20
-168560.9096274525
 30
0.0
  0
ENDBLK
  5
D71B3
330
D71B1
100
AcDbEntity
  8
0
 48
5.0
100
AcDbBlockEnd
  0
BLOCK
  5
D71BF
330
D71BE
100
AcDbEntity
  8
0
 48
5.0
100
AcDbBlockBegin
  2
*D27
 70
     1
 10
0.0
 20
0.0
 30
0.0
  3
*D27
  1

  0
LINE
  5
D736F
330
D71BE
100
AcDbEntity
  8
标注
 48
5.0
370
    -2
100
AcDbLine
 10
105125.1994026015
 20
-169057.4571961088
 30
0.0
 11
105101.7978976666
 21
-169057.4571961088
 31
0.0
  0
LINE
  5
D7370
330
D71BE
100
AcDbEntity
  8
标注
 48
5.0
370
    -2
100
AcDbLine
 10
105125.1994026015
 20
-168831.4571960987
 30
0.0
 11
105101.7978976666
 21
-168831.4571960987
 31
0.0
  0
LINE
  5
D7371
330
D71BE
100
AcDbEntity
  8
标注
 48
5.0
370
    -2
100
AcDbLine
 10
105108.7978976666
 20
-169047.4571961088
 30
0.0
 11
105108.7978976666
 21
-168956.890529437
 31
0.0
  0
LINE
  5
D7372
330
D71BE
100
AcDbEntity
  8
标注
 48
5.0
370
    -2
100
AcDbLine
 10
105108.7978976666
 20
-168841.4571960987
 30
0.0
 11
105108.7978976666
 21
-168932.0238627704
 31
0.0
  0
SOLID
  5
D7373
330
D71BE
100
AcDbEntity
  8
标注
 48
5.0
100
AcDbTrace
 10
105107.1312309999
 20
-169047.4571961088
 30
0.0
 11
105110.4645643333
 21
-169047.4571961088
 31
0.0
 12
105108.7978976666
 22
-169057.4571961088
 32
0.0
 13
105108.7978976666
 23
-169057.4571961088
 33
0.0
  0
SOLID
  5
D7374
330
D71BE
100
AcDbEntity
  8
标注
 48
5.0
100
AcDbTrace
 10
105107.1312309999
 20
-168841.4571960987
 30
0.0
 11
105110.4645643333
 21
-168841.4571960987
 31
0.0
 12
105108.7978976666
 22
-168831.4571960987
 32
0.0
 13
105108.7978976666
 23
-168831.4571960987
 33
0.0
  0
MTEXT
  5
D7375
330
D71BE
100
AcDbEntity
  8
标注
 48
5.0
100
AcDbMText
 10
105108.7978976666
 20
-168944.4571961037
 30
0.0
 40
12.0
 41
0.0
 71
     5
 72
     1
  1
\A1;226
 11
0.0000000000000001
 21
1.0
 31
0.0
 73
     1
 44
1.0
1001
ACAD
1000
MTEXTBEGIN
1070
    73
1070
     1
1070
    44
1040
1.0
1070
    74
1070
     0
1000
MTEXTEND
  0
POINT
  5
D7376
330
D71BE
100
AcDbEntity
  8
Defpoints
 62
     0
 48
5.0
100
AcDbPoint
 10
105132.1994026015
 20
-169057.4571961088
 30
0.0
  0
POINT
  5
D7377
330
D71BE
100
AcDbEntity
  8
Defpoints
 62
     0
 48
5.0
100
AcDbPoint
 10
105132.1994026015
 20
-168831.4571960987
 30
0.0
  0
POINT
  5
D7378
330
D71BE
100
AcDbEntity
  8
Defpoints
 62
     0
 48
5.0
100
AcDbPoint
 10
105108.7978976666
 20
-168831.4571960987
 30
0.0
  0
ENDBLK
  5
D71C0
330
D71BE
100
AcDbEntity
  8
0
 48
5.0
100
AcDbBlockEnd
  0
BLOCK
  5
D71CC
330
D71CB
100
AcDbEntity
  8
0
 48
5.0
100
AcDbBlockBegin
  2
*D28
 70
     1
 10
0.0
 20
0.0
 30
0.0
  3
*D28
  1

  0
LINE
  5
D739F
330
D71CB
100
AcDbEntity
  8
标注
 48
5.0
370
    -2
100
AcDbLine
 10
104798.1994026015
 20
-169126.7433283951
 30
0.0
 11
104808.1994026015
 21
-169126.7433283951
 31
0.0
  0
LINE
  5
D73A0
330
D71CB
100
AcDbEntity
  8
标注
 48
5.0
370
    -2
100
AcDbLine
 10
104774.1994026015
 20
-169126.7433283951
 30
0.0
 11
104764.1994026015
 21
-169126.7433283951
 31
0.0
  0
LINE
  5
D73A1
330
D71CB
100
AcDbEntity
  8
标注
 48
5.0
370
    -2
100
AcDbLine
 10
104788.1994026015
 20
-169126.7433283951
 30
0.0
 11
104784.1994026015
 21
-169126.7433283951
 31
0.0
  0
SOLID
  5
D73A2
330
D71CB
100
AcDbEntity
  8
标注
 48
5.0
100
AcDbTrace
 10
104798.1994026015
 20
-169125.0766617285
 30
0.0
 11
104798.1994026015
 21
-169128.4099950618
 31
0.0
 12
104788.1994026015
 22
-169126.7433283951
 32
0.0
 13
104788.1994026015
 23
-169126.7433283951
 33
0.0
  0
SOLID
  5
D73A3
330
D71CB
100
AcDbEntity
  8
标注
 48
5.0
100
AcDbTrace
 10
104774.1994026015
 20
-169125.0766617285
 30
0.0
 11
104774.1994026015
 21
-169128.4099950618
 31
0.0
 12
104784.1994026015
 22
-169126.7433283951
 32
0.0
 13
104784.1994026015
 23
-169126.7433283951
 33
0.0
  0
MTEXT
  5
D73A4
330
D71CB
100
AcDbEntity
  8
标注
 48
5.0
100
AcDbMText
 10
104760.0327359349
 20
-169126.7433283951
 30
0.0
 40
12.0
 41
0.0
 71
     5
 72
     1
  1
\A1;4
 73
     1
 44
1.0
1001
ACAD
1000
MTEXTBEGIN
1070
    73
1070
     1
1070
    44
1040
1.0
1070
    74
1070
     0
1000
MTEXTEND
  0
POINT
  5
D73A5
330
D71CB
100
AcDbEntity
  8
Defpoints
 62
     0
 48
5.0
100
AcDbPoint
 10
104788.1994026015
 20
-169126.7433283951
 30
0.0
  0
POINT
  5
D73A6
330
D71CB
100
AcDbEntity
  8
Defpoints
 62
     0
 48
5.0
100
AcDbPoint
 10
104784.1994026015
 20
-169126.7433283951
 30
0.0
  0
POINT
  5
D73A7
330
D71CB
100
AcDbEntity
  8
Defpoints
 62
     0
 48
5.0
100
AcDbPoint
 10
104784.1994026015
 20
-169126.7433283951
 30
0.0
  0
ENDBLK
  5
D71CD
330
D71CB
100
AcDbEntity
  8
0
 48
5.0
100
AcDbBlockEnd
  0
BLOCK
  5
D71D8
330
D71D7
100
AcDbEntity
  8
0
 48
5.0
100
AcDbBlockBegin
  2
*D29
 70
     1
 10
0.0
 20
0.0
 30
0.0
  3
*D29
  1

  0
LINE
  5
D73BC
330
D71D7
100
AcDbEntity
  8
标注
 48
5.0
370
    -2
100
AcDbLine
 10
104747.2317550456
 20
-168653.4571960985
 30
0.0
 11
104747.2317550456
 21
-168663.4571960986
 31
0.0
  0
LINE
  5
D73BD
330
D71D7
100
AcDbEntity
  8
标注
 48
5.0
370
    -2
100
AcDbLine
 10
104747.2317550456
 20
-168629.4571960985
 30
0.0
 11
104747.2317550456
 21
-168619.4571960985
 31
0.0
  0
LINE
  5
D73BE
330
D71D7
100
AcDbEntity
  8
标注
 48
5.0
370
    -2
100
AcDbLine
 10
104747.2317550456
 20
-168643.4571960985
 30
0.0
 11
104747.2317550456
 21
-168639.4571960985
 31
0.0
  0
SOLID
  5
D73BF
330
D71D7
100
AcDbEntity
  8
标注
 48
5.0
100
AcDbTrace
 10
104745.5650883789
 20
-168653.4571960985
 30
0.0
 11
104748.8984217122
 21
-168653.4571960985
 31
0.0
 12
104747.2317550456
 22
-168643.4571960985
 32
0.0
 13
104747.2317550456
 23
-168643.4571960985
 33
0.0
  0
SOLID
  5
D73C0
330
D71D7
100
AcDbEntity
  8
标注
 48
5.0
100
AcDbTrace
 10
104745.5650883789
 20
-168629.4571960985
 30
0.0
 11
104748.8984217122
 21
-168629.4571960985
 31
0.0
 12
104747.2317550456
 22
-168639.4571960985
 32
0.0
 13
104747.2317550456
 23
-168639.4571960985
 33
0.0
  0
MTEXT
  5
D73C1
330
D71D7
100
AcDbEntity
  8
标注
 48
5.0
100
AcDbMText
 10
104747.2317550456
 20
-168615.2905294318
 30
0.0
 40
12.0
 41
0.0
 71
     5
 72
     1
  1
\A1;4
 11
0.0000000000000001
 21
1.0
 31
0.0
 73
     1
 44
1.0
1001
ACAD
1000
MTEXTBEGIN
1070
    73
1070
     1
1070
    44
1040
1.0
1070
    74
1070
     0
1000
MTEXTEND
  0
POINT
  5
D73C2
330
D71D7
100
AcDbEntity
  8
Defpoints
 62
     0
 48
5.0
100
AcDbPoint
 10
104747.2317550456
 20
-168643.4571960985
 30
0.0
  0
POINT
  5
D73C3
330
D71D7
100
AcDbEntity
  8
Defpoints
 62
     0
 48
5.0
100
AcDbPoint
 10
104747.2317550456
 20
-168639.4571960985
 30
0.0
  0
POINT
  5
D73C4
330
D71D7
100
AcDbEntity
  8
Defpoints
 62
     0
 48
5.0
100
AcDbPoint
 10
104747.2317550456
 20
-168639.4571960985
 30
0.0
  0
ENDBLK
  5
D71D9
330
D71D7
100
AcDbEntity
  8
0
 48
5.0
100
AcDbBlockEnd
  0
BLOCK
  5
D71E4
330
D71E3
100
AcDbEntity
  8
0
 48
5.0
100
AcDbBlockBegin
  2
*D30
 70
     1
 10
0.0
 20
0.0
 30
0.0
  3
*D30
  1

  0
LINE
  5
D73D9
330
D71E3
100
AcDbEntity
  8
标注
 48
5.0
370
    -2
100
AcDbLine
 10
105532.4842372982
 20
-168601.4571960986
 30
0.0
 11
105532.4842372982
 21
-168611.4571960986
 31
0.0
  0
LINE
  5
D73DA
330
D71E3
100
AcDbEntity
  8
标注
 48
5.0
370
    -2
100
AcDbLine
 10
105532.4842372982
 20
-168577.4571960991
 30
0.0
 11
105532.4842372982
 21
-168567.4571960991
 31
0.0
  0
LINE
  5
D73DB
330
D71E3
100
AcDbEntity
  8
标注
 48
5.0
370
    -2
100
AcDbLine
 10
105532.4842372982
 20
-168591.4571960986
 30
0.0
 11
105532.4842372982
 21
-168587.4571960991
 31
0.0
  0
SOLID
  5
D73DC
330
D71E3
100
AcDbEntity
  8
标注
 48
5.0
100
AcDbTrace
 10
105530.8175706315
 20
-168601.4571960986
 30
0.0
 11
105534.1509039648
 21
-168601.4571960986
 31
0.0
 12
105532.4842372982
 22
-168591.4571960986
 32
0.0
 13
105532.4842372982
 23
-168591.4571960986
 33
0.0
  0
SOLID
  5
D73DD
330
D71E3
100
AcDbEntity
  8
标注
 48
5.0
100
AcDbTrace
 10
105530.8175706315
 20
-168577.4571960991
 30
0.0
 11
105534.1509039648
 21
-168577.4571960991
 31
0.0
 12
105532.4842372982
 22
-168587.4571960991
 32
0.0
 13
105532.4842372982
 23
-168587.4571960991
 33
0.0
  0
MTEXT
  5
D73DE
330
D71E3
100
AcDbEntity
  8
标注
 48
5.0
100
AcDbMText
 10
105532.4842372982
 20
-168563.2905294324
 30
0.0
 40
12.0
 41
0.0
 71
     5
 72
     1
  1
\A1;4
 11
0.0000000000000001
 21
1.0
 31
0.0
 73
     1
 44
1.0
1001
ACAD
1000
MTEXTBEGIN
1070
    73
1070
     1
1070
    44
1040
1.0
1070
    74
1070
     0
1000
MTEXTEND
  0
POINT
  5
D73DF
330
D71E3
100
AcDbEntity
  8
Defpoints
 62
     0
 48
5.0
100
AcDbPoint
 10
105532.4842372982
 20
-168591.4571960986
 30
0.0
  0
POINT
  5
D73E0
330
D71E3
100
AcDbEntity
  8
Defpoints
 62
     0
 48
5.0
100
AcDbPoint
 10
105532.4842372982
 20
-168587.4571960991
 30
0.0
  0
POINT
  5
D73E1
330
D71E3
100
AcDbEntity
  8
Defpoints
 62
     0
 48
5.0
100
AcDbPoint
 10
105532.4842372982
 20
-168587.4571960991
 30
0.0
  0
ENDBLK
  5
D71E5
330
D71E3
100
AcDbEntity
  8
0
 48
5.0
100
AcDbBlockEnd
  0
BLOCK
  5
D71F0
330
D71EF
100
AcDbEntity
  8
0
 48
5.0
100
AcDbBlockBegin
  2
*D31
 70
     1
 10
0.0
 20
0.0
 30
0.0
  3
*D31
  1

  0
LINE
  5
D7437
330
D71EF
100
AcDbEntity
  8
标注
 48
5.0
370
    -2
100
AcDbLine
 10
105145.6543440551
 20
-168622.026956621
 30
0.0
 11
105141.6540144555
 21
-168612.8619490871
 31
0.0
  0
MTEXT
  5
D7438
330
D71EF
100
AcDbEntity
  8
标注
 48
5.0
100
AcDbMText
 10
105152.4015666463
 20
-168637.4852693281
 30
0.0
 40
12.0
 41
0.0
 71
     5
 72
     1
  1
\A1;R100
 11
0.4000329599533229
 21
-0.9165007533826599
 31
0.0
 73
     1
 44
1.0
1001
ACAD
1000
MTEXTBEGIN
1070
    73
1070
     1
1070
    44
1040
1.0
1070
    74
1070
     0
1000
MTEXTEND
  0
SOLID
  5
D7439
330
D71EF
100
AcDbEntity
  8
标注
 48
5.0
100
AcDbTrace
 10
105143.1815157112
 20
-168612.1952274872
 30
0.0
 11
105140.1265131999
 21
-168613.5286706871
 31
0.0
 12
105137.653684856
 22
-168603.6969415533
 32
0.0
 13
105137.653684856
 23
-168603.6969415533
 33
0.0
  0
POINT
  5
D743A
330
D71EF
100
AcDbEntity
  8
Defpoints
 62
     0
 48
5.0
100
AcDbPoint
 10
105137.653684856
 20
-168603.6969415533
 30
0.0
  0
POINT
  5
D743B
330
D71EF
100
AcDbEntity
  8
Defpoints
 62
     0
 48
5.0
100
AcDbPoint
 10
105177.6569808516
 20
-168695.3470168921
 30
0.0
  0
ENDBLK
  5
D71F1
330
D71EF
100
AcDbEntity
  8
0
 48
5.0
100
AcDbBlockEnd
  0
BLOCK
  5
D71F9
330
D71F8
100
AcDbEntity
  8
0
 48
5.0
100
AcDbBlockBegin
  2
*D32
 70
     1
 10
0.0
 20
0.0
 30
0.0
  3
*D32
  1

  0
LINE
  5
D743C
330
D71F8
100
AcDbEntity
  8
标注
 48
5.0
370
    -2
100
AcDbLine
 10
105237.3960382577
 20
-168611.9864022259
 30
0.0
 11
105237.1085119737
 21
-168601.9905366487
 31
0.0
  0
MTEXT
  5
D743D
330
D71F8
100
AcDbEntity
  8
标注
 48
5.0
100
AcDbMText
 10
105238.0036771378
 20
-168633.1109981455
 30
0.0
 40
12.0
 41
0.0
 71
     5
 72
     1
  1
\A1;R1300
 11
0.0287526283937777
 21
-0.9995865577129624
 31
0.0
 73
     1
 44
1.0
1001
ACAD
1000
MTEXTBEGIN
1070
    73
1070
     1
1070
    44
1040
1.0
1070
    74
1070
     0
1000
MTEXTEND
  0
SOLID
  5
D743E
330
D71F8
100
AcDbEntity
  8
标注
 48
5.0
100
AcDbTrace
 10
105238.7744895699
 20
-168601.9426156014
 30
0.0
 11
105235.4425343775
 21
-168602.038457696
 31
0.0
 12
105236.8209856898
 22
-168591.9946710716
 32
0.0
 13
105236.8209856898
 23
-168591.9946710716
 33
0.0
  0
POINT
  5
D743F
330
D71F8
100
AcDbEntity
  8
Defpoints
 62
     0
 48
5.0
100
AcDbPoint
 10
105236.8209856898
 20
-168591.9946710716
 30
0.0
  0
POINT
  5
D7440
330
D71F8
100
AcDbEntity
  8
Defpoints
 62
     0
 48
5.0
100
AcDbPoint
 10
105274.1994026017
 20
-169891.4571960982
 30
0.0
  0
ENDBLK
  5
D71FA
330
D71F8
100
AcDbEntity
  8
0
 48
5.0
100
AcDbBlockEnd
  0
BLOCK
  5
D7202
330
D7201
100
AcDbEntity
  8
0
 48
5.0
100
AcDbBlockBegin
  2
*D33
 70
     1
 10
0.0
 20
0.0
 30
0.0
  3
*D33
  1

  0
LINE
  5
D7441
330
D7201
100
AcDbEntity
  8
标注
 48
5.0
370
    -2
100
AcDbLine
 10
105423.5237413568
 20
-168635.2298875739
 30
0.0
 11
105430.1214809822
 21
-168627.7152464091
 31
0.0
  0
MTEXT
  5
D7442
330
D7201
100
AcDbEntity
  8
标注
 48
5.0
100
AcDbMText
 10
105412.3955538552
 20
-168647.9045823384
 30
0.0
 40
12.0
 41
0.0
 71
     5
 72
     1
  1
\A1;R100
 11
0.6597739625448871
 21
0.7514641164738462
 31
0.0
 73
     1
 44
1.0
1001
ACAD
1000
MTEXTBEGIN
1070
    73
1070
     1
1070
    44
1040
1.0
1070
    74
1070
     0
1000
MTEXTEND
  0
SOLID
  5
D7443
330
D7201
100
AcDbEntity
  8
标注
 48
5.0
100
AcDbTrace
 10
105428.8690407881
 20
-168626.6156231383
 30
0.0
 11
105431.3739211764
 21
-168628.81486968
 31
0.0
 12
105436.7192206077
 22
-168620.2006052444
 32
0.0
 13
105436.7192206077
 23
-168620.2006052444
 33
0.0
  0
POINT
  5
D7444
330
D7201
100
AcDbEntity
  8
Defpoints
 62
     0
 48
5.0
100
AcDbPoint
 10
105436.7192206077
 20
-168620.2006052444
 30
0.0
  0
POINT
  5
D7445
330
D7201
100
AcDbEntity
  8
Defpoints
 62
     0
 48
5.0
100
AcDbPoint
 10
105370.7418243528
 20
-168695.3470168922
 30
0.0
  0
ENDBLK
  5
D7203
330
D7201
100
AcDbEntity
  8
0
 48
5.0
100
AcDbBlockEnd
  0
BLOCK
  5
D720B
330
D720A
100
AcDbEntity
  8
0
 48
5.0
100
AcDbBlockBegin
  2
*D34
 70
     1
 10
0.0
 20
0.0
 30
0.0
  3
*D34
  1

  0
LINE
  5
D7446
330
D720A
100
AcDbEntity
  8
标注
 48
5.0
370
    -2
100
AcDbLine
 10
105455.8201410755
 20
-168794.7144799033
 30
0.0
 11
105465.8180103928
 21
-168794.5080601494
 31
0.0
  0
MTEXT
  5
D7447
330
D720A
100
AcDbEntity
  8
标注
 48
5.0
100
AcDbMText
 10
105434.691310585
 20
-168795.1507136498
 30
0.0
 40
12.0
 41
0.0
 71
     5
 72
     1
  1
\A1;R1800
 11
0.9997869317269806
 21
0.0206419753887527
 31
0.0
 73
     1
 44
1.0
1001
ACAD
1000
MTEXTBEGIN
1070
    73
1070
     1
1070
    44
1040
1.0
1070
    74
1070
     0
1000
MTEXTEND
  0
SOLID
  5
D7448
330
D720A
100
AcDbEntity
  8
标注
 48
5.0
100
AcDbTrace
 10
105465.7836071005
 20
-168792.8417485965
 30
0.0
 11
105465.8524136852
 21
-168796.1743717023
 31
0.0
 12
105475.8158797101
 22
-168794.3016403955
 32
0.0
 13
105475.8158797101
 23
-168794.3016403955
 33
0.0
  0
POINT
  5
D7449
330
D720A
100
AcDbEntity
  8
Defpoints
 62
     0
 48
5.0
100
AcDbPoint
 10
105475.8158797101
 20
-168794.3016403955
 30
0.0
  0
POINT
  5
D744A
330
D720A
100
AcDbEntity
  8
Defpoints
 62
     0
 48
5.0
100
AcDbPoint
 10
103676.1994027923
 20
-168831.4571960913
 30
0.0
  0
ENDBLK
  5
D720C
330
D720A
100
AcDbEntity
  8
0
 48
5.0
100
AcDbBlockEnd
  0
BLOCK
  5
D7214
330
D7213
100
AcDbEntity
  8
0
 48
5.0
100
AcDbBlockBegin
  2
*D35
 70
     1
 10
0.0
 20
0.0
 30
0.0
  3
*D35
  1

  0
LINE
  5
D744B
330
D7213
100
AcDbEntity
  8
标注
 48
5.0
370
    -2
100
AcDbLine
 10
105428.5830131436
 20
-169022.8339735342
 30
0.0
 11
105435.8131617422
 21
-169029.7422983126
 31
0.0
  0
MTEXT
  5
D744C
330
D7213
100
AcDbEntity
  8
标注
 48
5.0
100
AcDbMText
 10
105416.3881625074
 20
-169011.1819324081
 30
0.0
 40
12.0
 41
0.0
 71
     5
 72
     1
  1
\A1;R100
 11
0.7230148598567611
 21
-0.6908324778311369
 31
0.0
 73
     1
 44
1.0
1001
ACAD
1000
MTEXTBEGIN
1070
    73
1070
     1
1070
    44
1040
1.0
1070
    74
1070
     0
1000
MTEXTEND
  0
SOLID
  5
D744D
330
D7213
100
AcDbEntity
  8
标注
 48
5.0
100
AcDbTrace
 10
105436.9645492053
 20
-169028.5372735462
 30
0.0
 11
105434.6617742792
 21
-169030.947323079
 31
0.0
 12
105443.0433103408
 22
-169036.6506230908
 32
0.0
 13
105443.0433103408
 23
-169036.6506230908
 33
0.0
  0
POINT
  5
D744E
330
D7213
100
AcDbEntity
  8
Defpoints
 62
     0
 48
5.0
100
AcDbPoint
 10
105443.0433103408
 20
-169036.6506230908
 30
0.0
  0
POINT
  5
D744F
330
D7213
100
AcDbEntity
  8
Defpoints
 62
     0
 48
5.0
100
AcDbPoint
 10
105370.7418243616
 20
-168967.5673753139
 30
0.0
  0
ENDBLK
  5
D7215
330
D7213
100
AcDbEntity
  8
0
 48
5.0
100
AcDbBlockEnd
  0
BLOCK
  5
D721D
330
D721C
100
AcDbEntity
  8
0
 48
5.0
100
AcDbBlockBegin
  2
*D36
 70
     1
 10
0.0
 20
0.0
 30
0.0
  3
*D36
  1

  0
LINE
  5
D7450
330
D721C
100
AcDbEntity
  8
标注
 48
5.0
370
    -2
100
AcDbLine
 10
105335.1383225002
 20
-169050.0057669563
 30
0.0
 11
105335.6144078118
 21
-169059.9944276661
 31
0.0
  0
MTEXT
  5
D7451
330
D721C
100
AcDbEntity
  8
标注
 48
5.0
100
AcDbMText
 10
105334.1321955414
 20
-169028.8963973229
 30
0.0
 40
12.0
 41
0.0
 71
     5
 72
     1
  1
\A1;R1300
 11
0.0476085311707336
 21
-0.998866070982374
 31
0.0
 73
     1
 44
1.0
1001
ACAD
1000
MTEXTBEGIN
1070
    73
1070
     1
1070
    44
1040
1.0
1070
    74
1070
     0
1000
MTEXTEND
  0
SOLID
  5
D7452
330
D721C
100
AcDbEntity
  8
标注
 48
5.0
100
AcDbTrace
 10
105337.2791845968
 20
-169059.9150801142
 30
0.0
 11
105333.9496310269
 21
-169060.0737752181
 31
0.0
 12
105336.0904931236
 22
-169069.9830883759
 32
0.0
 13
105336.0904931236
 23
-169069.9830883759
 33
0.0
  0
POINT
  5
D7453
330
D721C
100
AcDbEntity
  8
Defpoints
 62
     0
 48
5.0
100
AcDbPoint
 10
105336.0904931236
 20
-169069.9830883759
 30
0.0
  0
POINT
  5
D7454
330
D721C
100
AcDbEntity
  8
Defpoints
 62
     0
 48
5.0
100
AcDbPoint
 10
105274.199402601
 20
-167771.4571960875
 30
0.0
  0
ENDBLK
  5
D721E
330
D721C
100
AcDbEntity
  8
0
 48
5.0
100
AcDbBlockEnd
  0
BLOCK
  5
D7230
330
D722F
100
AcDbEntity
  8
0
 48
5.0
100
AcDbBlockBegin
  2
*D37
 70
     1
 10
0.0
 20
0.0
 30
0.0
  3
*D37
  1

  0
LINE
  5
D7345
330
D722F
100
AcDbEntity
  8
标注
 48
5.0
370
    -2
100
AcDbLine
 10
105462.1994026115
 20
-168838.4571960987
 30
0.0
 11
105462.1994026115
 21
-168864.2519708363
 31
0.0
  0
LINE
  5
D7346
330
D722F
100
AcDbEntity
  8
标注
 48
5.0
370
    -2
100
AcDbLine
 10
105480.1994026015
 20
-168838.4571960988
 30
0.0
 11
105480.1994026015
 21
-168864.2519708363
 31
0.0
  0
LINE
  5
D7347
330
D722F
100
AcDbEntity
  8
标注
 48
5.0
370
    -2
100
AcDbLine
 10
105452.1994026115
 20
-168857.2519708363
 30
0.0
 11
105442.1994026115
 21
-168857.2519708363
 31
0.0
  0
LINE
  5
D7348
330
D722F
100
AcDbEntity
  8
标注
 48
5.0
370
    -2
100
AcDbLine
 10
105490.1994026016
 20
-168857.2519708363
 30
0.0
 11
105500.1994026016
 21
-168857.2519708363
 31
0.0
  0
LINE
  5
D7349
330
D722F
100
AcDbEntity
  8
标注
 48
5.0
370
    -2
100
AcDbLine
 10
105462.1994026115
 20
-168857.2519708363
 30
0.0
 11
105480.1994026015
 21
-168857.2519708363
 31
0.0
  0
SOLID
  5
D734A
330
D722F
100
AcDbEntity
  8
标注
 48
5.0
100
AcDbTrace
 10
105452.1994026115
 20
-168855.5853041696
 30
0.0
 11
105452.1994026115
 21
-168858.918637503
 31
0.0
 12
105462.1994026115
 22
-168857.2519708363
 32
0.0
 13
105462.1994026115
 23
-168857.2519708363
 33
0.0
  0
SOLID
  5
D734B
330
D722F
100
AcDbEntity
  8
标注
 48
5.0
100
AcDbTrace
 10
105490.1994026016
 20
-168855.5853041696
 30
0.0
 11
105490.1994026016
 21
-168858.918637503
 31
0.0
 12
105480.1994026015
 22
-168857.2519708363
 32
0.0
 13
105480.1994026015
 23
-168857.2519708363
 33
0.0
  0
MTEXT
  5
D734C
330
D722F
100
AcDbEntity
  8
标注
 48
5.0
100
AcDbMText
 10
105507.7660692682
 20
-168857.2519708363
 30
0.0
 40
12.0
 41
0.0
 71
     5
 72
     1
  1
\A1;18
 73
     1
 44
1.0
1001
ACAD
1000
MTEXTBEGIN
1070
    73
1070
     1
1070
    44
1040
1.0
1070
    74
1070
     0
1000
MTEXTEND
  0
POINT
  5
D734D
330
D722F
100
AcDbEntity
  8
Defpoints
 62
     0
 48
5.0
100
AcDbPoint
 10
105462.1994026115
 20
-168831.4571960987
 30
0.0
  0
POINT
  5
D734E
330
D722F
100
AcDbEntity
  8
Defpoints
 62
     0
 48
5.0
100
AcDbPoint
 10
105480.1994026015
 20
-168831.4571960988
 30
0.0
  0
POINT
  5
D734F
330
D722F
100
AcDbEntity
  8
Defpoints
 62
     0
 48
5.0
100
AcDbPoint
 10
105480.1994026015
 20
-168857.2519708363
 30
0.0
  0
ENDBLK
  5
D7231
330
D722F
100
AcDbEntity
  8
0
 48
5.0
100
AcDbBlockEnd
  0
BLOCK
  5
D723E
330
D723D
100
AcDbEntity
  8
0
 48
5.0
100
AcDbBlockBegin
  2
*D38
 70
     1
 10
0.0
 20
0.0
 30
0.0
  3
*D38
  1

  0
LINE
  5
D7350
330
D723D
100
AcDbEntity
  8
标注
 48
5.0
370
    -2
100
AcDbLine
 10
105462.1994026115
 20
-168838.4571960987
 30
0.0
 11
105462.1994026115
 21
-168864.2519708363
 31
0.0
  0
LINE
  5
D7351
330
D723D
100
AcDbEntity
  8
标注
 48
5.0
370
    -2
100
AcDbLine
 10
105132.1994026015
 20
-168838.4571960987
 30
0.0
 11
105132.1994026015
 21
-168864.2519708363
 31
0.0
  0
LINE
  5
D7352
330
D723D
100
AcDbEntity
  8
标注
 48
5.0
370
    -2
100
AcDbLine
 10
105452.1994026115
 20
-168857.2519708363
 30
0.0
 11
105309.5660692732
 21
-168857.2519708363
 31
0.0
  0
LINE
  5
D7353
330
D723D
100
AcDbEntity
  8
标注
 48
5.0
370
    -2
100
AcDbLine
 10
105142.1994026015
 20
-168857.2519708363
 30
0.0
 11
105284.8327359399
 21
-168857.2519708363
 31
0.0
  0
SOLID
  5
D7354
330
D723D
100
AcDbEntity
  8
标注
 48
5.0
100
AcDbTrace
 10
105452.1994026115
 20
-168855.5853041696
 30
0.0
 11
105452.1994026115
 21
-168858.918637503
 31
0.0
 12
105462.1994026115
 22
-168857.2519708363
 32
0.0
 13
105462.1994026115
 23
-168857.2519708363
 33
0.0
  0
SOLID
  5
D7355
330
D723D
100
AcDbEntity
  8
标注
 48
5.0
100
AcDbTrace
 10
105142.1994026015
 20
-168855.5853041696
 30
0.0
 11
105142.1994026015
 21
-168858.918637503
 31
0.0
 12
105132.1994026015
 22
-168857.2519708363
 32
0.0
 13
105132.1994026015
 23
-168857.2519708363
 33
0.0
  0
MTEXT
  5
D7356
330
D723D
100
AcDbEntity
  8
标注
 48
5.0
100
AcDbMText
 10
105297.1994026065
 20
-168857.2519708363
 30
0.0
 40
12.0
 41
0.0
 71
     5
 72
     1
  1
\A1;330
 73
     1
 44
1.0
1001
ACAD
1000
MTEXTBEGIN
1070
    73
1070
     1
1070
    44
1040
1.0
1070
    74
1070
     0
1000
MTEXTEND
  0
POINT
  5
D7357
330
D723D
100
AcDbEntity
  8
Defpoints
 62
     0
 48
5.0
100
AcDbPoint
 10
105462.1994026115
 20
-168831.4571960987
 30
0.0
  0
POINT
  5
D7358
330
D723D
100
AcDbEntity
  8
Defpoints
 62
     0
 48
5.0
100
AcDbPoint
 10
105132.1994026015
 20
-168831.4571960987
 30
0.0
  0
POINT
  5
D7359
330
D723D
100
AcDbEntity
  8
Defpoints
 62
     0
 48
5.0
100
AcDbPoint
 10
105132.1994026015
 20
-168857.2519708363
 30
0.0
  0
ENDBLK
  5
D723F
330
D723D
100
AcDbEntity
  8
0
 48
5.0
100
AcDbBlockEnd
  0
BLOCK
  5
D724B
330
D724A
100
AcDbEntity
  8
0
 48
5.0
100
AcDbBlockBegin
  2
*D39
 70
     1
 10
0.0
 20
0.0
 30
0.0
  3
*D39
  1

  0
LINE
  5
D735A
330
D724A
100
AcDbEntity
  8
标注
 48
5.0
370
    -2
100
AcDbLine
 10
105462.1994026115
 20
-168838.4571960987
 30
0.0
 11
105462.1994026115
 21
-168893.7379965963
 31
0.0
  0
LINE
  5
D735B
330
D724A
100
AcDbEntity
  8
标注
 48
5.0
370
    -2
100
AcDbLine
 10
104802.1994025916
 20
-168838.4571960987
 30
0.0
 11
104802.1994025916
 21
-168893.7379965963
 31
0.0
  0
LINE
  5
D735C
330
D724A
100
AcDbEntity
  8
标注
 48
5.0
370
    -2
100
AcDbLine
 10
105452.1994026115
 20
-168886.7379965963
 30
0.0
 11
105310.8994026065
 21
-168886.7379965963
 31
0.0
  0
LINE
  5
D735D
330
D724A
100
AcDbEntity
  8
标注
 48
5.0
370
    -2
100
AcDbLine
 10
104812.1994025915
 20
-168886.7379965963
 30
0.0
 11
105285.9660692732
 21
-168886.7379965963
 31
0.0
  0
SOLID
  5
D735E
330
D724A
100
AcDbEntity
  8
标注
 48
5.0
100
AcDbTrace
 10
105452.1994026115
 20
-168885.0713299297
 30
0.0
 11
105452.1994026115
 21
-168888.404663263
 31
0.0
 12
105462.1994026115
 22
-168886.7379965963
 32
0.0
 13
105462.1994026115
 23
-168886.7379965963
 33
0.0
  0
SOLID
  5
D735F
330
D724A
100
AcDbEntity
  8
标注
 48
5.0
100
AcDbTrace
 10
104812.1994025915
 20
-168885.0713299297
 30
0.0
 11
104812.1994025915
 21
-168888.404663263
 31
0.0
 12
104802.1994025916
 22
-168886.7379965963
 32
0.0
 13
104802.1994025916
 23
-168886.7379965963
 33
0.0
  0
MTEXT
  5
D7360
330
D724A
100
AcDbEntity
  8
标注
 48
5.0
100
AcDbMText
 10
105298.4327359399
 20
-168886.7379965963
 30
0.0
 40
12.0
 41
0.0
 71
     5
 72
     1
  1
\A1;660
 73
     1
 44
1.0
1001
ACAD
1000
MTEXTBEGIN
1070
    73
1070
     1
1070
    44
1040
1.0
1070
    74
1070
     0
1000
MTEXTEND
  0
POINT
  5
D7361
330
D724A
100
AcDbEntity
  8
Defpoints
 62
     0
 48
5.0
100
AcDbPoint
 10
105462.1994026115
 20
-168831.4571960987
 30
0.0
  0
POINT
  5
D7362
330
D724A
100
AcDbEntity
  8
Defpoints
 62
     0
 48
5.0
100
AcDbPoint
 10
104802.1994025916
 20
-168831.4571960987
 30
0.0
  0
POINT
  5
D7363
330
D724A
100
AcDbEntity
  8
Defpoints
 62
     0
 48
5.0
100
AcDbPoint
 10
104802.1994025916
 20
-168886.7379965963
 30
0.0
  0
ENDBLK
  5
D724C
330
D724A
100
AcDbEntity
  8
0
 48
5.0
100
AcDbBlockEnd
  0
BLOCK
  5
D7258
330
D7257
100
AcDbEntity
  8
0
 48
5.0
100
AcDbBlockBegin
  2
*D40
 70
     1
 10
0.0
 20
0.0
 30
0.0
  3
*D40
  1

  0
LINE
  5
D7364
330
D7257
100
AcDbEntity
  8
标注
 48
5.0
370
    -2
100
AcDbLine
 10
105125.1994026015
 20
-169057.4571961088
 30
0.0
 11
105101.7978976665
 21
-169057.4571961088
 31
0.0
  0
LINE
  5
D7365
330
D7257
100
AcDbEntity
  8
标注
 48
5.0
370
    -2
100
AcDbLine
 10
105125.1994026015
 20
-169075.4571960986
 30
0.0
 11
105101.7978976665
 21
-169075.4571960986
 31
0.0
  0
LINE
  5
D7366
330
D7257
100
AcDbEntity
  8
标注
 48
5.0
370
    -2
100
AcDbLine
 10
105108.7978976665
 20
-169047.4571961088
 30
0.0
 11
105108.7978976665
 21
-169037.4571961088
 31
0.0
  0
LINE
  5
D7367
330
D7257
100
AcDbEntity
  8
标注
 48
5.0
370
    -2
100
AcDbLine
 10
105108.7978976665
 20
-169085.4571960986
 30
0.0
 11
105108.7978976665
 21
-169095.4571960986
 31
0.0
  0
LINE
  5
D7368
330
D7257
100
AcDbEntity
  8
标注
 48
5.0
370
    -2
100
AcDbLine
 10
105108.7978976665
 20
-169057.4571961088
 30
0.0
 11
105108.7978976665
 21
-169075.4571960986
 31
0.0
  0
SOLID
  5
D7369
330
D7257
100
AcDbEntity
  8
标注
 48
5.0
100
AcDbTrace
 10
105107.1312309999
 20
-169047.4571961088
 30
0.0
 11
105110.4645643332
 21
-169047.4571961088
 31
0.0
 12
105108.7978976665
 22
-169057.4571961088
 32
0.0
 13
105108.7978976665
 23
-169057.4571961088
 33
0.0
  0
SOLID
  5
D736A
330
D7257
100
AcDbEntity
  8
标注
 48
5.0
100
AcDbTrace
 10
105107.1312309999
 20
-169085.4571960986
 30
0.0
 11
105110.4645643332
 21
-169085.4571960986
 31
0.0
 12
105108.7978976665
 22
-169075.4571960986
 32
0.0
 13
105108.7978976665
 23
-169075.4571960986
 33
0.0
  0
MTEXT
  5
D736B
330
D7257
100
AcDbEntity
  8
标注
 48
5.0
100
AcDbMText
 10
105108.7978976666
 20
-169103.0238627652
 30
0.0
 40
12.0
 41
0.0
 71
     5
 72
     1
  1
\A1;18
 11
0.0000000000000001
 21
1.0
 31
0.0
 73
     1
 44
1.0
1001
ACAD
1000
MTEXTBEGIN
1070
    73
1070
     1
1070
    44
1040
1.0
1070
    74
1070
     0
1000
MTEXTEND
  0
POINT
  5
D736C
330
D7257
100
AcDbEntity
  8
Defpoints
 62
     0
 48
5.0
100
AcDbPoint
 10
105132.1994026015
 20
-169057.4571961088
 30
0.0
  0
POINT
  5
D736D
330
D7257
100
AcDbEntity
  8
Defpoints
 62
     0
 48
5.0
100
AcDbPoint
 10
105132.1994026015
 20
-169075.4571960986
 30
0.0
  0
POINT
  5
D736E
330
D7257
100
AcDbEntity
  8
Defpoints
 62
     0
 48
5.0
100
AcDbPoint
 10
105108.7978976665
 20
-169075.4571960986
 30
0.0
  0
ENDBLK
  5
D7259
330
D7257
100
AcDbEntity
  8
0
 48
5.0
100
AcDbBlockEnd
  0
BLOCK
  5
D7270
330
D726F
100
AcDbEntity
  8
0
 48
5.0
100
AcDbBlockBegin
  2
*D41
 70
     1
 10
0.0
 20
0.0
 30
0.0
  3
*D41
  1

  0
LINE
  5
D7379
330
D726F
100
AcDbEntity
  8
标注
 48
5.0
370
    -2
100
AcDbLine
 10
105125.1994026015
 20
-169057.4571961088
 30
0.0
 11
105076.209311236
 21
-169057.4571961088
 31
0.0
  0
LINE
  5
D737A
330
D726F
100
AcDbEntity
  8
标注
 48
5.0
370
    -2
100
AcDbLine
 10
105125.1994026015
 20
-168619.8076744753
 30
0.0
 11
105076.209311236
 21
-168619.8076744753
 31
0.0
  0
LINE
  5
D737B
330
D726F
100
AcDbEntity
  8
标注
 48
5.0
370
    -2
100
AcDbLine
 10
105083.209311236
 20
-169047.4571961088
 30
0.0
 11
105083.209311236
 21
-168966.2728725223
 31
0.0
  0
LINE
  5
D737C
330
D726F
100
AcDbEntity
  8
标注
 48
5.0
370
    -2
100
AcDbLine
 10
105083.209311236
 20
-168629.8076744754
 30
0.0
 11
105083.209311236
 21
-168924.0728725224
 31
0.0
  0
SOLID
  5
D737D
330
D726F
100
AcDbEntity
  8
标注
 48
5.0
100
AcDbTrace
 10
105081.5426445693
 20
-169047.4571961088
 30
0.0
 11
105084.8759779027
 21
-169047.4571961088
 31
0.0
 12
105083.209311236
 22
-169057.4571961088
 32
0.0
 13
105083.209311236
 23
-169057.4571961088
 33
0.0
  0
SOLID
  5
D737E
330
D726F
100
AcDbEntity
  8
标注
 48
5.0
100
AcDbTrace
 10
105081.5426445693
 20
-168629.8076744754
 30
0.0
 11
105084.8759779027
 21
-168629.8076744754
 31
0.0
 12
105083.209311236
 22
-168619.8076744753
 32
0.0
 13
105083.209311236
 23
-168619.8076744753
 33
0.0
  0
MTEXT
  5
D737F
330
D726F
100
AcDbEntity
  8
标注
 48
5.0
100
AcDbMText
 10
105083.209311236
 20
-168945.1728725223
 30
0.0
 40
12.0
 41
0.0
 71
     5
 72
     1
  1
\A1;437,6
 11
0.0000000000000001
 21
1.0
 31
0.0
 73
     1
 44
1.0
1001
ACAD
1000
MTEXTBEGIN
1070
    73
1070
     1
1070
    44
1040
1.0
1070
    74
1070
     0
1000
MTEXTEND
  0
POINT
  5
D7380
330
D726F
100
AcDbEntity
  8
Defpoints
 62
     0
 48
5.0
100
AcDbPoint
 10
105132.1994026015
 20
-169057.4571961088
 30
0.0
  0
POINT
  5
D7381
330
D726F
100
AcDbEntity
  8
Defpoints
 62
     0
 48
5.0
100
AcDbPoint
 10
105132.1994026015
 20
-168619.8076744753
 30
0.0
  0
POINT
  5
D7382
330
D726F
100
AcDbEntity
  8
Defpoints
 62
     0
 48
5.0
100
AcDbPoint
 10
105083.209311236
 20
-168619.8076744753
 30
0.0
  0
ENDBLK
  5
D7271
330
D726F
100
AcDbEntity
  8
0
 48
5.0
100
AcDbBlockEnd
  0
BLOCK
  5
D727D
330
D727C
100
AcDbEntity
  8
0
 48
5.0
100
AcDbBlockBegin
  2
*D42
 70
     1
 10
0.0
 20
0.0
 30
0.0
  3
*D42
  1

  0
LINE
  5
D7455
330
D727C
100
AcDbEntity
  8
标注
 48
5.0
370
    -2
100
AcDbLine
 10
105148.1741294243
 20
-168814.9100482194
 30
0.0
 11
105141.2285960231
 21
-168822.1044603408
 31
0.0
  0
LINE
  5
D7456
330
D727C
100
AcDbEntity
  8
标注
 48
5.0
370
    -2
100
AcDbLine
 10
105123.17020918
 20
-168840.8099318565
 30
0.0
 11
105116.2246757788
 21
-168848.0043439779
 31
0.0
  0
MTEXT
  5
D7457
102
{ACAD_XDICTIONARY
360
D74FB
102
}
330
D727C
100
AcDbEntity
  8
标注
 48
5.0
100
AcDbMText
 10
105162.4439173889
 20
-168800.1289321306
 30
0.0
 40
12.0
 41
0.0
 71
     5
 72
     1
  1
\A1;{\fGulim|b0|i0|c129|p34;5-\U+22056}
 11
0.6945533401206047
 21
0.7194412121412782
 31
0.0
 73
     1
 44
1.0
1001
ACAD
1000
MTEXTBEGIN
1070
    73
1070
     1
1070
    44
1040
1.0
1070
    74
1070
     0
1000
MTEXTEND
  0
LINE
  5
D7458
330
D727C
100
AcDbEntity
  8
标注
 48
5.0
370
    -2
100
AcDbLine
 10
105130.1157425812
 20
-168833.6155197351
 30
0.0
 11
105134.2830626219
 21
-168829.2988724622
 31
0.0
  0
SOLID
  5
D7459
330
D727C
100
AcDbEntity
  8
标注
 48
5.0
100
AcDbTrace
 10
105121.9711404931
 20
-168839.6523429563
 30
0.0
 11
105124.3692778669
 21
-168841.9675207567
 31
0.0
 12
105130.1157425812
 22
-168833.6155197351
 32
0.0
 13
105130.1157425812
 23
-168833.6155197351
 33
0.0
  0
SOLID
  5
D745A
330
D727C
100
AcDbEntity
  8
标注
 48
5.0
100
AcDbTrace
 10
105140.0295273362
 20
-168820.9468714407
 30
0.0
 11
105142.42766471
 21
-168823.262049241
 31
0.0
 12
105134.2830626219
 22
-168829.2988724622
 32
0.0
 13
105134.2830626219
 23
-168829.2988724622
 33
0.0
  0
POINT
  5
D745B
330
D727C
100
AcDbEntity
  8
Defpoints
 62
     0
 48
5.0
100
AcDbPoint
 10
105134.2830626219
 20
-168829.2988724622
 30
0.0
  0
POINT
  5
D745C
330
D727C
100
AcDbEntity
  8
Defpoints
 62
     0
 48
5.0
100
AcDbPoint
 10
105130.1157425812
 20
-168833.6155197351
 30
0.0
  0
ENDBLK
  5
D727E
330
D727C
100
AcDbEntity
  8
0
 48
5.0
100
AcDbBlockEnd
  0
BLOCK
  5
D7288
330
D7287
100
AcDbEntity
  8
0
 48
5.0
100
AcDbBlockBegin
  2
*D43
 70
     1
 10
0.0
 20
0.0
 30
0.0
  3
*D43
  1

  0
LINE
  5
D738B
330
D7287
100
AcDbEntity
  8
标注
 48
5.0
370
    -2
100
AcDbLine
 10
105476.1994026016
 20
-168838.4571960987
 30
0.0
 11
105476.1994026016
 21
-169133.7433283951
 31
0.0
  0
LINE
  5
D738C
330
D7287
100
AcDbEntity
  8
标注
 48
5.0
370
    -2
100
AcDbLine
 10
104788.1994026015
 20
-168997.4571960985
 30
0.0
 11
104788.1994026015
 21
-169133.7433283951
 31
0.0
  0
LINE
  5
D738D
330
D7287
100
AcDbEntity
  8
标注
 48
5.0
370
    -2
100
AcDbLine
 10
105466.1994026015
 20
-169126.7433283951
 30
0.0
 11
105144.5994026015
 21
-169126.7433283951
 31
0.0
  0
LINE
  5
D738E
330
D7287
100
AcDbEntity
  8
标注
 48
5.0
370
    -2
100
AcDbLine
 10
104798.1994026015
 20
-169126.7433283951
 30
0.0
 11
105119.7994026016
 21
-169126.7433283951
 31
0.0
  0
SOLID
  5
D738F
330
D7287
100
AcDbEntity
  8
标注
 48
5.0
100
AcDbTrace
 10
105466.1994026015
 20
-169125.0766617285
 30
0.0
 11
105466.1994026015
 21
-169128.4099950618
 31
0.0
 12
105476.1994026016
 22
-169126.7433283951
 32
0.0
 13
105476.1994026016
 23
-169126.7433283951
 33
0.0
  0
SOLID
  5
D7390
330
D7287
100
AcDbEntity
  8
标注
 48
5.0
100
AcDbTrace
 10
104798.1994026015
 20
-169125.0766617285
 30
0.0
 11
104798.1994026015
 21
-169128.4099950618
 31
0.0
 12
104788.1994026015
 22
-169126.7433283951
 32
0.0
 13
104788.1994026015
 23
-169126.7433283951
 33
0.0
  0
MTEXT
  5
D7391
330
D7287
100
AcDbEntity
  8
标注
 48
5.0
100
AcDbMText
 10
105132.1994026015
 20
-169126.7433283951
 30
0.0
 40
12.0
 41
0.0
 71
     5
 72
     1
  1
\A1;688
 73
     1
 44
1.0
1001
ACAD
1000
MTEXTBEGIN
1070
    73
1070
     1
1070
    44
1040
1.0
1070
    74
1070
     0
1000
MTEXTEND
  0
POINT
  5
D7392
330
D7287
100
AcDbEntity
  8
Defpoints
 62
     0
 48
5.0
100
AcDbPoint
 10
105476.1994026016
 20
-168831.4571960987
 30
0.0
  0
POINT
  5
D7393
330
D7287
100
AcDbEntity
  8
Defpoints
 62
     0
 48
5.0
100
AcDbPoint
 10
104788.1994026015
 20
-168990.4571960985
 30
0.0
  0
POINT
  5
D7394
330
D7287
100
AcDbEntity
  8
Defpoints
 62
     0
 48
5.0
100
AcDbPoint
 10
104788.1994026015
 20
-169126.7433283951
 30
0.0
  0
ENDBLK
  5
D7289
330
D7287
100
AcDbEntity
  8
0
 48
5.0
100
AcDbBlockEnd
  0
BLOCK
  5
D7295
330
D7294
100
AcDbEntity
  8
0
 48
5.0
100
AcDbBlockBegin
  2
*D44
 70
     1
 10
0.0
 20
0.0
 30
0.0
  3
*D44
  1

  0
LINE
  5
D7395
330
D7294
100
AcDbEntity
  8
标注
 48
5.0
370
    -2
100
AcDbLine
 10
105480.1994026015
 20
-168845.4571960988
 30
0.0
 11
105480.1994026015
 21
-169161.014296807
 31
0.0
  0
LINE
  5
D7396
330
D7294
100
AcDbEntity
  8
标注
 48
5.0
370
    -2
100
AcDbLine
 10
104784.1994026015
 20
-168997.4571960985
 30
0.0
 11
104784.1994026015
 21
-169161.014296807
 31
0.0
  0
LINE
  5
D7397
330
D7294
100
AcDbEntity
  8
标注
 48
5.0
370
    -2
100
AcDbLine
 10
105470.1994026015
 20
-169154.014296807
 30
0.0
 11
105144.6660692682
 21
-169154.014296807
 31
0.0
  0
LINE
  5
D7398
330
D7294
100
AcDbEntity
  8
标注
 48
5.0
370
    -2
100
AcDbLine
 10
104794.1994026015
 20
-169154.014296807
 30
0.0
 11
105119.7327359349
 21
-169154.014296807
 31
0.0
  0
SOLID
  5
D7399
330
D7294
100
AcDbEntity
  8
标注
 48
5.0
100
AcDbTrace
 10
105470.1994026015
 20
-169152.3476301403
 30
0.0
 11
105470.1994026015
 21
-169155.6809634737
 31
0.0
 12
105480.1994026015
 22
-169154.014296807
 32
0.0
 13
105480.1994026015
 23
-169154.014296807
 33
0.0
  0
SOLID
  5
D739A
330
D7294
100
AcDbEntity
  8
标注
 48
5.0
100
AcDbTrace
 10
104794.1994026015
 20
-169152.3476301403
 30
0.0
 11
104794.1994026015
 21
-169155.6809634737
 31
0.0
 12
104784.1994026015
 22
-169154.014296807
 32
0.0
 13
104784.1994026015
 23
-169154.014296807
 33
0.0
  0
MTEXT
  5
D739B
330
D7294
100
AcDbEntity
  8
标注
 48
5.0
100
AcDbMText
 10
105132.1994026015
 20
-169154.014296807
 30
0.0
 40
12.0
 41
0.0
 71
     5
 72
     1
  1
\A1;696
 73
     1
 44
1.0
1001
ACAD
1000
MTEXTBEGIN
1070
    73
1070
     1
1070
    44
1040
1.0
1070
    74
1070
     0
1000
MTEXTEND
  0
POINT
  5
D739C
330
D7294
100
AcDbEntity
  8
Defpoints
 62
     0
 48
5.0
100
AcDbPoint
 10
105480.1994026015
 20
-168838.4571960988
 30
0.0
  0
POINT
  5
D739D
330
D7294
100
AcDbEntity
  8
Defpoints
 62
     0
 48
5.0
100
AcDbPoint
 10
104784.1994026015
 20
-168990.4571960985
 30
0.0
  0
POINT
  5
D739E
330
D7294
100
AcDbEntity
  8
Defpoints
 62
     0
 48
5.0
100
AcDbPoint
 10
104784.1994026015
 20
-169154.014296807
 30
0.0
  0
ENDBLK
  5
D7296
330
D7294
100
AcDbEntity
  8
0
 48
5.0
100
AcDbBlockEnd
  0
BLOCK
  5
D72AB
330
D72AA
100
AcDbEntity
  8
0
 48
5.0
100
AcDbBlockBegin
  2
*D45
 70
     1
 10
0.0
 20
0.0
 30
0.0
  3
*D45
  1

  0
LINE
  5
D73A8
330
D72AA
100
AcDbEntity
  8
标注
 48
5.0
370
    -2
100
AcDbLine
 10
104862.1994026015
 20
-169071.4571960985
 30
0.0
 11
104740.2317550456
 21
-169071.4571960985
 31
0.0
  0
LINE
  5
D73A9
330
D72AA
100
AcDbEntity
  8
标注
 48
5.0
370
    -2
100
AcDbLine
 10
104862.1994026015
 20
-168643.4571960985
 30
0.0
 11
104740.2317550456
 21
-168643.4571960985
 31
0.0
  0
LINE
  5
D73AA
330
D72AA
100
AcDbEntity
  8
标注
 48
5.0
370
    -2
100
AcDbLine
 10
104747.2317550456
 20
-169061.4571960985
 30
0.0
 11
104747.2317550456
 21
-168869.9571960986
 31
0.0
  0
LINE
  5
D73AB
330
D72AA
100
AcDbEntity
  8
标注
 48
5.0
370
    -2
100
AcDbLine
 10
104747.2317550456
 20
-168653.4571960985
 30
0.0
 11
104747.2317550456
 21
-168844.9571960985
 31
0.0
  0
SOLID
  5
D73AC
330
D72AA
100
AcDbEntity
  8
标注
 48
5.0
100
AcDbTrace
 10
104745.5650883789
 20
-169061.4571960985
 30
0.0
 11
104748.8984217122
 21
-169061.4571960985
 31
0.0
 12
104747.2317550456
 22
-169071.4571960985
 32
0.0
 13
104747.2317550456
 23
-169071.4571960985
 33
0.0
  0
SOLID
  5
D73AD
330
D72AA
100
AcDbEntity
  8
标注
 48
5.0
100
AcDbTrace
 10
104745.5650883789
 20
-168653.4571960985
 30
0.0
 11
104748.8984217122
 21
-168653.4571960985
 31
0.0
 12
104747.2317550456
 22
-168643.4571960985
 32
0.0
 13
104747.2317550456
 23
-168643.4571960985
 33
0.0
  0
MTEXT
  5
D73AE
330
D72AA
100
AcDbEntity
  8
标注
 48
5.0
100
AcDbMText
 10
104747.2317550456
 20
-168857.4571960985
 30
0.0
 40
12.0
 41
0.0
 71
     5
 72
     1
  1
\A1;428
 11
0.0000000000000001
 21
1.0
 31
0.0
 73
     1
 44
1.0
1001
ACAD
1000
MTEXTBEGIN
1070
    73
1070
     1
1070
    44
1040
1.0
1070
    74
1070
     0
1000
MTEXTEND
  0
POINT
  5
D73AF
330
D72AA
100
AcDbEntity
  8
Defpoints
 62
     0
 48
5.0
100
AcDbPoint
 10
104869.1994026015
 20
-169071.4571960985
 30
0.0
  0
POINT
  5
D73B0
330
D72AA
100
AcDbEntity
  8
Defpoints
 62
     0
 48
5.0
100
AcDbPoint
 10
104869.1994026015
 20
-168643.4571960985
 30
0.0
  0
POINT
  5
D73B1
330
D72AA
100
AcDbEntity
  8
Defpoints
 62
     0
 48
5.0
100
AcDbPoint
 10
104747.2317550456
 20
-168643.4571960985
 30
0.0
  0
ENDBLK
  5
D72AC
330
D72AA
100
AcDbEntity
  8
0
 48
5.0
100
AcDbBlockEnd
  0
BLOCK
  5
D72B8
330
D72B7
100
AcDbEntity
  8
0
 48
5.0
100
AcDbBlockBegin
  2
*D46
 70
     1
 10
0.0
 20
0.0
 30
0.0
  3
*D46
  1

  0
LINE
  5
D73B2
330
D72B7
100
AcDbEntity
  8
标注
 48
5.0
370
    -2
100
AcDbLine
 10
104862.1994026015
 20
-169075.4571960986
 30
0.0
 11
104720.8555223875
 21
-169075.4571960986
 31
0.0
  0
LINE
  5
D73B3
330
D72B7
100
AcDbEntity
  8
标注
 48
5.0
370
    -2
100
AcDbLine
 10
104862.1994026015
 20
-168639.4571960985
 30
0.0
 11
104720.8555223875
 21
-168639.4571960985
 31
0.0
  0
LINE
  5
D73B4
330
D72B7
100
AcDbEntity
  8
标注
 48
5.0
370
    -2
100
AcDbLine
 10
104727.8555223875
 20
-169065.4571960985
 30
0.0
 11
104727.8555223875
 21
-168871.3093039739
 31
0.0
  0
LINE
  5
D73B5
330
D72B7
100
AcDbEntity
  8
标注
 48
5.0
370
    -2
100
AcDbLine
 10
104727.8555223875
 20
-168649.4571960986
 30
0.0
 11
104727.8555223875
 21
-168846.1759706405
 31
0.0
  0
SOLID
  5
D73B6
330
D72B7
100
AcDbEntity
  8
标注
 48
5.0
100
AcDbTrace
 10
104726.1888557208
 20
-169065.4571960985
 30
0.0
 11
104729.5221890542
 21
-169065.4571960985
 31
0.0
 12
104727.8555223875
 22
-169075.4571960986
 32
0.0
 13
104727.8555223875
 23
-169075.4571960986
 33
0.0
  0
SOLID
  5
D73B7
330
D72B7
100
AcDbEntity
  8
标注
 48
5.0
100
AcDbTrace
 10
104726.1888557208
 20
-168649.4571960986
 30
0.0
 11
104729.5221890542
 21
-168649.4571960986
 31
0.0
 12
104727.8555223875
 22
-168639.4571960985
 32
0.0
 13
104727.8555223875
 23
-168639.4571960985
 33
0.0
  0
MTEXT
  5
D73B8
330
D72B7
100
AcDbEntity
  8
标注
 48
5.0
100
AcDbMText
 10
104727.8555223876
 20
-168858.7426373072
 30
0.0
 40
12.0
 41
0.0
 71
     5
 72
     1
  1
\A1;436
 11
0.0000000000000001
 21
1.0
 31
0.0
 73
     1
 44
1.0
1001
ACAD
1000
MTEXTBEGIN
1070
    73
1070
     1
1070
    44
1040
1.0
1070
    74
1070
     0
1000
MTEXTEND
  0
POINT
  5
D73B9
330
D72B7
100
AcDbEntity
  8
Defpoints
 62
     0
 48
5.0
100
AcDbPoint
 10
104869.1994026015
 20
-169075.4571960986
 30
0.0
  0
POINT
  5
D73BA
330
D72B7
100
AcDbEntity
  8
Defpoints
 62
     0
 48
5.0
100
AcDbPoint
 10
104869.1994026015
 20
-168639.4571960985
 30
0.0
  0
POINT
  5
D73BB
330
D72B7
100
AcDbEntity
  8
Defpoints
 62
     0
 48
5.0
100
AcDbPoint
 10
104727.8555223875
 20
-168639.4571960985
 30
0.0
  0
ENDBLK
  5
D72B9
330
D72B7
100
AcDbEntity
  8
0
 48
5.0
100
AcDbBlockEnd
  0
BLOCK
  5
D72CE
330
D72CD
100
AcDbEntity
  8
0
 48
5.0
100
AcDbBlockBegin
  2
*D47
 70
     1
 10
0.0
 20
0.0
 30
0.0
  3
*D47
  1

  0
LINE
  5
D73C5
330
D72CD
100
AcDbEntity
  8
标注
 48
5.0
370
    -2
100
AcDbLine
 10
105281.1994026015
 20
-169071.4571960988
 30
0.0
 11
105539.4842372982
 21
-169071.4571960988
 31
0.0
  0
LINE
  5
D73C6
330
D72CD
100
AcDbEntity
  8
标注
 48
5.0
370
    -2
100
AcDbLine
 10
105281.1994026014
 20
-168591.4571960986
 30
0.0
 11
105539.4842372982
 21
-168591.4571960986
 31
0.0
  0
LINE
  5
D73C7
330
D72CD
100
AcDbEntity
  8
标注
 48
5.0
370
    -2
100
AcDbLine
 10
105532.4842372982
 20
-169061.4571960988
 30
0.0
 11
105532.4842372982
 21
-168844.0238627653
 31
0.0
  0
LINE
  5
D73C8
330
D72CD
100
AcDbEntity
  8
标注
 48
5.0
370
    -2
100
AcDbLine
 10
105532.4842372982
 20
-168601.4571960986
 30
0.0
 11
105532.4842372982
 21
-168818.8905294319
 31
0.0
  0
SOLID
  5
D73C9
330
D72CD
100
AcDbEntity
  8
标注
 48
5.0
100
AcDbTrace
 10
105530.8175706315
 20
-169061.4571960988
 30
0.0
 11
105534.1509039648
 21
-169061.4571960988
 31
0.0
 12
105532.4842372982
 22
-169071.4571960988
 32
0.0
 13
105532.4842372982
 23
-169071.4571960988
 33
0.0
  0
SOLID
  5
D73CA
330
D72CD
100
AcDbEntity
  8
标注
 48
5.0
100
AcDbTrace
 10
105530.8175706315
 20
-168601.4571960986
 30
0.0
 11
105534.1509039648
 21
-168601.4571960986
 31
0.0
 12
105532.4842372982
 22
-168591.4571960986
 32
0.0
 13
105532.4842372982
 23
-168591.4571960986
 33
0.0
  0
MTEXT
  5
D73CB
330
D72CD
100
AcDbEntity
  8
标注
 48
5.0
100
AcDbMText
 10
105532.4842372982
 20
-168831.4571960986
 30
0.0
 40
12.0
 41
0.0
 71
     5
 72
     1
  1
\A1;480
 11
0.0000000000000001
 21
1.0
 31
0.0
 73
     1
 44
1.0
1001
ACAD
1000
MTEXTBEGIN
1070
    73
1070
     1
1070
    44
1040
1.0
1070
    74
1070
     0
1000
MTEXTEND
  0
POINT
  5
D73CC
330
D72CD
100
AcDbEntity
  8
Defpoints
 62
     0
 48
5.0
100
AcDbPoint
 10
105274.1994026015
 20
-169071.4571960988
 30
0.0
  0
POINT
  5
D73CD
330
D72CD
100
AcDbEntity
  8
Defpoints
 62
     0
 48
5.0
100
AcDbPoint
 10
105274.1994026014
 20
-168591.4571960986
 30
0.0
  0
POINT
  5
D73CE
330
D72CD
100
AcDbEntity
  8
Defpoints
 62
     0
 48
5.0
100
AcDbPoint
 10
105532.4842372982
 20
-168591.4571960986
 30
0.0
  0
ENDBLK
  5
D72CF
330
D72CD
100
AcDbEntity
  8
0
 48
5.0
100
AcDbBlockEnd
  0
BLOCK
  5
D72DB
330
D72DA
100
AcDbEntity
  8
0
 48
5.0
100
AcDbBlockBegin
  2
*D48
 70
     1
 10
0.0
 20
0.0
 30
0.0
  3
*D48
  1

  0
LINE
  5
D73CF
330
D72DA
100
AcDbEntity
  8
标注
 48
5.0
370
    -2
100
AcDbLine
 10
105281.1986453288
 20
-169075.4571960986
 30
0.0
 11
105565.4070262082
 21
-169075.4571960986
 31
0.0
  0
LINE
  5
D73D0
330
D72DA
100
AcDbEntity
  8
标注
 48
5.0
370
    -2
100
AcDbLine
 10
105281.19819245
 20
-168587.4571960991
 30
0.0
 11
105565.4070262082
 21
-168587.4571960991
 31
0.0
  0
LINE
  5
D73D1
330
D72DA
100
AcDbEntity
  8
标注
 48
5.0
370
    -2
100
AcDbLine
 10
105558.4070262082
 20
-169065.4571960986
 30
0.0
 11
105558.4070262082
 21
-168843.9571960988
 31
0.0
  0
LINE
  5
D73D2
330
D72DA
100
AcDbEntity
  8
标注
 48
5.0
370
    -2
100
AcDbLine
 10
105558.4070262082
 20
-168597.4571960991
 30
0.0
 11
105558.4070262082
 21
-168818.9571960988
 31
0.0
  0
SOLID
  5
D73D3
330
D72DA
100
AcDbEntity
  8
标注
 48
5.0
100
AcDbTrace
 10
105556.7403595415
 20
-169065.4571960986
 30
0.0
 11
105560.0736928749
 21
-169065.4571960986
 31
0.0
 12
105558.4070262082
 22
-169075.4571960986
 32
0.0
 13
105558.4070262082
 23
-169075.4571960986
 33
0.0
  0
SOLID
  5
D73D4
330
D72DA
100
AcDbEntity
  8
标注
 48
5.0
100
AcDbTrace
 10
105556.7403595415
 20
-168597.4571960991
 30
0.0
 11
105560.0736928749
 21
-168597.4571960991
 31
0.0
 12
105558.4070262082
 22
-168587.4571960991
 32
0.0
 13
105558.4070262082
 23
-168587.4571960991
 33
0.0
  0
MTEXT
  5
D73D5
330
D72DA
100
AcDbEntity
  8
标注
 48
5.0
100
AcDbMText
 10
105558.4070262082
 20
-168831.4571960988
 30
0.0
 40
12.0
 41
0.0
 71
     5
 72
     1
  1
\A1;488
 11
0.0000000000000001
 21
1.0
 31
0.0
 73
     1
 44
1.0
1001
ACAD
1000
MTEXTBEGIN
1070
    73
1070
     1
1070
    44
1040
1.0
1070
    74
1070
     0
1000
MTEXTEND
  0
POINT
  5
D73D6
330
D72DA
100
AcDbEntity
  8
Defpoints
 62
     0
 48
5.0
100
AcDbPoint
 10
105274.1986453288
 20
-169075.4571960986
 30
0.0
  0
POINT
  5
D73D7
330
D72DA
100
AcDbEntity
  8
Defpoints
 62
     0
 48
5.0
100
AcDbPoint
 10
105274.19819245
 20
-168587.4571960991
 30
0.0
  0
POINT
  5
D73D8
330
D72DA
100
AcDbEntity
  8
Defpoints
 62
     0
 48
5.0
100
AcDbPoint
 10
105558.4070262082
 20
-168587.4571960991
 30
0.0
  0
ENDBLK
  5
D72DC
330
D72DA
100
AcDbEntity
  8
0
 48
5.0
100
AcDbBlockEnd
  0
BLOCK
  5
D72F1
330
D72F0
100
AcDbEntity
  8
0
 48
5.0
100
AcDbBlockBegin
  2
*D49
 70
     1
 10
0.0
 20
0.0
 30
0.0
  3
*D49
  1

  0
LINE
  5
D7428
330
D72F0
100
AcDbEntity
  8
标注
 48
5.0
370
    -2
100
AcDbLine
 10
104824.1144964181
 20
-168683.3676446963
 30
0.0
 11
104816.7235281914
 21
-168676.6316526631
 31
0.0
  0
MTEXT
  5
D7429
330
D72F0
100
AcDbEntity
  8
标注
 48
5.0
100
AcDbMText
 10
104833.106841094
 20
-168691.5631016699
 30
0.0
 40
12.0
 41
0.0
 71
     5
 72
     1
  1
\A1;R81
 11
0.7390968226783588
 21
-0.673599203315113
 31
0.0
 73
     1
 44
1.0
1001
ACAD
1000
MTEXTBEGIN
1070
    73
1070
     1
1070
    44
1040
1.0
1070
    74
1070
     0
1000
MTEXTEND
  0
SOLID
  5
D742A
330
D72F0
100
AcDbEntity
  8
标注
 48
5.0
100
AcDbTrace
 10
104817.8461935302
 20
-168675.3998246253
 30
0.0
 11
104815.6008628525
 21
-168677.8634807009
 31
0.0
 12
104809.3325599646
 22
-168669.89566063
 32
0.0
 13
104809.3325599646
 23
-168669.89566063
 33
0.0
  0
POINT
  5
D742B
330
D72F0
100
AcDbEntity
  8
Defpoints
 62
     0
 48
5.0
100
AcDbPoint
 10
104809.3325599646
 20
-168669.89566063
 30
0.0
  0
POINT
  5
D742C
330
D72F0
100
AcDbEntity
  8
Defpoints
 62
     0
 48
5.0
100
AcDbPoint
 10
104869.1994026016
 20
-168724.4571960986
 30
0.0
  0
ENDBLK
  5
D72F2
330
D72F0
100
AcDbEntity
  8
0
 48
5.0
100
AcDbBlockEnd
  0
BLOCK
  5
D72FA
330
D72F9
100
AcDbEntity
  8
0
 48
5.0
100
AcDbBlockBegin
  2
*D50
 70
     1
 10
0.0
 20
0.0
 30
0.0
  3
*D50
  1

  0
LINE
  5
D742D
330
D72F9
100
AcDbEntity
  8
标注
 48
5.0
370
    -2
100
AcDbLine
 10
104826.7988323854
 20
-169034.3114050794
 30
0.0
 11
104819.8479192352
 21
-169041.5006196665
 31
0.0
  0
MTEXT
  5
D742E
330
D72F9
100
AcDbEntity
  8
标注
 48
5.0
100
AcDbMText
 10
104835.2557767181
 20
-169025.5645273319
 30
0.0
 40
12.0
 41
0.0
 71
     5
 72
     1
  1
\A1;R81
 11
0.6950913150193642
 21
0.7189214587036969
 31
0.0
 73
     1
 44
1.0
1001
ACAD
1000
MTEXTBEGIN
1070
    73
1070
     1
1070
    44
1040
1.0
1070
    74
1070
     0
1000
MTEXTEND
  0
SOLID
  5
D742F
330
D72F9
100
AcDbEntity
  8
标注
 48
5.0
100
AcDbTrace
 10
104818.649716804
 20
-169040.3421341414
 30
0.0
 11
104821.0461216663
 21
-169042.6591051915
 31
0.0
 12
104812.897006085
 22
-169048.6898342535
 32
0.0
 13
104812.897006085
 23
-169048.6898342535
 33
0.0
  0
POINT
  5
D7430
330
D72F9
100
AcDbEntity
  8
Defpoints
 62
     0
 48
5.0
100
AcDbPoint
 10
104812.897006085
 20
-169048.6898342535
 30
0.0
  0
POINT
  5
D7431
330
D72F9
100
AcDbEntity
  8
Defpoints
 62
     0
 48
5.0
100
AcDbPoint
 10
104869.1994026015
 20
-168990.4571960985
 30
0.0
  0
ENDBLK
  5
D72FB
330
D72F9
100
AcDbEntity
  8
0
 48
5.0
100
AcDbBlockEnd
  0
BLOCK
  5
D7303
330
D7302
100
AcDbEntity
  8
0
 48
5.0
100
AcDbBlockBegin
  2
*D51
 70
     1
 10
0.0
 20
0.0
 30
0.0
  3
*D51
  1

  0
LINE
  5
D7432
330
D7302
100
AcDbEntity
  8
标注
 48
5.0
370
    -2
100
AcDbLine
 10
105082.1274450696
 20
-168621.8505830052
 30
0.0
 11
105087.5635333909
 21
-168630.2439699119
 31
0.0
  0
MTEXT
  5
D7433
330
D7302
100
AcDbEntity
  8
标注
 48
5.0
100
AcDbMText
 10
105075.2779737849
 20
-168611.2749155029
 30
0.0
 40
12.0
 41
0.0
 71
     5
 72
     1
  1
\A1;R30
 11
0.5436088321211549
 21
-0.8393386906606142
 31
0.0
 73
     1
 44
1.0
1001
ACAD
1000
MTEXTBEGIN
1070
    73
1070
     1
1070
    44
1040
1.0
1070
    74
1070
     0
1000
MTEXTEND
  0
SOLID
  5
D7434
330
D7302
100
AcDbEntity
  8
标注
 48
5.0
100
AcDbTrace
 10
105088.9624312087
 20
-168629.3379551917
 30
0.0
 11
105086.1646355731
 21
-168631.149984632
 31
0.0
 12
105092.9996217121
 22
-168638.6373568185
 32
0.0
 13
105092.9996217121
 23
-168638.6373568185
 33
0.0
  0
POINT
  5
D7435
330
D7302
100
AcDbEntity
  8
Defpoints
 62
     0
 48
5.0
100
AcDbPoint
 10
105092.9996217121
 20
-168638.6373568185
 30
0.0
  0
POINT
  5
D7436
330
D7302
100
AcDbEntity
  8
Defpoints
 62
     0
 48
5.0
100
AcDbPoint
 10
105076.6913567484
 20
-168613.4571960985
 30
0.0
  0
ENDBLK
  5
D7304
330
D7302
100
AcDbEntity
  8
0
 48
5.0
100
AcDbBlockEnd
  0
ENDSEC
  0
SECTION
  2
ENTITIES
  0
LWPOLYLINE
  5
D6EE4
102
{ACAD_REACTORS
330
D7002
330
D7043
330
D7098
330
D70D2
330
D70E2
330
D70F2
330
D7102
330
D7112
330
D7122
330
D7142
330
D7152
102
}
330
1F
100
AcDbEntity
  8
虚线
 48
5.0
100
AcDbPolyline
 90
       15
 70
     0
 43
0.0
 10
102787.3727673462
 20
-169071.4571960988
 42
-0.0201374863443466
 10
102682.7851437819
 20
-169067.2432235729
 42
-0.3678944787354151
 10
102591.1513796103
 20
-168975.5738564517
 42
-0.0200403321626885
 10
102585.3727673462
 20
-168831.4571960987
 42
-0.0200403321626882
 10
102591.1513796091
 20
-168687.340535761
 42
-0.3678944787354527
 10
102682.7851437828
 20
-168595.6711686244
 42
-0.0201374863443466
 10
102787.3727673462
 20
-168591.4571960986
 42
-0.020137486344347
 10
102891.9603909095
 20
-168595.6711686244
 42
-0.2050027328402163
 10
102961.5810537912
 20
-168632.3548470511
 42
0.2260735048085184
 10
102984.8808131993
 20
-168643.4571960985
 10
103192.3727673462
 20
-168643.4571960985
 42
-0.4142135623730951
 10
103273.3727673462
 20
-168724.4571960986
 10
103273.3727673462
 20
-168990.4571960985
 42
-0.4142135623730951
 10
103192.3727673462
 20
-169071.4571960985
 10
102787.3735246189
 20
-169071.4571960986
1001
AcDbBlockRepETag
1070
     1
1071
       24
1005
0
  0
LWPOLYLINE
  5
D6EF3
102
{ACAD_REACTORS
330
D6F26
330
D6F8D
330
D701C
330
D705D
330
D70B2
102
}
330
1F
100
AcDbEntity
  8
粗实线
 62
     7
100
AcDbPolyline
 90
       15
 70
     0
 43
0.0
 10
102787.3727673462
 20
-169075.4571960988
 42
-0.0201374863443471
 10
102682.4633357094
 20
-169071.2302575036
 42
-0.3678944787354238
 10
102587.1642209709
 20
-168975.8941156972
 42
-0.0200403321626885
 10
102581.3727673462
 20
-168831.4571960987
 42
-0.0200403321626882
 10
102587.1642209697
 20
-168687.0202765158
 42
-0.3678944787354604
 10
102682.4633357103
 20
-168591.6841346937
 42
-0.0201374863443471
 10
102787.3727673462
 20
-168587.4571960986
 42
-0.0201374863443475
 10
102892.282198982
 20
-168591.6841346937
 42
-0.205002732840259
 10
102964.687688379
 20
-168629.8351602574
 42
0.2260735048085969
 10
102984.8808131993
 20
-168639.4571960985
 10
103192.3727673462
 20
-168639.4571960985
 42
-0.4142135623730951
 10
103277.3727673462
 20
-168724.4571960986
 10
103277.3727673462
 20
-168990.4571960985
 42
-0.4142135623730951
 10
103192.3727673462
 20
-169075.4571960986
 10
102787.3735246189
 20
-169075.4571960986
1001
AcDbBlockRepETag
1070
     1
1071
       24
1005
0
  0
LINE
  5
D6F00
330
1F
100
AcDbEntity
  8
虚线
 48
5.0
100
AcDbLine
 10
102602.3727673362
 20
-168831.4571960987
 30
0.0
 11
102926.3727673462
 21
-168831.4571960987
 31
0.0
  0
LINE
  5
D6F01
330
1F
100
AcDbEntity
  8
虚线
 48
5.0
100
AcDbLine
 10
102929.3727673462
 20
-169054.4571961088
 30
0.0
 11
102929.3727673462
 21
-168834.4571960987
 31
0.0
  0
CIRCLE
  5
D6F02
102
{ACAD_REACTORS
330
D6F4B
330
D6FE0
102
}
330
1F
100
AcDbEntity
  8
粗实线
 62
     7
100
AcDbCircle
 10
102929.3727673462
 20
-168831.4571960987
 30
0.0
 40
3.0
  0
CIRCLE
  5
D6F03
102
{ACAD_REACTORS
330
D6FC0
102
}
330
1F
100
AcDbEntity
  8
粗实线
 62
     7
100
AcDbCircle
 10
102929.3727673462
 20
-168619.8076744753
 30
0.0
 40
3.0
  0
CIRCLE
  5
D6F04
102
{ACAD_REACTORS
330
D6F65
102
}
330
1F
100
AcDbEntity
  8
粗实线
 62
     7
100
AcDbCircle
 10
103259.3727673562
 20
-168831.4571960987
 30
0.0
 40
3.0
  0
CIRCLE
  5
D6F05
102
{ACAD_REACTORS
330
D6F26
102
}
330
1F
100
AcDbEntity
  8
粗实线
 62
     7
100
AcDbCircle
 10
102599.3727673362
 20
-168831.4571960987
 30
0.0
 40
3.0
  0
CIRCLE
  5
D6F06
102
{ACAD_REACTORS
330
D6F8D
102
}
330
1F
100
AcDbEntity
  8
粗实线
 62
     7
100
AcDbCircle
 10
102929.3727673462
 20
-169057.4571961088
 30
0.0
 40
3.0
  0
LINE
  5
D6F07
330
1F
100
AcDbEntity
  8
虚线
 48
5.0
100
AcDbLine
 10
102929.3727673462
 20
-168828.4571960987
 30
0.0
 11
102929.3727673462
 21
-168622.8076744753
 31
0.0
  0
LINE
  5
D6F08
330
1F
100
AcDbEntity
  8
虚线
 48
5.0
100
AcDbLine
 10
102932.3727673462
 20
-168831.4571960987
 30
0.0
 11
103256.3727673561
 21
-168831.4571960987
 31
0.0
  0
DIMENSION
  5
D6F09
102
{ACAD_XDICTIONARY
360
D6F19
102
}
102
{ACAD_REACTORS
330
D6F26
102
}
330
1F
100
AcDbEntity
  8
标注
 48
5.0
100
AcDbDimension
  2
*D1
 10
102581.3727673462
 20
-168857.2519708363
 30
0.0
 11
102553.8061006795
 21
-168857.2519708363
 31
0.0
 70
   160
 71
     5
 42
17.99999999000283
  3
副本Standard
100
AcDbAlignedDimension
 13
102599.3727673362
 23
-168831.4571960987
 33
0.0
 14
102581.3727673462
 24
-168831.4571960988
 34
0.0
100
AcDbRotatedDimension
1001
ACAD
1000
DSTYLE
1002
{
1070
    41
1040
10.0
1070
    49
1040
8.0
1070
   140
1040
12.0
1070
   147
1040
0.5
1070
   179
1070
     0
1070
   345
1005
15
1002
}
  0
DIMENSION
  5
D6F32
102
{ACAD_XDICTIONARY
360
D6F40
102
}
102
{ACAD_REACTORS
330
D6F4B
102
}
330
1F
100
AcDbEntity
  8
标注
 48
5.0
100
AcDbDimension
  2
*D2
 10
102929.3727673462
 20
-168857.2519708363
 30
0.0
 11
102764.3727673412
 21
-168857.2519708363
 31
0.0
 70
    32
 71
     5
 42
330.0000000099972
  3
副本Standard
100
AcDbAlignedDimension
 13
102599.3727673362
 23
-168831.4571960987
 33
0.0
 14
102929.3727673462
 24
-168831.4571960987
 34
0.0
100
AcDbRotatedDimension
1001
ACAD
1000
DSTYLE
1002
{
1070
    41
1040
10.0
1070
    49
1040
8.0
1070
   140
1040
12.0
1070
   147
1040
0.5
1070
   179
1070
     0
1070
   345
1005
15
1002
}
  0
DIMENSION
  5
D6F4C
102
{ACAD_XDICTIONARY
360
D6F5A
102
}
102
{ACAD_REACTORS
330
D6F65
102
}
330
1F
100
AcDbEntity
  8
标注
 48
5.0
100
AcDbDimension
  2
*D3
 10
103259.3727673562
 20
-168886.7379965963
 30
0.0
 11
102763.1394340078
 21
-168886.7379965963
 31
0.0
 70
   160
 71
     5
 42
660.0000000199943
  3
副本Standard
100
AcDbAlignedDimension
 13
102599.3727673362
 23
-168831.4571960987
 33
0.0
 14
103259.3727673562
 24
-168831.4571960987
 34
0.0
100
AcDbRotatedDimension
1001
ACAD
1000
DSTYLE
1002
{
1070
    41
1040
10.0
1070
    49
1040
8.0
1070
   140
1040
12.0
1070
   147
1040
0.5
1070
   179
1070
     0
1070
   345
1005
15
1002
}
  0
DIMENSION
  5
D6F70
102
{ACAD_XDICTIONARY
360
D6F80
102
}
102
{ACAD_REACTORS
330
D6F8D
102
}
330
1F
100
AcDbEntity
  8
标注
 48
5.0
100
AcDbDimension
  2
*D4
 10
102952.7742722811
 20
-169075.4571960986
 30
0.0
 11
102952.7742722812
 21
-169103.0238627652
 31
0.0
 70
   160
 71
     5
 42
17.99999998978455
  3
副本Standard
100
AcDbAlignedDimension
 13
102929.3727673462
 23
-169057.4571961088
 33
0.0
 14
102929.3727673462
 24
-169075.4571960986
 34
0.0
 50
90.0
100
AcDbRotatedDimension
1001
ACAD
1000
DSTYLE
1002
{
1070
    41
1040
10.0
1070
    49
1040
8.0
1070
   140
1040
12.0
1070
   147
1040
0.5
1070
   179
1070
     0
1070
   345
1005
15
1002
}
  0
DIMENSION
  5
D6F99
330
1F
100
AcDbEntity
  8
标注
 48
5.0
100
AcDbDimension
  2
*D5
 10
102952.7742722811
 20
-168831.4571960987
 30
0.0
 11
102952.7742722812
 21
-168944.4571961037
 31
0.0
 70
    32
 71
     5
 42
226.0000000100991
  3
副本Standard
100
AcDbAlignedDimension
 13
102929.3727673462
 23
-169057.4571961088
 33
0.0
 14
102929.3727673462
 24
-168831.4571960987
 34
0.0
 50
90.0
100
AcDbRotatedDimension
1001
ACAD
1000
DSTYLE
1002
{
1070
    41
1040
10.0
1070
    49
1040
8.0
1070
   140
1040
12.0
1070
   147
1040
0.5
1070
   179
1070
     0
1070
   345
1005
15
1002
}
  0
DIMENSION
  5
D6FA7
102
{ACAD_XDICTIONARY
360
D6FB5
102
}
102
{ACAD_REACTORS
330
D6FC0
102
}
330
1F
100
AcDbEntity
  8
标注
 48
5.0
100
AcDbDimension
  2
*D6
 10
102978.3628587116
 20
-168619.8076744753
 30
0.0
 11
102978.3628587117
 21
-168945.1728725223
 31
0.0
 70
   160
 71
     5
 42
437.6495216334297
  3
副本Standard
100
AcDbAlignedDimension
 13
102929.3727673462
 23
-169057.4571961088
 33
0.0
 14
102929.3727673462
 24
-168619.8076744753
 34
0.0
 50
90.0
100
AcDbRotatedDimension
1001
ACAD
1000
DSTYLE
1002
{
1070
    41
1040
10.0
1070
    49
1040
8.0
1070
   140
1040
12.0
1070
   147
1040
0.5
1070
   179
1070
     0
1070
   345
1005
15
1002
}
  0
DIMENSION
  5
D6FCB
102
{ACAD_XDICTIONARY
360
D6FD7
102
}
102
{ACAD_REACTORS
330
D6FE0
102
}
330
1F
100
AcDbEntity
  8
标注
 48
5.0
100
AcDbDimension
  2
*D7
 10
102931.4564273665
 20
-168833.6155197351
 30
0.0
 11
102899.1282525588
 21
-168800.1289321306
 31
0.0
 70
    35
  1
{\fGulim|b0|i0|c129|p34;5-<>}
 71
     5
 42
6.0
  3
副本Standard
100
AcDbDiametricDimension
 15
102927.2891073258
 25
-168829.2988724622
 35
0.0
 40
0.0
1001
ACAD
1000
DSTYLE
1002
{
1070
    41
1040
10.0
1070
    49
1040
8.0
1070
   140
1040
12.0
1070
   147
1040
0.5
1070
   179
1070
     0
1070
   288
1070
     1
1070
   345
1005
15
1002
}
1001
ACAD_DSTYLE_DIMRADIAL_EXTENSION
1070
   387
1070
     1
1070
   388
1040
0.0
1070
   390
1040
0.0
  0
DIMENSION
  5
D6FE9
102
{ACAD_XDICTIONARY
360
D6FF7
102
}
102
{ACAD_REACTORS
330
D7002
102
}
330
1F
100
AcDbEntity
  8
标注
 48
5.0
100
AcDbDimension
  2
*D8
 10
103273.3727673462
 20
-169126.7433283951
 30
0.0
 11
102929.3727673462
 21
-169126.7433283951
 31
0.0
 70
    32
 71
     5
 42
688.0
  3
副本Standard
100
AcDbAlignedDimension
 13
102585.3727673462
 23
-168831.4571960987
 33
0.0
 14
103273.3727673462
 24
-168990.4571960985
 34
0.0
100
AcDbRotatedDimension
1001
ACAD
1000
DSTYLE
1002
{
1070
    41
1040
10.0
1070
    49
1040
8.0
1070
   140
1040
12.0
1070
   147
1040
0.5
1070
   179
1070
     0
1070
   345
1005
15
1002
}
  0
DIMENSION
  5
D7003
102
{ACAD_XDICTIONARY
360
D7011
102
}
102
{ACAD_REACTORS
330
D701C
102
}
330
1F
100
AcDbEntity
  8
标注
 48
5.0
100
AcDbDimension
  2
*D9
 10
103277.3727673462
 20
-169154.014296807
 30
0.0
 11
102929.3727673462
 21
-169154.014296807
 31
0.0
 70
    32
 71
     5
 42
696.0
  3
副本Standard
100
AcDbAlignedDimension
 13
102581.3727673462
 23
-168838.4571960988
 33
0.0
 14
103277.3727673462
 24
-168990.4571960985
 34
0.0
100
AcDbRotatedDimension
1001
ACAD
1000
DSTYLE
1002
{
1070
    41
1040
10.0
1070
    49
1040
8.0
1070
   140
1040
12.0
1070
   147
1040
0.5
1070
   179
1070
     0
1070
   345
1005
15
1002
}
  0
DIMENSION
  5
D701D
330
1F
100
AcDbEntity
  8
标注
 48
5.0
100
AcDbDimension
  2
*D10
 10
103277.3727673462
 20
-169126.7433283951
 30
0.0
 11
103301.5394340128
 21
-169126.7433283951
 31
0.0
 70
    32
 71
     5
 42
4.0
  3
副本Standard
100
AcDbAlignedDimension
 13
103273.3727673462
 23
-169126.7433283951
 33
0.0
 14
103277.3727673462
 24
-169126.7433283951
 34
0.0
100
AcDbRotatedDimension
1001
ACAD
1000
DSTYLE
1002
{
1070
    41
1040
10.0
1070
    49
1040
8.0
1070
   140
1040
12.0
1070
   147
1040
0.5
1070
   179
1070
     0
1070
   345
1005
15
1002
}
  0
DIMENSION
  5
D702A
102
{ACAD_XDICTIONARY
360
D7038
102
}
102
{ACAD_REACTORS
330
D7043
102
}
330
1F
100
AcDbEntity
  8
标注
 48
5.0
100
AcDbDimension
  2
*D11
 10
103314.3404149021
 20
-168643.4571960985
 30
0.0
 11
103314.3404149022
 21
-168857.4571960985
 31
0.0
 70
    32
 71
     5
 42
427.9999999999708
  3
副本Standard
100
AcDbAlignedDimension
 13
103192.3727673462
 23
-169071.4571960985
 33
0.0
 14
103192.3727673462
 24
-168643.4571960985
 34
0.0
 50
90.0
100
AcDbRotatedDimension
1001
ACAD
1000
DSTYLE
1002
{
1070
    41
1040
10.0
1070
    49
1040
8.0
1070
   140
1040
12.0
1070
   147
1040
0.5
1070
   179
1070
     0
1070
   345
1005
15
1002
}
  0
DIMENSION
  5
D7044
102
{ACAD_XDICTIONARY
360
D7052
102
}
102
{ACAD_REACTORS
330
D705D
102
}
330
1F
100
AcDbEntity
  8
标注
 48
5.0
100
AcDbDimension
  2
*D12
 10
103333.7166475601
 20
-168639.4571960985
 30
0.0
 11
103333.7166475601
 21
-168858.7426373072
 31
0.0
 70
   160
 71
     5
 42
436.0
  3
副本Standard
100
AcDbAlignedDimension
 13
103192.3727673462
 23
-169075.4571960986
 33
0.0
 14
103192.3727673462
 24
-168639.4571960985
 34
0.0
 50
90.0
100
AcDbRotatedDimension
1001
ACAD
1000
DSTYLE
1002
{
1070
    41
1040
10.0
1070
    49
1040
8.0
1070
   140
1040
12.0
1070
   147
1040
0.5
1070
   179
1070
     0
1070
   345
1005
15
1002
}
  0
DIMENSION
  5
D705E
330
1F
100
AcDbEntity
  8
标注
 48
5.0
100
AcDbDimension
  2
*D13
 10
103314.3404149021
 20
-168639.4571960985
 30
0.0
 11
103314.3404149022
 21
-168615.2905294318
 31
0.0
 70
    32
 71
     5
 42
4.0
  3
副本Standard
100
AcDbAlignedDimension
 13
103314.3404149021
 23
-168643.4571960985
 33
0.0
 14
103314.3404149021
 24
-168639.4571960985
 34
0.0
 50
90.0
100
AcDbRotatedDimension
1001
ACAD
1000
DSTYLE
1002
{
1070
    41
1040
10.0
1070
    49
1040
8.0
1070
   140
1040
12.0
1070
   147
1040
0.5
1070
   179
1070
     0
1070
   345
1005
15
1002
}
  0
DIMENSION
  5
D707F
102
{ACAD_XDICTIONARY
360
D708D
102
}
102
{ACAD_REACTORS
330
D7098
102
}
330
1F
100
AcDbEntity
  8
标注
 48
5.0
100
AcDbDimension
  2
*D14
 10
102529.0879326495
 20
-168591.4571960986
 30
0.0
 11
102529.0879326496
 21
-168831.4571960986
 31
0.0
 70
    32
 71
     5
 42
480.0000000002037
  3
副本Standard
100
AcDbAlignedDimension
 13
102787.3727673462
 23
-169071.4571960988
 33
0.0
 14
102787.3727673463
 24
-168591.4571960986
 34
0.0
 50
90.0
100
AcDbRotatedDimension
1001
ACAD
1000
DSTYLE
1002
{
1070
    41
1040
10.0
1070
    49
1040
8.0
1070
   140
1040
12.0
1070
   147
1040
0.5
1070
   179
1070
     0
1070
   345
1005
15
1002
}
  0
DIMENSION
  5
D7099
102
{ACAD_XDICTIONARY
360
D70A7
102
}
102
{ACAD_REACTORS
330
D70B2
102
}
330
1F
100
AcDbEntity
  8
标注
 48
5.0
100
AcDbDimension
  2
*D15
 10
102503.1651437395
 20
-168587.4571960991
 30
0.0
 11
102503.1651437396
 21
-168831.4571960988
 31
0.0
 70
    32
 71
     5
 42
487.999999999447
  3
副本Standard
100
AcDbAlignedDimension
 13
102787.3735246189
 23
-169075.4571960986
 33
0.0
 14
102787.3739774977
 24
-168587.4571960991
 34
0.0
 50
90.0
100
AcDbRotatedDimension
1001
ACAD
1000
DSTYLE
1002
{
1070
    41
1040
10.0
1070
    49
1040
8.0
1070
   140
1040
12.0
1070
   147
1040
0.5
1070
   179
1070
     0
1070
   345
1005
15
1002
}
  0
DIMENSION
  5
D70B3
330
1F
100
AcDbEntity
  8
标注
 48
5.0
100
AcDbDimension
  2
*D16
 10
102529.0879326495
 20
-168587.4571960991
 30
0.0
 11
102529.0879326496
 21
-168563.2905294324
 31
0.0
 70
    32
 71
     5
 42
3.999999999447026
  3
副本Standard
100
AcDbAlignedDimension
 13
102529.0879326495
 23
-168591.4571960986
 33
0.0
 14
102529.0879326495
 24
-168587.4571960991
 34
0.0
 50
90.0
100
AcDbRotatedDimension
1001
ACAD
1000
DSTYLE
1002
{
1070
    41
1040
10.0
1070
    49
1040
8.0
1070
   140
1040
12.0
1070
   147
1040
0.5
1070
   179
1070
     0
1070
   345
1005
15
1002
}
  0
DIMENSION
  5
D70C3
102
{ACAD_XDICTIONARY
360
D70CC
102
}
102
{ACAD_REACTORS
330
D70D2
102
}
330
1F
100
AcDbEntity
  8
标注
 48
5.0
100
AcDbDimension
  2
*D17
 10
103192.3727673462
 20
-168724.4571960986
 30
0.0
 11
103228.4653288536
 21
-168691.5631016701
 31
0.0
 70
   164
 71
     5
 42
81.00000000002911
  3
副本Standard
100
AcDbRadialDimension
 15
103252.2396099832
 25
-168669.8956606301
 35
0.0
 40
0.0
1001
ACAD
1000
DSTYLE
1002
{
1070
    41
1040
10.0
1070
    49
1040
8.0
1070
   140
1040
12.0
1070
   147
1040
0.5
1070
   179
1070
     0
1070
   288
1070
     1
1070
   345
1005
15
1002
}
1001
ACAD_DSTYLE_DIMRADIAL_EXTENSION
1070
   387
1070
     1
1070
   388
1040
0.0
1070
   390
1040
1.570796326794896
  0
DIMENSION
  5
D70D3
102
{ACAD_XDICTIONARY
360
D70DC
102
}
102
{ACAD_REACTORS
330
D70E2
102
}
330
1F
100
AcDbEntity
  8
标注
 48
5.0
100
AcDbDimension
  2
*D18
 10
103192.3727673462
 20
-168990.4571960984
 30
0.0
 11
103226.3163932296
 21
-169025.5645273318
 31
0.0
 70
   164
 71
     5
 42
81.0
  3
副本Standard
100
AcDbRadialDimension
 15
103248.6751638628
 25
-169048.6898342534
 35
0.0
 40
0.0
1001
ACAD
1000
DSTYLE
1002
{
1070
    41
1040
10.0
1070
    49
1040
8.0
1070
   140
1040
12.0
1070
   147
1040
0.5
1070
   179
1070
     0
1070
   288
1070
     1
1070
   345
1005
15
1002
}
1001
ACAD_DSTYLE_DIMRADIAL_EXTENSION
1070
   387
1070
     1
1070
   388
1040
4.712388980384509
1070
   390
1040
6.283185307179226
  0
DIMENSION
  5
D70E3
102
{ACAD_XDICTIONARY
360
D70EC
102
}
102
{ACAD_REACTORS
330
D70F2
102
}
330
1F
100
AcDbEntity
  8
标注
 48
5.0
100
AcDbDimension
  2
*D19
 10
102984.8808131995
 20
-168613.4571960986
 30
0.0
 11
102986.294196163
 21
-168611.2749155029
 31
0.0
 70
   164
 71
     5
 42
30.00000000005821
  3
副本Standard
100
AcDbRadialDimension
 15
102968.5725482358
 25
-168638.6373568185
 35
0.0
 40
0.0
1001
ACAD
1000
DSTYLE
1002
{
1070
    41
1040
10.0
1070
    49
1040
8.0
1070
   140
1040
12.0
1070
   147
1040
0.5
1070
   179
1070
     0
1070
   288
1070
     1
1070
   345
1005
15
1002
}
1001
ACAD_DSTYLE_DIMRADIAL_EXTENSION
1070
   387
1070
     1
1070
   388
1040
3.823045042500483
1070
   390
1040
4.712388980384688
  0
DIMENSION
  5
D70F3
102
{ACAD_XDICTIONARY
360
D70FC
102
}
102
{ACAD_REACTORS
330
D7102
102
}
330
1F
100
AcDbEntity
  8
标注
 48
5.0
100
AcDbDimension
  2
*D20
 10
102883.9151890961
 20
-168695.3470168922
 30
0.0
 11
102909.1706033014
 21
-168637.485269328
 31
0.0
 70
   164
 71
     5
 42
100.000000000582
  3
副本Standard
100
AcDbRadialDimension
 15
102923.9184850917
 25
-168603.6969415533
 35
0.0
 40
0.0
1001
ACAD
1000
DSTYLE
1002
{
1070
    41
1040
10.0
1070
    49
1040
8.0
1070
   140
1040
12.0
1070
   147
1040
0.5
1070
   179
1070
     0
1070
   288
1070
     1
1070
   345
1005
15
1002
}
1001
ACAD_DSTYLE_DIMRADIAL_EXTENSION
1070
   387
1070
     1
1070
   388
1040
0.6814523888982306
1070
   390
1040
1.490257266921725
  0
DIMENSION
  5
D7103
102
{ACAD_XDICTIONARY
360
D710C
102
}
102
{ACAD_REACTORS
330
D7112
102
}
330
1F
100
AcDbEntity
  8
标注
 48
5.0
100
AcDbDimension
  2
*D21
 10
102787.3727673459
 20
-169891.4571960981
 30
0.0
 11
102823.56849281
 21
-168633.1109981456
 31
0.0
 70
   164
 71
     5
 42
1299.99999999965
  3
副本Standard
100
AcDbRadialDimension
 15
102824.7511842579
 25
-168591.9946710716
 35
0.0
 40
0.0
1001
ACAD
1000
DSTYLE
1002
{
1070
    41
1040
10.0
1070
    49
1040
8.0
1070
   140
1040
12.0
1070
   147
1040
0.5
1070
   179
1070
     0
1070
   288
1070
     1
1070
   345
1005
15
1002
}
1001
ACAD_DSTYLE_DIMRADIAL_EXTENSION
1070
   387
1070
     1
1070
   388
1040
1.4902572669294
1070
   390
1040
1.57079632679475
  0
DIMENSION
  5
D7113
102
{ACAD_XDICTIONARY
360
D711C
102
}
102
{ACAD_REACTORS
330
D7122
102
}
330
1F
100
AcDbEntity
  8
标注
 48
5.0
100
AcDbDimension
  2
*D22
 10
102690.830345595
 20
-168695.3470168923
 30
0.0
 11
102649.1766160926
 21
-168647.9045823385
 31
0.0
 70
   164
 71
     5
 42
100.0000000006111
  3
副本Standard
100
AcDbRadialDimension
 15
102624.8529493401
 25
-168620.2006052445
 35
0.0
 40
0.0
1001
ACAD
1000
DSTYLE
1002
{
1070
    41
1040
10.0
1070
    49
1040
8.0
1070
   140
1040
12.0
1070
   147
1040
0.5
1070
   179
1070
     0
1070
   288
1070
     1
1070
   345
1005
15
1002
}
1001
ACAD_DSTYLE_DIMRADIAL_EXTENSION
1070
   387
1070
     1
1070
   388
1040
1.651335386655522
1070
   390
1040
3.061442053677341
  0
DIMENSION
  5
D7133
102
{ACAD_XDICTIONARY
360
D713C
102
}
102
{ACAD_REACTORS
330
D7142
102
}
330
1F
100
AcDbEntity
  8
标注
 48
5.0
100
AcDbDimension
  2
*D23
 10
102690.8303455861
 20
-168967.5673753141
 30
0.0
 11
102645.1840074403
 21
-169011.1819324082
 31
0.0
 70
   164
 71
     5
 42
99.99999999094871
  3
副本Standard
100
AcDbRadialDimension
 15
102618.5288596069
 25
-169036.6506230908
 35
0.0
 40
0.0
1001
ACAD
1000
DSTYLE
1002
{
1070
    41
1040
10.0
1070
    49
1040
8.0
1070
   140
1040
12.0
1070
   147
1040
0.5
1070
   179
1070
     0
1070
   288
1070
     1
1070
   345
1005
15
1002
}
1001
ACAD_DSTYLE_DIMRADIAL_EXTENSION
1070
   387
1070
     1
1070
   388
1040
3.221743253574118
1070
   390
1040
4.631849920596071
  0
DIMENSION
  5
D7143
102
{ACAD_XDICTIONARY
360
D714C
102
}
102
{ACAD_REACTORS
330
D7152
102
}
330
1F
100
AcDbEntity
  8
标注
 48
5.0
100
AcDbDimension
  2
*D24
 10
102787.3727673465
 20
-167771.4571960875
 30
0.0
 11
102727.4399744062
 21
-169028.8963973227
 31
0.0
 70
   164
 71
     5
 42
1300.000000011263
  3
副本Standard
100
AcDbRadialDimension
 15
102725.4816768241
 25
-169069.9830883758
 35
0.0
 40
0.0
1001
ACAD
1000
DSTYLE
1002
{
1070
    41
1040
10.0
1070
    49
1040
8.0
1070
   140
1040
12.0
1070
   147
1040
0.5
1070
   179
1070
     0
1070
   288
1070
     1
1070
   345
1005
15
1002
}
1001
ACAD_DSTYLE_DIMRADIAL_EXTENSION
1070
   387
1070
     1
1070
   388
1040
4.631849920519004
1070
   390
1040
4.712388980384353
  0
DIMENSION
  5
D7153
330
1F
100
AcDbEntity
  8
标注
 48
5.0
100
AcDbDimension
  2
*D25
 10
102787.3727673463
 20
-168560.9096274525
 30
0.0
 11
102686.3727673463
 21
-168560.9096274525
 31
0.0
 70
    32
 71
     5
 42
202.0000000001601
  3
副本Standard
100
AcDbAlignedDimension
 13
102585.3727673462
 23
-168831.4571960987
 33
0.0
 14
102787.3727673463
 24
-168591.4571960986
 34
0.0
100
AcDbRotatedDimension
1001
ACAD
1000
DSTYLE
1002
{
1070
    41
1040
10.0
1070
    49
1040
8.0
1070
   140
1040
12.0
1070
   147
1040
0.5
1070
   179
1070
     0
1070
   345
1005
15
1002
}
  0
ENDSEC
  0
SECTION
  2
OBJECTS
  0
DICTIONARY
  5
C
330
0
100
AcDbDictionary
281
     1
  3
ACAD_2007HEADERVARS_RT
350
D74EE
  3
ACAD_COLOR
350
6C
  3
ACAD_GROUP
350
D
  3
ACAD_LAYOUT
350
1A
  3
ACAD_MATERIAL
350
6B
  3
ACAD_MLEADERSTYLE
350
CEDBA
  3
ACAD_MLINESTYLE
350
17
  3
ACAD_PLOTSETTINGS
350
19
  3
ACAD_PLOTSTYLENAME
350
E
  3
ACAD_SCALELIST
350
CED98
  3
ACAD_TABLESTYLE
350
FAF
  3
ACAD_VISUALSTYLE
350
CED87
  3
AcadDim
350
100FD
  3
ACDB_RECOMPOSE_DATA
350
D0C4C
  3
AcDbVariableDictionary
350
59
  3
ASE_INDEX_DICTIONARY
350
C2668
  3
DWGPROPS
350
D74ED
  3
lxx_dict
350
A9D16
  0
DICTIONARY
  5
AB
330
2
100
AcDbDictionary
280
     1
281
     1
  3
ACAD_LAYERFILTERS
360
176
  3
ACAD_LAYERSTATES
360
AC
  0
DICTIONARY
  5
CF251
330
10
100
AcDbDictionary
280
     1
281
     1
  3
ADSK_XREC_LAYER_RECONCILED
360
CF252
  0
DICTIONARY
  5
CF259
330
9D
100
AcDbDictionary
280
     1
281
     1
  3
ADSK_XREC_LAYER_RECONCILED
360
CF25A
  0
DICTIONARY
  5
CF25B
330
9E
100
AcDbDictionary
280
     1
281
     1
  3
ADSK_XREC_LAYER_RECONCILED
360
CF25C
  0
DICTIONARY
  5
CF25D
330
16DF9
100
AcDbDictionary
280
     1
281
     1
  3
ADSK_XREC_LAYER_RECONCILED
360
CF25E
  0
DICTIONARY
  5
118B
330
1F
100
AcDbDictionary
280
     1
281
     1
  3
ACAD_SORTENTS
360
118C
  0
DICTIONARY
  5
D74F9
330
D6FE3
100
AcDbDictionary
280
     1
281
     1
  3
ACAD_MTEXT_RT
360
D74FA
  0
DICTIONARY
  5
D74FB
330
D7457
100
AcDbDictionary
280
     1
281
     1
  3
ACAD_MTEXT_RT
360
D74FC
  0
DICTIONARY
  5
D6F19
330
D6F09
100
AcDbDictionary
280
     1
281
     1
  3
ACAD_DIMASSOC
360
D6F26
  0
DICTIONARY
  5
D6F40
330
D6F32
100
AcDbDictionary
280
     1
281
     1
  3
ACAD_DIMASSOC
360
D6F4B
  0
DICTIONARY
  5
D6F5A
330
D6F4C
100
AcDbDictionary
280
     1
281
     1
  3
ACAD_DIMASSOC
360
D6F65
  0
DICTIONARY
  5
D6F80
330
D6F70
100
AcDbDictionary
280
     1
281
     1
  3
ACAD_DIMASSOC
360
D6F8D
  0
DICTIONARY
  5
D6FB5
330
D6FA7
100
AcDbDictionary
280
     1
281
     1
  3
ACAD_DIMASSOC
360
D6FC0
  0
DICTIONARY
  5
D6FD7
330
D6FCB
100
AcDbDictionary
280
     1
281
     1
  3
ACAD_DIMASSOC
360
D6FE0
  0
DICTIONARY
  5
D6FF7
330
D6FE9
100
AcDbDictionary
280
     1
281
     1
  3
ACAD_DIMASSOC
360
D7002
  0
DICTIONARY
  5
D7011
330
D7003
100
AcDbDictionary
280
     1
281
     1
  3
ACAD_DIMASSOC
360
D701C
  0
DICTIONARY
  5
D7038
330
D702A
100
AcDbDictionary
280
     1
281
     1
  3
ACAD_DIMASSOC
360
D7043
  0
DICTIONARY
  5
D7052
330
D7044
100
AcDbDictionary
280
     1
281
     1
  3
ACAD_DIMASSOC
360
D705D
  0
DICTIONARY
  5
D708D
330
D707F
100
AcDbDictionary
280
     1
281
     1
  3
ACAD_DIMASSOC
360
D7098
  0
DICTIONARY
  5
D70A7
330
D7099
100
AcDbDictionary
280
     1
281
     1
  3
ACAD_DIMASSOC
360
D70B2
  0
DICTIONARY
  5
D70CC
330
D70C3
100
AcDbDictionary
280
     1
281
     1
  3
ACAD_DIMASSOC
360
D70D2
  0
DICTIONARY
  5
D70DC
330
D70D3
100
AcDbDictionary
280
     1
281
     1
  3
ACAD_DIMASSOC
360
D70E2
  0
DICTIONARY
  5
D70EC
330
D70E3
100
AcDbDictionary
280
     1
281
     1
  3
ACAD_DIMASSOC
360
D70F2
  0
DICTIONARY
  5
D70FC
330
D70F3
100
AcDbDictionary
280
     1
281
     1
  3
ACAD_DIMASSOC
360
D7102
  0
DICTIONARY
  5
D710C
330
D7103
100
AcDbDictionary
280
     1
281
     1
  3
ACAD_DIMASSOC
360
D7112
  0
DICTIONARY
  5
D711C
330
D7113
100
AcDbDictionary
280
     1
281
     1
  3
ACAD_DIMASSOC
360
D7122
  0
DICTIONARY
  5
D713C
330
D7133
100
AcDbDictionary
280
     1
281
     1
  3
ACAD_DIMASSOC
360
D7142
  0
DICTIONARY
  5
D714C
330
D7143
100
AcDbDictionary
280
     1
281
     1
  3
ACAD_DIMASSOC
360
D7152
  0
DICTIONARY
  5
D74EE
102
{ACAD_REACTORS
330
C
102
}
330
C
100
AcDbDictionary
281
     1
  3
DIMFXL
350
D74EF
  3
DIMJOGANG
350
D74F0
  3
DIMLTYPE
350
D74F1
  0
DICTIONARY
  5
6C
102
{ACAD_REACTORS
330
C
102
}
330
C
100
AcDbDictionary
281
     1
  0
DICTIONARY
  5
D
102
{ACAD_REACTORS
330
C
102
}
330
C
100
AcDbDictionary
281
     1
  0
DICTIONARY
  5
1A
102
{ACAD_REACTORS
330
C
102
}
330
C
100
AcDbDictionary
281
     1
  3
Model
350
22
  3
布局1
350
74
  3
布局2
350
79
  0
DICTIONARY
  5
6B
102
{ACAD_REACTORS
330
C
102
}
330
C
100
AcDbDictionary
281
     1
  3
ByBlock
350
CED77
  3
ByLayer
350
CED6F
  3
Global
350
CED7F
  0
DICTIONARY
  5
CEDBA
102
{ACAD_REACTORS
330
C
102
}
330
C
100
AcDbDictionary
281
     1
  3
Standard
350
CEDBB
  0
DICTIONARY
  5
17
102
{ACAD_REACTORS
330
C
102
}
330
C
100
AcDbDictionary
281
     1
  3
Standard
350
18
  0
DICTIONARY
  5
19
102
{ACAD_REACTORS
330
C
102
}
330
C
100
AcDbDictionary
281
     1
  0
ACDBDICTIONARYWDFLT
  5
E
102
{ACAD_REACTORS
330
C
102
}
330
C
100
AcDbDictionary
281
     1
  3
Normal
350
F
100
AcDbDictionaryWithDefault
340
F
  0
DICTIONARY
  5
CED98
102
{ACAD_REACTORS
330
C
102
}
330
C
100
AcDbDictionary
281
     1
  3
A0
350
CED99
  3
A1
350
CED9A
  3
A2
350
CED9B
  3
A3
350
CED9C
  3
A4
350
CED9D
  3
A5
350
CED9E
  3
A6
350
CED9F
  3
A7
350
CEDA0
  3
A8
350
CEDA1
  3
A9
350
CEDA2
  3
B0
350
CEDA3
  3
B1
350
CEDA4
  3
B2
350
CEDA5
  3
B3
350
CEDA6
  3
B4
350
CEDA7
  3
B5
350
CEDA8
  3
B6
350
CEDA9
  3
B7
350
CEDAA
  3
B8
350
CEDAB
  3
B9
350
CEDAC
  3
C0
350
CEDAD
  3
C1
350
CEDAE
  3
C2
350
CEDAF
  3
C3
350
CEDB0
  3
C4
350
CEDB1
  3
C5
350
CEDB2
  3
C6
350
CEDB3
  3
C7
350
CEDB4
  3
C8
350
CEDB5
  3
C9
350
CEDB6
  3
D0
350
CEDB7
  3
D1
350
CEDB8
  3
D2
350
CEDB9
  0
DICTIONARY
  5
FAF
102
{ACAD_REACTORS
330
C
102
}
330
C
100
AcDbDictionary
281
     1
  3
Standard
350
FB0
  0
DICTIONARY
  5
CED87
102
{ACAD_REACTORS
330
C
102
}
330
C
100
AcDbDictionary
281
     1
  3
2dWireframe
350
CED8D
  3
3D Hidden
350
CED8F
  3
3dWireframe
350
CED8E
  3
Basic
350
CED8C
  3
Brighten
350
CED93
  3
ColorChange
350
CED97
  3
Conceptual
350
CED90
  3
Dim
350
CED92
  3
Facepattern
350
CED96
  3
Flat
350
CED88
  3
FlatWithEdges
350
CED89
  3
Gouraud
350
CED8A
  3
GouraudWithEdges
350
CED8B
  3
Linepattern
350
CED95
  3
Realistic
350
CED91
  3
Thicken
350
CED94
  0
XRECORD
  5
100FD
102
{ACAD_REACTORS
330
C
102
}
330
C
100
AcDbXrecord
280
     1
 90
   990106
  3

 60
     0
 61
     0
 62
     1
 63
     3
 64
     0
 65
     0
 66
     0
 67
     3
 68
     1
 69
     0
 70
     0
 71
     0
 72
     0
 40
0.0
170
     0
  0
XRECORD
  5
D0C4C
102
{ACAD_REACTORS
330
C
102
}
330
C
100
AcDbXrecord
280
     1
 90
        1
330
FB0
  0
DICTIONARY
  5
59
102
{ACAD_REACTORS
330
C
102
}
330
C
100
AcDbDictionary
281
     1
  3
CANNOSCALE
350
D0C4F
  3
CMLEADERSTYLE
350
D0C4D
  3
CTABLESTYLE
350
100D
  3
DIMASSOC
350
5A
  3
HIDETEXT
350
5E
  3
INDEXCTL
350
D74B9
  3
LIGHTINGUNITS
350
D0C50
  3
MSLTSCALE
350
D0C4E
  3
SORTENTS
350
D74B8
  0
DICTIONARY
  5
C2668
102
{ACAD_REACTORS
330
C
102
}
330
C
100
AcDbDictionary
281
     1
  3
ASEBlockHierarchyIndexRecord
350
C2669
1001
DCO15
1040
1779131318.625
  0
XRECORD
  5
D74ED
102
{ACAD_REACTORS
330
C
102
}
330
C
100
AcDbXrecord
280
     1
  1
DWGPROPS COOKIE
  2

  3

  4

  6

  7

  8
Administrator
  9

300
=
301
=
302
=
303
=
304
=
305
=
306
=
307
=
308
=
309
=
 40
8.948028449074074
 41
2454355.343801713
 42
2457938.59520934
  1

 90
        0
  0
DICTIONARY
  5
A9D16
102
{ACAD_REACTORS
330
C
102
}
330
C
100
AcDbDictionary
281
     1
  3
lxx_dimth
350
A9D17
  0
DICTIONARY
  5
176
102
{ACAD_REACTORS
330
AB
102
}
330
AB
100
AcDbDictionary
281
     1
  0
DICTIONARY
  5
AC
102
{ACAD_REACTORS
330
AB
102
}
330
AB
100
AcDbDictionary
281
     1
  0
XRECORD
  5
CF252
102
{ACAD_REACTORS
330
CF251
102
}
330
CF251
100
AcDbXrecord
280
     1
290
     1
  0
XRECORD
  5
CF25A
102
{ACAD_REACTORS
330
CF259
102
}
330
CF259
100
AcDbXrecord
280
     1
290
     1
  0
XRECORD
  5
CF25C
102
{ACAD_REACTORS
330
CF25B
102
}
330
CF25B
100
AcDbXrecord
280
     1
290
     1
  0
XRECORD
  5
CF25E
102
{ACAD_REACTORS
330
CF25D
102
}
330
CF25D
100
AcDbXrecord
280
     1
290
     1
  0
SORTENTSTABLE
  5
118C
102
{ACAD_REACTORS
330
118B
102
}
330
118B
100
AcDbSortentsTable
330
1F
331
D6F06
  5
D6F08
331
D6F07
  5
D6F03
331
D6F08
  5
D6F01
331
D6F00
  5
D6F00
331
D6F01
  5
D6F02
331
D6F02
  5
D6F04
331
D6EF3
  5
D6EF3
331
D6F03
  5
D6F05
331
D6EE4
  5
D6EF1
331
D6F04
  5
D6F06
331
D6F05
  5
D6F07
  0
XRECORD
  5
D74FA
102
{ACAD_REACTORS
330
D74F9
102
}
330
D74F9
100
AcDbXrecord
280
     1
 40
57865.0
  1
\A1;{\fGulim|b0|i0|c129|p34;5-\U+22056}
  0
XRECORD
  5
D74FC
102
{ACAD_REACTORS
330
D74FB
102
}
330
D74FB
100
AcDbXrecord
280
     1
 40
57865.0
  1
\A1;{\fGulim|b0|i0|c129|p34;5-\U+22056}
  0
DIMASSOC
  5
D6F26
102
{ACAD_REACTORS
330
D6F19
102
}
330
D6F19
100
AcDbDimAssoc
330
D6F09
 90
        3
 70
     0
 71
     0
  1
AcDbOsnapPointRef
 72
     3
331
D6F05
 73
     2
 91
        0
 40
0.0
 10
0.0
 20
0.0
 30
0.0
 75
     0
  1
AcDbOsnapPointRef
 72
     8
331
D6EF3
 73
     2
 91
        4
 40
3.141592653593923
 10
0.0
 20
0.0
 30
0.0
 75
     1
  1
AcDbOsnapPointRef
 72
     3
331
D6F05
 73
     2
 91
        0
 40
0.0
 10
0.0
 20
0.0
 30
0.0
 75
     0
  0
DIMASSOC
  5
D6F4B
102
{ACAD_REACTORS
330
D6F40
102
}
330
D6F40
100
AcDbDimAssoc
330
D6F32
 90
        2
 70
     0
 71
     0
  1
AcDbOsnapPointRef
 72
     3
331
D6F02
 73
     2
 91
        0
 40
0.0
 10
0.0
 20
0.0
 30
0.0
 75
     0
  0
DIMASSOC
  5
D6F65
102
{ACAD_REACTORS
330
D6F5A
102
}
330
D6F5A
100
AcDbDimAssoc
330
D6F4C
 90
        2
 70
     0
 71
     0
  1
AcDbOsnapPointRef
 72
     3
331
D6F04
 73
     2
 91
        0
 40
0.0
 10
0.0
 20
0.0
 30
0.0
 75
     0
  0
DIMASSOC
  5
D6F8D
102
{ACAD_REACTORS
330
D6F80
102
}
330
D6F80
100
AcDbDimAssoc
330
D6F70
 90
        3
 70
     0
 71
     0
  1
AcDbOsnapPointRef
 72
     3
331
D6F06
 73
     2
 91
        0
 40
0.0
 10
0.0
 20
0.0
 30
0.0
 75
     0
  1
AcDbOsnapPointRef
 72
     8
331
D6EF3
 73
     2
 91
       14
 40
0.6493839302734421
 10
0.0
 20
0.0
 30
0.0
 75
     1
  1
AcDbOsnapPointRef
 72
     3
331
D6F06
 73
     2
 91
        0
 40
0.0
 10
0.0
 20
0.0
 30
0.0
 75
     0
  0
DIMASSOC
  5
D6FC0
102
{ACAD_REACTORS
330
D6FB5
102
}
330
D6FB5
100
AcDbDimAssoc
330
D6FA7
 90
        2
 70
     0
 71
     0
  1
AcDbOsnapPointRef
 72
     3
331
D6F03
 73
     2
 91
        0
 40
0.0
 10
0.0
 20
0.0
 30
0.0
 75
     0
  0
DIMASSOC
  5
D6FE0
102
{ACAD_REACTORS
330
D6FD7
102
}
330
D6FD7
100
AcDbDimAssoc
330
D6FCB
 90
        2
 70
     0
 71
     0
  1
AcDbOsnapPointRef
 72
     3
331
D6F02
 73
     2
 91
        0
 40
0.0
 10
0.0
 20
0.0
 30
0.0
 75
     0
  0
DIMASSOC
  5
D7002
102
{ACAD_REACTORS
330
D6FF7
102
}
330
D6FF7
100
AcDbDimAssoc
330
D6FE9
 90
        3
 70
     0
 71
     0
  1
AcDbOsnapPointRef
 72
     1
331
D6EE4
 73
     2
 91
        3
 40
3.141592653589825
 10
0.0
 20
0.0
 30
2.000000000000000E+50
 75
     0
  1
AcDbOsnapPointRef
 72
     1
331
D6EE4
 73
     2
 91
       12
 40
1.0
 10
0.0
 20
0.0
 30
2.000000000000000E+50
 75
     0
  0
DIMASSOC
  5
D701C
102
{ACAD_REACTORS
330
D7011
102
}
330
D7011
100
AcDbDimAssoc
330
D7003
 90
        2
 70
     0
 71
     0
  1
AcDbOsnapPointRef
 72
     1
331
D6EF3
 73
     2
 91
       12
 40
1.0
 10
0.0
 20
0.0
 30
2.000000000000000E+50
 75
     0
  0
DIMASSOC
  5
D7043
102
{ACAD_REACTORS
330
D7038
102
}
330
D7038
100
AcDbDimAssoc
330
D702A
 90
        3
 70
     0
 71
     0
  1
AcDbOsnapPointRef
 72
     1
331
D6EE4
 73
     2
 91
       13
 40
4.712388980384509
 10
0.0
 20
0.0
 30
2.000000000000000E+50
 75
     0
  1
AcDbOsnapPointRef
 72
     1
331
D6EE4
 73
     2
 91
       10
 40
1.0
 10
0.0
 20
0.0
 30
2.000000000000000E+50
 75
     0
  0
DIMASSOC
  5
D705D
102
{ACAD_REACTORS
330
D7052
102
}
330
D7052
100
AcDbDimAssoc
330
D7044
 90
        3
 70
     0
 71
     0
  1
AcDbOsnapPointRef
 72
     1
331
D6EF3
 73
     2
 91
       13
 40
4.712388980384688
 10
0.0
 20
0.0
 30
2.000000000000000E+50
 75
     0
  1
AcDbOsnapPointRef
 72
     1
331
D6EF3
 73
     2
 91
       10
 40
1.0
 10
0.0
 20
0.0
 30
2.000000000000000E+50
 75
     0
  0
DIMASSOC
  5
D7098
102
{ACAD_REACTORS
330
D708D
102
}
330
D708D
100
AcDbDimAssoc
330
D707F
 90
        3
 70
     0
 71
     0
  1
AcDbOsnapPointRef
 72
    13
331
D6EE4
 73
     2
 91
        1
 40
4.712388980384353
 10
0.0
 20
0.0
 30
2.000000000000000E+50
 75
     0
  1
AcDbOsnapPointRef
 72
     8
331
D6EE4
 73
     2
 91
        7
 40
1.570796326794626
 10
0.0
 20
0.0
 30
0.0
 75
     1
  1
AcDbOsnapPointRef
 72
    13
331
D6EE4
 73
     2
 91
        1
 40
4.712388980384353
 10
0.0
 20
0.0
 30
2.000000000000000E+50
 75
     0
  0
DIMASSOC
  5
D70B2
102
{ACAD_REACTORS
330
D70A7
102
}
330
D70A7
100
AcDbDimAssoc
330
D7099
 90
        3
 70
     0
 71
     0
  1
AcDbOsnapPointRef
 72
     1
331
D6EF3
 73
     2
 91
       14
 40
1.0
 10
0.0
 20
0.0
 30
2.000000000000000E+50
 75
     0
  1
AcDbOsnapPointRef
 72
     8
331
D6EF3
 73
     2
 91
        7
 40
1.570795398764446
 10
0.0
 20
0.0
 30
0.0
 75
     1
  1
AcDbOsnapPointRef
 72
     1
331
D6EF3
 73
     2
 91
       14
 40
1.0
 10
0.0
 20
0.0
 30
2.000000000000000E+50
 75
     0
  0
DIMASSOC
  5
D70D2
102
{ACAD_REACTORS
330
D70CC
102
}
330
D70CC
100
AcDbDimAssoc
330
D70C3
 90
        2
 70
     0
 71
     0
  1
AcDbOsnapPointRef
 72
     3
331
D6EE4
 73
     2
 91
       11
 40
0.0
 10
0.0
 20
0.0
 30
0.0
 75
     0
  0
DIMASSOC
  5
D70E2
102
{ACAD_REACTORS
330
D70DC
102
}
330
D70DC
100
AcDbDimAssoc
330
D70D3
 90
        2
 70
     0
 71
     0
  1
AcDbOsnapPointRef
 72
     3
331
D6EE4
 73
     2
 91
       13
 40
0.0
 10
0.0
 20
0.0
 30
0.0
 75
     0
  0
DIMASSOC
  5
D70F2
102
{ACAD_REACTORS
330
D70EC
102
}
330
D70EC
100
AcDbDimAssoc
330
D70E3
 90
        2
 70
     0
 71
     0
  1
AcDbOsnapPointRef
 72
     3
331
D6EE4
 73
     2
 91
        9
 40
0.0
 10
0.0
 20
0.0
 30
0.0
 75
     0
  0
DIMASSOC
  5
D7102
102
{ACAD_REACTORS
330
D70FC
102
}
330
D70FC
100
AcDbDimAssoc
330
D70F3
 90
        2
 70
     0
 71
     0
  1
AcDbOsnapPointRef
 72
     3
331
D6EE4
 73
     2
 91
        8
 40
0.0
 10
0.0
 20
0.0
 30
0.0
 75
     0
  0
DIMASSOC
  5
D7112
102
{ACAD_REACTORS
330
D710C
102
}
330
D710C
100
AcDbDimAssoc
330
D7103
 90
        2
 70
     0
 71
     0
  1
AcDbOsnapPointRef
 72
     3
331
D6EE4
 73
     2
 91
        7
 40
0.0
 10
0.0
 20
0.0
 30
0.0
 75
     0
  0
DIMASSOC
  5
D7122
102
{ACAD_REACTORS
330
D711C
102
}
330
D711C
100
AcDbDimAssoc
330
D7113
 90
        2
 70
     0
 71
     0
  1
AcDbOsnapPointRef
 72
     3
331
D6EE4
 73
     2
 91
        5
 40
0.0
 10
0.0
 20
0.0
 30
0.0
 75
     0
  0
DIMASSOC
  5
D7142
102
{ACAD_REACTORS
330
D713C
102
}
330
D713C
100
AcDbDimAssoc
330
D7133
 90
        2
 70
     0
 71
     0
  1
AcDbOsnapPointRef
 72
     3
331
D6EE4
 73
     2
 91
        2
 40
0.0
 10
0.0
 20
0.0
 30
0.0
 75
     0
  0
DIMASSOC
  5
D7152
102
{ACAD_REACTORS
330
D714C
102
}
330
D714C
100
AcDbDimAssoc
330
D7143
 90
        2
 70
     0
 71
     0
  1
AcDbOsnapPointRef
 72
     3
331
D6EE4
 73
     2
 91
        1
 40
0.0
 10
0.0
 20
0.0
 30
0.0
 75
     0
  0
XRECORD
  5
D74EF
102
{ACAD_REACTORS
330
D74EE
102
}
330
D74EE
100
AcDbXrecord
280
     1
 40
1.25
  0
XRECORD
  5
D74F0
102
{ACAD_REACTORS
330
D74EE
102
}
330
D74EE
100
AcDbXrecord
280
     1
 40
1.570796326794896
  0
XRECORD
  5
D74F1
102
{ACAD_REACTORS
330
D74EE
102
}
330
D74EE
100
AcDbXrecord
280
     1
340
15
  0
LAYOUT
  5
22
102
{ACAD_XDICTIONARY
360
D74F2
102
}
102
{ACAD_REACTORS
330
1A
102
}
330
1A
100
AcDbPlotSettings
  1

  2
\\PC-201204061032\Canon LBP2900
  4
A4
  6

 40
5.873749732971191
 41
6.805091857910156
 42
5.873748779296875
 43
4.857757568359375
 44
209.9733276367186
 45
296.9259948730469
 46
-5.889999999999998
 47
-5.87
 48
85766.02374884076
 49
-163980.7810393121
140
88736.02374884079
141
-161880.7810393122
142
1.0
143
10.0
 70
 11940
 72
     1
 73
     1
 74
     4
  7
monochrome.ctb
 75
     0
147
0.1
148
-85766.02374884076
149
163980.7810393121
100
AcDbLayout
  1
Model
 70
     1
 71
     0
 10
0.0
 20
0.0
 11
12.0
 21
9.0
 12
0.0
 22
0.0
 32
0.0
 14
0.0
 24
0.0
 34
0.0
 15
0.0
 25
0.0
 35
0.0
146
0.0
 13
0.0
 23
0.0
 33
0.0
 16
1.0
 26
0.0
 36
0.0
 17
0.0
 27
1.0
 37
0.0
 76
     0
330
1F
331
CED6D
  0
LAYOUT
  5
74
102
{ACAD_XDICTIONARY
360
D74F4
102
}
102
{ACAD_REACTORS
330
1A
102
}
330
1A
100
AcDbPlotSettings
  1

  2
\\ADSCCNDC1\hq601xrx1
  4

  6

 40
0.0
 41
0.0
 42
0.0
 43
0.0
 44
0.0
 45
0.0
 46
0.0
 47
0.0
 48
0.0
 49
0.0
140
0.0
141
0.0
142
1.0
143
1.0
 70
   688
 72
     0
 73
     0
 74
     5
  7
monochrome.ctb
 75
    16
147
1.0
148
0.0
149
0.0
100
AcDbLayout
  1
布局1
 70
     1
 71
     1
 10
0.0
 20
0.0
 11
12.0
 21
9.0
 12
0.0
 22
0.0
 32
0.0
 14
0.0
 24
0.0
 34
0.0
 15
0.0
 25
0.0
 35
0.0
146
0.0
 13
0.0
 23
0.0
 33
0.0
 16
1.0
 26
0.0
 36
0.0
 17
0.0
 27
1.0
 37
0.0
 76
     0
330
73
  0
LAYOUT
  5
79
102
{ACAD_XDICTIONARY
360
D74F6
102
}
102
{ACAD_REACTORS
330
1A
102
}
330
1A
100
AcDbPlotSettings
  1

  2
\\ADSCCNDC1\hq601xrx1
  4

  6

 40
0.0
 41
0.0
 42
0.0
 43
0.0
 44
0.0
 45
0.0
 46
0.0
 47
0.0
 48
0.0
 49
0.0
140
0.0
141
0.0
142
1.0
143
1.0
 70
   688
 72
     0
 73
     0
 74
     5
  7
monochrome.ctb
 75
    16
147
1.0
148
0.0
149
0.0
100
AcDbLayout
  1
布局2
 70
     1
 71
     2
 10
0.0
 20
0.0
 11
12.0
 21
9.0
 12
0.0
 22
0.0
 32
0.0
 14
0.0
 24
0.0
 34
0.0
 15
0.0
 25
0.0
 35
0.0
146
0.0
 13
0.0
 23
0.0
 33
0.0
 16
1.0
 26
0.0
 36
0.0
 17
0.0
 27
1.0
 37
0.0
 76
     0
330
78
  0
MATERIAL
  5
CED77
102
{ACAD_XDICTIONARY
360
CED78
102
}
102
{ACAD_REACTORS
330
6B
102
}
330
6B
100
AcDbMaterial
  1
ByBlock
 72
     0
 43
0.0208333333333333
 43
0.0
 43
0.0
 43
0.0
 43
0.0
 43
0.0208333333333333
 43
0.0
 43
0.0
 43
0.0
 43
0.0
 43
1.0
 43
0.0
 43
0.0
 43
0.0
 43
0.0
 43
1.0
 77
     0
 47
0.0208333333333333
 47
0.0
 47
0.0
 47
0.0
 47
0.0
 47
0.0208333333333333
 47
0.0
 47
0.0
 47
0.0
 47
0.0
 47
1.0
 47
0.0
 47
0.0
 47
0.0
 47
0.0
 47
1.0
171
     0
 49
0.0208333333333333
 49
0.0
 49
0.0
 49
0.0
 49
0.0
 49
0.0208333333333333
 49
0.0
 49
0.0
 49
0.0
 49
0.0
 49
1.0
 49
0.0
 49
0.0
 49
0.0
 49
0.0
 49
1.0
175
     0
142
0.0208333333333333
142
0.0
142
0.0
142
0.0
142
0.0
142
0.0208333333333333
142
0.0
142
0.0
142
0.0
142
0.0
142
1.0
142
0.0
142
0.0
142
0.0
142
0.0
142
1.0
179
     0
144
0.0208333333333333
144
0.0
144
0.0
144
0.0
144
0.0
144
0.0208333333333333
144
0.0
144
0.0
144
0.0
144
0.0
144
1.0
144
0.0
144
0.0
144
0.0
144
0.0
144
1.0
147
0.0208333333333333
147
0.0
147
0.0
147
0.0
147
0.0
147
0.0208333333333333
147
0.0
147
0.0
147
0.0
147
0.0
147
1.0
147
0.0
147
0.0
147
0.0
147
0.0
147
1.0
  0
MATERIAL
  5
CED6F
102
{ACAD_XDICTIONARY
360
CED70
102
}
102
{ACAD_REACTORS
330
6B
102
}
330
6B
100
AcDbMaterial
  1
ByLayer
 72
     0
 43
0.0208333333333333
 43
0.0
 43
0.0
 43
0.0
 43
0.0
 43
0.0208333333333333
 43
0.0
 43
0.0
 43
0.0
 43
0.0
 43
1.0
 43
0.0
 43
0.0
 43
0.0
 43
0.0
 43
1.0
 77
     0
 47
0.0208333333333333
 47
0.0
 47
0.0
 47
0.0
 47
0.0
 47
0.0208333333333333
 47
0.0
 47
0.0
 47
0.0
 47
0.0
 47
1.0
 47
0.0
 47
0.0
 47
0.0
 47
0.0
 47
1.0
171
     0
 49
0.0208333333333333
 49
0.0
 49
0.0
 49
0.0
 49
0.0
 49
0.0208333333333333
 49
0.0
 49
0.0
 49
0.0
 49
0.0
 49
1.0
 49
0.0
 49
0.0
 49
0.0
 49
0.0
 49
1.0
175
     0
142
0.0208333333333333
142
0.0
142
0.0
142
0.0
142
0.0
142
0.0208333333333333
142
0.0
142
0.0
142
0.0
142
0.0
142
1.0
142
0.0
142
0.0
142
0.0
142
0.0
142
1.0
179
     0
144
0.0208333333333333
144
0.0
144
0.0
144
0.0
144
0.0
144
0.0208333333333333
144
0.0
144
0.0
144
0.0
144
0.0
144
1.0
144
0.0
144
0.0
144
0.0
144
0.0
144
1.0
147
0.0208333333333333
147
0.0
147
0.0
147
0.0
147
0.0
147
0.0208333333333333
147
0.0
147
0.0
147
0.0
147
0.0
147
1.0
147
0.0
147
0.0
147
0.0
147
0.0
147
1.0
  0
MATERIAL
  5
CED7F
102
{ACAD_XDICTIONARY
360
CED80
102
}
102
{ACAD_REACTORS
330
6B
102
}
330
6B
100
AcDbMaterial
  1
Global
 72
     0
 43
0.0208333333333333
 43
0.0
 43
0.0
 43
0.0
 43
0.0
 43
0.0208333333333333
 43
0.0
 43
0.0
 43
0.0
 43
0.0
 43
1.0
 43
0.0
 43
0.0
 43
0.0
 43
0.0
 43
1.0
 77
     0
 47
0.0208333333333333
 47
0.0
 47
0.0
 47
0.0
 47
0.0
 47
0.0208333333333333
 47
0.0
 47
0.0
 47
0.0
 47
0.0
 47
1.0
 47
0.0
 47
0.0
 47
0.0
 47
0.0
 47
1.0
171
     0
 49
0.0208333333333333
 49
0.0
 49
0.0
 49
0.0
 49
0.0
 49
0.0208333333333333
 49
0.0
 49
0.0
 49
0.0
 49
0.0
 49
1.0
 49
0.0
 49
0.0
 49
0.0
 49
0.0
 49
1.0
175
     0
142
0.0208333333333333
142
0.0
142
0.0
142
0.0
142
0.0
142
0.0208333333333333
142
0.0
142
0.0
142
0.0
142
0.0
142
1.0
142
0.0
142
0.0
142
0.0
142
0.0
142
1.0
179
     0
144
0.0208333333333333
144
0.0
144
0.0
144
0.0
144
0.0
144
0.0208333333333333
144
0.0
144
0.0
144
0.0
144
0.0
144
1.0
144
0.0
144
0.0
144
0.0
144
0.0
144
1.0
147
0.0208333333333333
147
0.0
147
0.0
147
0.0
147
0.0
147
0.0208333333333333
147
0.0
147
0.0
147
0.0
147
0.0
147
1.0
147
0.0
147
0.0
147
0.0
147
0.0
147
1.0
  0
MLEADERSTYLE
  5
CEDBB
102
{ACAD_REACTORS
330
CEDBA
102
}
330
CEDBA
100
AcDbMLeaderStyle
170
     2
171
     1
172
     0
 90
        2
 40
0.0
 41
0.0
173
     1
 91
-1056964608
340
14
 92
       -2
290
     1
 42
0.09
291
     1
 43
0.36
  3
Standard
 44
0.18
300

342
11
174
     1
178
     6
175
     1
176
     0
 93
-1056964608
 45
0.18
292
     0
297
     0
 46
0.18
 94
-1056964608
 47
1.0
 49
1.0
140
1.0
293
     1
141
0.0
294
     1
177
     0
142
1.0
295
     0
296
     0
143
0.125
1001
ACAD_MLEADERVER
1070
     2
  0
MLINESTYLE
  5
18
102
{ACAD_REACTORS
330
17
102
}
330
17
100
AcDbMlineStyle
  2
STANDARD
 70
     0
  3

 62
   256
 51
90.0
 52
90.0
 71
     2
 49
0.5
 62
   256
  6
BYLAYER
 49
-0.5
 62
   256
  6
BYLAYER
  0
ACDBPLACEHOLDER
  5
F
102
{ACAD_REACTORS
330
E
102
}
330
E
  0
SCALE
  5
CED99
102
{ACAD_REACTORS
330
CED98
102
}
330
CED98
100
AcDbScale
 70
     0
300
1:1
140
1.0
141
1.0
290
     1
  0
SCALE
  5
CED9A
102
{ACAD_REACTORS
330
CED98
102
}
330
CED98
100
AcDbScale
 70
     0
300
1:2
140
1.0
141
2.0
290
     0
  0
SCALE
  5
CED9B
102
{ACAD_REACTORS
330
CED98
102
}
330
CED98
100
AcDbScale
 70
     0
300
1:4
140
1.0
141
4.0
290
     0
  0
SCALE
  5
CED9C
102
{ACAD_REACTORS
330
CED98
102
}
330
CED98
100
AcDbScale
 70
     0
300
1:5
140
1.0
141
5.0
290
     0
  0
SCALE
  5
CED9D
102
{ACAD_REACTORS
330
CED98
102
}
330
CED98
100
AcDbScale
 70
     0
300
1:8
140
1.0
141
8.0
290
     0
  0
SCALE
  5
CED9E
102
{ACAD_REACTORS
330
CED98
102
}
330
CED98
100
AcDbScale
 70
     0
300
1:10
140
1.0
141
10.0
290
     0
  0
SCALE
  5
CED9F
102
{ACAD_REACTORS
330
CED98
102
}
330
CED98
100
AcDbScale
 70
     0
300
1:16
140
1.0
141
16.0
290
     0
  0
SCALE
  5
CEDA0
102
{ACAD_REACTORS
330
CED98
102
}
330
CED98
100
AcDbScale
 70
     0
300
1:20
140
1.0
141
20.0
290
     0
  0
SCALE
  5
CEDA1
102
{ACAD_REACTORS
330
CED98
102
}
330
CED98
100
AcDbScale
 70
     0
300
1:30
140
1.0
141
30.0
290
     0
  0
SCALE
  5
CEDA2
102
{ACAD_REACTORS
330
CED98
102
}
330
CED98
100
AcDbScale
 70
     0
300
1:40
140
1.0
141
40.0
290
     0
  0
SCALE
  5
CEDA3
102
{ACAD_REACTORS
330
CED98
102
}
330
CED98
100
AcDbScale
 70
     0
300
1:50
140
1.0
141
50.0
290
     0
  0
SCALE
  5
CEDA4
102
{ACAD_REACTORS
330
CED98
102
}
330
CED98
100
AcDbScale
 70
     0
300
1:100
140
1.0
141
100.0
290
     0
  0
SCALE
  5
CEDA5
102
{ACAD_REACTORS
330
CED98
102
}
330
CED98
100
AcDbScale
 70
     0
300
2:1
140
2.0
141
1.0
290
     0
  0
SCALE
  5
CEDA6
102
{ACAD_REACTORS
330
CED98
102
}
330
CED98
100
AcDbScale
 70
     0
300
4:1
140
4.0
141
1.0
290
     0
  0
SCALE
  5
CEDA7
102
{ACAD_REACTORS
330
CED98
102
}
330
CED98
100
AcDbScale
 70
     0
300
8:1
140
8.0
141
1.0
290
     0
  0
SCALE
  5
CEDA8
102
{ACAD_REACTORS
330
CED98
102
}
330
CED98
100
AcDbScale
 70
     0
300
10:1
140
10.0
141
1.0
290
     0
  0
SCALE
  5
CEDA9
102
{ACAD_REACTORS
330
CED98
102
}
330
CED98
100
AcDbScale
 70
     0
300
100:1
140
100.0
141
1.0
290
     0
  0
SCALE
  5
CEDAA
102
{ACAD_REACTORS
330
CED98
102
}
330
CED98
100
AcDbScale
 70
     0
300
1/128" = 1'-0"
140
0.0078125
141
12.0
290
     0
  0
SCALE
  5
CEDAB
102
{ACAD_REACTORS
330
CED98
102
}
330
CED98
100
AcDbScale
 70
     0
300
1/64" = 1'-0"
140
0.015625
141
12.0
290
     0
  0
SCALE
  5
CEDAC
102
{ACAD_REACTORS
330
CED98
102
}
330
CED98
100
AcDbScale
 70
     0
300
1/32" = 1'-0"
140
0.03125
141
12.0
290
     0
  0
SCALE
  5
CEDAD
102
{ACAD_REACTORS
330
CED98
102
}
330
CED98
100
AcDbScale
 70
     0
300
1/16" = 1'-0"
140
0.0625
141
12.0
290
     0
  0
SCALE
  5
CEDAE
102
{ACAD_REACTORS
330
CED98
102
}
330
CED98
100
AcDbScale
 70
     0
300
3/32" = 1'-0"
140
0.09375
141
12.0
290
     0
  0
SCALE
  5
CEDAF
102
{ACAD_REACTORS
330
CED98
102
}
330
CED98
100
AcDbScale
 70
     0
300
1/8" = 1'-0"
140
0.125
141
12.0
290
     0
  0
SCALE
  5
CEDB0
102
{ACAD_REACTORS
330
CED98
102
}
330
CED98
100
AcDbScale
 70
     0
300
3/16" = 1'-0"
140
0.1875
141
12.0
290
     0
  0
SCALE
  5
CEDB1
102
{ACAD_REACTORS
330
CED98
102
}
330
CED98
100
AcDbScale
 70
     0
300
1/4" = 1'-0"
140
0.25
141
12.0
290
     0
  0
SCALE
  5
CEDB2
102
{ACAD_REACTORS
330
CED98
102
}
330
CED98
100
AcDbScale
 70
     0
300
3/8" = 1'-0"
140
0.375
141
12.0
290
     0
  0
SCALE
  5
CEDB3
102
{ACAD_REACTORS
330
CED98
102
}
330
CED98
100
AcDbScale
 70
     0
300
1/2" = 1'-0"
140
0.5
141
12.0
290
     0
  0
SCALE
  5
CEDB4
102
{ACAD_REACTORS
330
CED98
102
}
330
CED98
100
AcDbScale
 70
     0
300
3/4" = 1'-0"
140
0.75
141
12.0
290
     0
  0
SCALE
  5
CEDB5
102
{ACAD_REACTORS
330
CED98
102
}
330
CED98
100
AcDbScale
 70
     0
300
1" = 1'-0"
140
1.0
141
12.0
290
     0
  0
SCALE
  5
CEDB6
102
{ACAD_REACTORS
330
CED98
102
}
330
CED98
100
AcDbScale
 70
     0
300
1-1/2" = 1'-0"
140
1.5
141
12.0
290
     0
  0
SCALE
  5
CEDB7
102
{ACAD_REACTORS
330
CED98
102
}
330
CED98
100
AcDbScale
 70
     0
300
3" = 1'-0"
140
3.0
141
12.0
290
     0
  0
SCALE
  5
CEDB8
102
{ACAD_REACTORS
330
CED98
102
}
330
CED98
100
AcDbScale
 70
     0
300
6" = 1'-0"
140
6.0
141
12.0
290
     0
  0
SCALE
  5
CEDB9
102
{ACAD_REACTORS
330
CED98
102
}
330
CED98
100
AcDbScale
 70
     0
300
1'-0" = 1'-0"
140
12.0
141
12.0
290
     0
  0
TABLESTYLE
  5
FB0
102
{ACAD_XDICTIONARY
360
D0C45
102
}
102
{ACAD_REACTORS
330
FAF
102
}
330
FAF
100
AcDbTableStyle
  3
Standard
 70
     0
 71
     0
 40
0.06
 41
0.06
280
     0
281
     0
  7
Standard
140
0.18
170
     2
 62
     0
 63
     7
283
     0
274
    -2
284
     1
 64
     0
275
    -2
285
     1
 65
     0
276
    -2
286
     1
 66
     0
277
    -2
287
     1
 67
     0
278
    -2
288
     1
 68
     0
279
    -2
289
     1
 69
     0
  7
Standard
140
0.25
170
     5
 62
     0
 63
     7
283
     0
274
    -2
284
     1
 64
     0
275
    -2
285
     1
 65
     0
276
    -2
286
     1
 66
     0
277
    -2
287
     1
 67
     0
278
    -2
288
     1
 68
     0
279
    -2
289
     1
 69
     0
  7
Standard
140
0.18
170
     5
 62
     0
 63
     7
283
     0
274
    -2
284
     1
 64
     0
275
    -2
285
     1
 65
     0
276
    -2
286
     1
 66
     0
277
    -2
287
     1
 67
     0
278
    -2
288
     1
 68
     0
279
    -2
289
     1
 69
     0
  0
VISUALSTYLE
  5
CED8D
102
{ACAD_REACTORS
330
CED87
102
}
330
CED87
100
AcDbVisualStyle
  2
2dWireframe
 70
     4
 71
     0
 72
     2
 73
     0
 90
        0
 40
-0.6
 41
-30.0
 62
     5
 63
     7
 74
     1
 91
        4
 64
     7
 65
   257
 75
     1
175
     1
 42
1.0
 92
        0
 66
   257
 43
1.0
 76
     1
 77
     6
 78
     2
 67
     7
 79
     5
170
     0
171
     0
290
     0
174
     0
 93
        1
 44
0.0
173
     0
291
     0
 45
0.0
1001
ACAD
1000
AcDbSavedByObjectVersion
1070
     0
1000
AcDbSavedByObjectVersion
1070
     0
  0
VISUALSTYLE
  5
CED8F
102
{ACAD_REACTORS
330
CED87
102
}
330
CED87
100
AcDbVisualStyle
  2
3D Hidden
 70
     6
 71
     1
 72
     2
 73
     2
 90
        0
 40
-0.6
 41
-30.0
 62
     5
 63
     7
 74
     2
 91
        2
 64
     7
 65
   257
 75
     2
175
     1
 42
40.0
 92
        0
 66
   257
 43
1.0
 76
     1
 77
     6
 78
     2
 67
     7
 79
     3
170
     0
171
     0
290
     0
174
     0
 93
        1
 44
0.0
173
     0
291
     0
 45
0.0
1001
ACAD
1000
AcDbSavedByObjectVersion
1070
     0
1000
AcDbSavedByObjectVersion
1070
     0
  0
VISUALSTYLE
  5
CED8E
102
{ACAD_REACTORS
330
CED87
102
}
330
CED87
100
AcDbVisualStyle
  2
3dWireframe
 70
     5
 71
     0
 72
     2
 73
     0
 90
        0
 40
-0.6
 41
-30.0
 62
     5
 63
     7
 74
     1
 91
        4
 64
     7
 65
   257
 75
     1
175
     1
 42
1.0
 92
        0
 66
   257
 43
1.0
 76
     1
 77
     6
 78
     2
 67
     7
 79
     5
170
     0
171
     0
290
     0
174
     0
 93
        1
 44
0.0
173
     0
291
     0
 45
0.0
1001
ACAD
1000
AcDbSavedByObjectVersion
1070
     0
1000
AcDbSavedByObjectVersion
1070
     0
  0
VISUALSTYLE
  5
CED8C
102
{ACAD_REACTORS
330
CED87
102
}
330
CED87
100
AcDbVisualStyle
  2
Basic
 70
     7
 71
     1
 72
     0
 73
     1
 90
        0
 40
-0.6
 41
-30.0
 62
     5
 63
     7
 74
     0
 91
        4
 64
     7
 65
   257
 75
     1
175
     1
 42
1.0
 92
        8
 66
     7
 43
1.0
 76
     1
 77
     6
 78
     2
 67
     7
 79
     5
170
     0
171
     0
290
     0
174
     0
 93
        1
 44
0.0
173
     0
291
     1
 45
0.0
1001
ACAD
1000
AcDbSavedByObjectVersion
1070
     0
1000
AcDbSavedByObjectVersion
1070
     0
  0
VISUALSTYLE
  5
CED93
102
{ACAD_REACTORS
330
CED87
102
}
330
CED87
100
AcDbVisualStyle
  2
Brighten
 70
    12
 71
     2
 72
     2
 73
     0
 90
        0
 40
-0.6
 41
-30.0
 62
     5
 63
     7
 74
     1
 91
        4
 64
     7
 65
   257
 75
     1
175
     1
 42
1.0
 92
        8
 66
     7
 43
1.0
 76
     1
 77
     6
 78
     2
 67
     7
 79
     5
170
     0
171
     0
290
     0
174
     0
 93
        1
 44
50.0
173
     0
291
     1
 45
0.0
1001
ACAD
1000
AcDbSavedByObjectVersion
1070
     0
1000
AcDbSavedByObjectVersion
1070
     0
  0
VISUALSTYLE
  5
CED97
102
{ACAD_REACTORS
330
CED87
102
}
330
CED87
100
AcDbVisualStyle
  2
ColorChange
 70
    16
 71
     2
 72
     2
 73
     3
 90
        0
 40
-0.6
 41
-30.0
 62
     5
 63
     8
 74
     1
 91
        4
 64
     7
 65
   257
 75
     1
175
     1
 42
1.0
 92
        8
 66
     8
 43
1.0
 76
     1
 77
     6
 78
     2
 67
     7
 79
     5
170
     0
171
     0
290
     0
174
     0
 93
        1
 44
0.0
173
     0
291
     1
 45
0.0
1001
ACAD
1000
AcDbSavedByObjectVersion
1070
     0
1000
AcDbSavedByObjectVersion
1070
     0
  0
VISUALSTYLE
  5
CED90
102
{ACAD_REACTORS
330
CED87
102
}
330
CED87
100
AcDbVisualStyle
  2
Conceptual
 70
     9
 71
     3
 72
     2
 73
     0
 90
        0
 40
-0.6
 41
-30.0
 62
     5
 63
     7
 74
     2
 91
        2
 64
     7
 65
   257
 75
     1
175
     1
 42
40.0
 92
        8
 66
     7
 43
1.0
 76
     1
 77
     6
 78
     2
 67
     7
 79
     3
170
     0
171
     0
290
     0
174
     0
 93
        1
 44
0.0
173
     0
291
     0
 45
0.0
1001
ACAD
1000
AcDbSavedByObjectVersion
1070
     0
1000
AcDbSavedByObjectVersion
1070
     0
  0
VISUALSTYLE
  5
CED92
102
{ACAD_REACTORS
330
CED87
102
}
330
CED87
100
AcDbVisualStyle
  2
Dim
 70
    11
 71
     2
 72
     2
 73
     0
 90
        0
 40
-0.6
 41
-30.0
 62
     5
 63
     7
 74
     1
 91
        4
 64
     7
 65
   257
 75
     1
175
     1
 42
1.0
 92
        8
 66
     7
 43
1.0
 76
     1
 77
     6
 78
     2
 67
     7
 79
     5
170
     0
171
     0
290
     0
174
     0
 93
        1
 44
-50.0
173
     0
291
     1
 45
0.0
1001
ACAD
1000
AcDbSavedByObjectVersion
1070
     0
1000
AcDbSavedByObjectVersion
1070
     0
  0
VISUALSTYLE
  5
CED96
102
{ACAD_REACTORS
330
CED87
102
}
330
CED87
100
AcDbVisualStyle
  2
Facepattern
 70
    15
 71
     2
 72
     2
 73
     0
 90
        0
 40
-0.6
 41
-30.0
 62
     5
 63
     7
 74
     1
 91
        4
 64
     7
 65
   257
 75
     1
175
     1
 42
1.0
 92
        8
 66
     7
 43
1.0
 76
     1
 77
     6
 78
     2
 67
     7
 79
     5
170
     0
171
     0
290
     0
174
     0
 93
        1
 44
0.0
173
     0
291
     1
 45
0.0
1001
ACAD
1000
AcDbSavedByObjectVersion
1070
     0
1000
AcDbSavedByObjectVersion
1070
     0
  0
VISUALSTYLE
  5
CED88
102
{ACAD_REACTORS
330
CED87
102
}
330
CED87
100
AcDbVisualStyle
  2
Flat
 70
     0
 71
     2
 72
     1
 73
     1
 90
        2
 40
-0.6
 41
30.0
 62
     5
 63
     7
 74
     0
 91
        4
 64
     7
 65
   257
 75
     1
175
     1
 42
1.0
 92
        8
 66
     7
 43
1.0
 76
     1
 77
     6
 78
     2
 67
     7
 79
     5
170
     0
171
     0
290
     0
174
     0
 93
       13
 44
0.0
173
     0
291
     1
 45
0.0
1001
ACAD
1000
AcDbSavedByObjectVersion
1070
     0
1000
AcDbSavedByObjectVersion
1070
     0
  0
VISUALSTYLE
  5
CED89
102
{ACAD_REACTORS
330
CED87
102
}
330
CED87
100
AcDbVisualStyle
  2
FlatWithEdges
 70
     1
 71
     2
 72
     1
 73
     1
 90
        2
 40
-0.6
 41
30.0
 62
     5
 63
     7
 74
     1
 91
        4
 64
     7
 65
   257
 75
     1
175
     1
 42
1.0
 92
        0
 66
   257
 43
1.0
 76
     1
 77
     6
 78
     2
 67
     7
 79
     5
170
     0
171
     0
290
     0
174
     0
 93
       13
 44
0.0
173
     0
291
     1
 45
0.0
1001
ACAD
1000
AcDbSavedByObjectVersion
1070
     0
1000
AcDbSavedByObjectVersion
1070
     0
  0
VISUALSTYLE
  5
CED8A
102
{ACAD_REACTORS
330
CED87
102
}
330
CED87
100
AcDbVisualStyle
  2
Gouraud
 70
     2
 71
     2
 72
     2
 73
     1
 90
        2
 40
-0.6
 41
30.0
 62
     5
 63
     7
 74
     0
 91
        4
 64
     7
 65
   257
 75
     1
175
     1
 42
1.0
 92
        0
 66
     7
 43
1.0
 76
     1
 77
     6
 78
     2
 67
     7
 79
     5
170
     0
171
     0
290
     0
174
     0
 93
       13
 44
0.0
173
     0
291
     1
 45
0.0
1001
ACAD
1000
AcDbSavedByObjectVersion
1070
     0
1000
AcDbSavedByObjectVersion
1070
     0
  0
VISUALSTYLE
  5
CED8B
102
{ACAD_REACTORS
330
CED87
102
}
330
CED87
100
AcDbVisualStyle
  2
GouraudWithEdges
 70
     3
 71
     2
 72
     2
 73
     1
 90
        2
 40
-0.6
 41
30.0
 62
     5
 63
     7
 74
     1
 91
        4
 64
     7
 65
   257
 75
     1
175
     1
 42
1.0
 92
        0
 66
   257
 43
1.0
 76
     1
 77
     6
 78
     2
 67
     7
 79
     5
170
     0
171
     0
290
     0
174
     0
 93
       13
 44
0.0
173
     0
291
     1
 45
0.0
1001
ACAD
1000
AcDbSavedByObjectVersion
1070
     0
1000
AcDbSavedByObjectVersion
1070
     0
  0
VISUALSTYLE
  5
CED95
102
{ACAD_REACTORS
330
CED87
102
}
330
CED87
100
AcDbVisualStyle
  2
Linepattern
 70
    14
 71
     2
 72
     2
 73
     0
 90
        0
 40
-0.6
 41
-30.0
 62
     5
 63
     7
 74
     1
 91
        4
 64
     7
 65
   257
 75
     7
175
     7
 42
1.0
 92
        8
 66
     7
 43
1.0
 76
     1
 77
     6
 78
     2
 67
     7
 79
     5
170
     0
171
     0
290
     0
174
     0
 93
        1
 44
0.0
173
     0
291
     1
 45
0.0
1001
ACAD
1000
AcDbSavedByObjectVersion
1070
     0
1000
AcDbSavedByObjectVersion
1070
     0
  0
VISUALSTYLE
  5
CED91
102
{ACAD_REACTORS
330
CED87
102
}
330
CED87
100
AcDbVisualStyle
  2
Realistic
 70
     8
 71
     2
 72
     2
 73
     0
 90
        0
 40
-0.6
 41
-30.0
 62
     5
 63
     7
 74
     1
 91
        0
 64
     7
 65
   257
 75
     1
175
     1
 42
1.0
 92
        8
 66
     8
 43
1.0
 76
     1
 77
     6
 78
     2
 67
     7
 79
     5
170
     0
171
     0
290
     0
174
     0
 93
       13
 44
0.0
173
     0
291
     0
 45
0.0
1001
ACAD
1000
AcDbSavedByObjectVersion
1070
     0
1000
AcDbSavedByObjectVersion
1070
     0
  0
VISUALSTYLE
  5
CED94
102
{ACAD_REACTORS
330
CED87
102
}
330
CED87
100
AcDbVisualStyle
  2
Thicken
 70
    13
 71
     2
 72
     2
 73
     0
 90
        0
 40
-0.6
 41
-30.0
 62
     5
 63
     7
 74
     1
 91
        4
 64
     7
 65
   257
 75
     1
175
     1
 42
1.0
 92
       12
 66
     7
 43
1.0
 76
     1
 77
     6
 78
     2
 67
     7
 79
     5
170
     0
171
     0
290
     0
174
     0
 93
        1
 44
0.0
173
     0
291
     1
 45
0.0
1001
ACAD
1000
AcDbSavedByObjectVersion
1070
     0
1000
AcDbSavedByObjectVersion
1070
     0
  0
DICTIONARYVAR
  5
D0C4F
102
{ACAD_REACTORS
330
59
102
}
330
59
100
DictionaryVariables
280
     0
  1
1:1
  0
DICTIONARYVAR
  5
D0C4D
102
{ACAD_REACTORS
330
59
102
}
330
59
100
DictionaryVariables
280
     0
  1
STANDARD
  0
DICTIONARYVAR
  5
100D
102
{ACAD_REACTORS
330
59
102
}
330
59
100
DictionaryVariables
280
     0
  1
STANDARD
  0
DICTIONARYVAR
  5
5A
102
{ACAD_REACTORS
330
59
102
}
330
59
100
DictionaryVariables
280
     0
  1
2
  0
DICTIONARYVAR
  5
5E
102
{ACAD_REACTORS
330
59
102
}
330
59
100
DictionaryVariables
280
     0
  1
1
  0
DICTIONARYVAR
  5
D74B9
102
{ACAD_REACTORS
330
59
102
}
330
59
100
DictionaryVariables
280
     0
  1
0
  0
DICTIONARYVAR
  5
D0C50
102
{ACAD_REACTORS
330
59
102
}
330
59
100
DictionaryVariables
280
     0
  1
0
  0
DICTIONARYVAR
  5
D0C4E
102
{ACAD_REACTORS
330
59
102
}
330
59
100
DictionaryVariables
280
     0
  1
0
  0
DICTIONARYVAR
  5
D74B8
102
{ACAD_REACTORS
330
59
102
}
330
59
100
DictionaryVariables
280
     0
  1
127
  0
XRECORD
  5
C2669
102
{ACAD_REACTORS
330
C2668
102
}
330
C2668
100
AcDbXrecord
280
     1
330
0
330
0
330
0
330
0
330
0
330
0
330
0
330
0
330
0
330
0
330
0
330
0
330
0
330
0
330
0
330
0
330
0
330
0
330
0
330
0
330
0
330
0
330
0
330
0
330
0
330
0
330
0
330
0
330
0
330
0
330
0
330
0
330
0
  0
VLO-VL
  5
A9D17
102
{ACAD_REACTORS
330
A9D16
102
}
330
A9D16
100
vlo_VL
 90
   -64512
 91
       12
 92
        1
 40
2.5
300
(&VLO-R . 0)
  0
DICTIONARY
  5
D74F2
330
22
100
AcDbDictionary
280
     1
281
     1
  3
ACAD_XREC_ROUNDTRIP
360
D74F3
  0
DICTIONARY
  5
D74F4
330
74
100
AcDbDictionary
280
     1
281
     1
  3
ACAD_XREC_ROUNDTRIP
360
D74F5
  0
DICTIONARY
  5
D74F6
330
79
100
AcDbDictionary
280
     1
281
     1
  3
ACAD_XREC_ROUNDTRIP
360
D74F7
  0
DICTIONARY
  5
CED78
330
CED77
100
AcDbDictionary
280
     1
281
     1
  3
ACAD_XREC_ROUNDTRIP
360
D74DA
  3
BUMPTILE
360
CED7A
  3
DIFFUSETILE
360
CED79
  3
OPACITYTILE
360
CED7D
  3
REFLECTIONTILE
360
CED7C
  3
REFRACTIONTILE
360
CED7E
  3
SPECULARTILE
360
CED7B
  0
DICTIONARY
  5
CED70
330
CED6F
100
AcDbDictionary
280
     1
281
     1
  3
ACAD_XREC_ROUNDTRIP
360
D74D9
  3
BUMPTILE
360
CED72
  3
DIFFUSETILE
360
CED71
  3
OPACITYTILE
360
CED75
  3
REFLECTIONTILE
360
CED74
  3
REFRACTIONTILE
360
CED76
  3
SPECULARTILE
360
CED73
  0
DICTIONARY
  5
CED80
330
CED7F
100
AcDbDictionary
280
     1
281
     1
  3
ACAD_XREC_ROUNDTRIP
360
D74DB
  3
BUMPTILE
360
CED82
  3
DIFFUSETILE
360
CED81
  3
OPACITYTILE
360
CED85
  3
REFLECTIONTILE
360
CED84
  3
REFRACTIONTILE
360
CED86
  3
SPECULARTILE
360
CED83
  0
DICTIONARY
  5
D0C45
330
FB0
100
AcDbDictionary
280
     1
281
     1
  3
ACAD_ROUNDTRIP_2008_TABLESTYLE_CELLSTYLEMAP
360
D74EC
  3
ACAD_XREC_ROUNDTRIP
360
D74F8
  0
XRECORD
  5
D74F3
102
{ACAD_REACTORS
330
D74F2
102
}
330
D74F2
100
AcDbXrecord
280
     1
102
SHADEPLOT
 70
     0
102
SHADEPLOTRESLEVEL
 70
     2
102
SHADEPLOTCUSTOMDPI
 70
   300
  0
XRECORD
  5
D74F5
102
{ACAD_REACTORS
330
D74F4
102
}
330
D74F4
100
AcDbXrecord
280
     1
102
SHADEPLOT
 70
     0
102
SHADEPLOTRESLEVEL
 70
     2
102
SHADEPLOTCUSTOMDPI
 70
   300
  0
XRECORD
  5
D74F7
102
{ACAD_REACTORS
330
D74F6
102
}
330
D74F6
100
AcDbXrecord
280
     1
102
SHADEPLOT
 70
     0
102
SHADEPLOTRESLEVEL
 70
     2
102
SHADEPLOTCUSTOMDPI
 70
   300
  0
XRECORD
  5
D74DA
102
{ACAD_REACTORS
330
CED78
102
}
330
CED78
100
AcDbXrecord
280
     1
102
MATERIAL
148
0.0
149
0.0
149
0.0
 93
        0
 94
      127
282
     0
 72
     0
 77
     0
171
     0
175
     0
179
     0
273
     0
  0
XRECORD
  5
CED7A
102
{ACAD_REACTORS
330
CED78
102
}
330
CED78
100
AcDbXrecord
280
     1
270
     1
271
     1
  0
XRECORD
  5
CED79
102
{ACAD_REACTORS
330
CED78
102
}
330
CED78
100
AcDbXrecord
280
     1
270
     1
271
     1
  0
XRECORD
  5
CED7D
102
{ACAD_REACTORS
330
CED78
102
}
330
CED78
100
AcDbXrecord
280
     1
270
     1
271
     1
  0
XRECORD
  5
CED7C
102
{ACAD_REACTORS
330
CED78
102
}
330
CED78
100
AcDbXrecord
280
     1
270
     1
271
     1
  0
XRECORD
  5
CED7E
102
{ACAD_REACTORS
330
CED78
102
}
330
CED78
100
AcDbXrecord
280
     1
270
     1
271
     1
  0
XRECORD
  5
CED7B
102
{ACAD_REACTORS
330
CED78
102
}
330
CED78
100
AcDbXrecord
280
     1
270
     1
271
     1
  0
XRECORD
  5
D74D9
102
{ACAD_REACTORS
330
CED70
102
}
330
CED70
100
AcDbXrecord
280
     1
102
MATERIAL
148
0.0
149
0.0
149
0.0
 93
        0
 94
      127
282
     0
 72
     0
 77
     0
171
     0
175
     0
179
     0
273
     0
  0
XRECORD
  5
CED72
102
{ACAD_REACTORS
330
CED70
102
}
330
CED70
100
AcDbXrecord
280
     1
270
     1
271
     1
  0
XRECORD
  5
CED71
102
{ACAD_REACTORS
330
CED70
102
}
330
CED70
100
AcDbXrecord
280
     1
270
     1
271
     1
  0
XRECORD
  5
CED75
102
{ACAD_REACTORS
330
CED70
102
}
330
CED70
100
AcDbXrecord
280
     1
270
     1
271
     1
  0
XRECORD
  5
CED74
102
{ACAD_REACTORS
330
CED70
102
}
330
CED70
100
AcDbXrecord
280
     1
270
     1
271
     1
  0
XRECORD
  5
CED76
102
{ACAD_REACTORS
330
CED70
102
}
330
CED70
100
AcDbXrecord
280
     1
270
     1
271
     1
  0
XRECORD
  5
CED73
102
{ACAD_REACTORS
330
CED70
102
}
330
CED70
100
AcDbXrecord
280
     1
270
     1
271
     1
  0
XRECORD
  5
D74DB
102
{ACAD_REACTORS
330
CED80
102
}
330
CED80
100
AcDbXrecord
280
     1
102
MATERIAL
148
0.0
149
0.0
149
0.0
 93
        0
 94
      127
282
     0
 72
     0
 77
     0
171
     0
175
     0
179
     0
273
     0
  0
XRECORD
  5
CED82
102
{ACAD_REACTORS
330
CED80
102
}
330
CED80
100
AcDbXrecord
280
     1
270
     1
271
     1
  0
XRECORD
  5
CED81
102
{ACAD_REACTORS
330
CED80
102
}
330
CED80
100
AcDbXrecord
280
     1
270
     1
271
     1
  0
XRECORD
  5
CED85
102
{ACAD_REACTORS
330
CED80
102
}
330
CED80
100
AcDbXrecord
280
     1
270
     1
271
     1
  0
XRECORD
  5
CED84
102
{ACAD_REACTORS
330
CED80
102
}
330
CED80
100
AcDbXrecord
280
     1
270
     1
271
     1
  0
XRECORD
  5
CED86
102
{ACAD_REACTORS
330
CED80
102
}
330
CED80
100
AcDbXrecord
280
     1
270
     1
271
     1
  0
XRECORD
  5
CED83
102
{ACAD_REACTORS
330
CED80
102
}
330
CED80
100
AcDbXrecord
280
     1
270
     1
271
     1
  0
CELLSTYLEMAP
  5
D74EC
102
{ACAD_REACTORS
330
D0C45
102
}
330
D0C45
100
AcDbCellStyleMap
 90
        3
300
CELLSTYLE
  1
TABLEFORMAT_BEGIN
 90
        5
170
     1
 91
        0
 92
    32768
 62
   257
 93
        1
300
CONTENTFORMAT
  1
CONTENTFORMAT_BEGIN
 90
        0
 91
        0
 92
        4
 93
        0
300

 40
0.0
140
1.0
 94
        5
 62
     0
340
11
144
0.25
309
CONTENTFORMAT_END
171
     1
301
MARGIN
  1
CELLMARGIN_BEGIN
 40
0.06
 40
0.06
 40
0.06
 40
0.06
 40
0.18
 40
0.18
309
CELLMARGIN_END
 94
        6
 95
        1
302
GRIDFORMAT
  1
GRIDFORMAT_BEGIN
 90
        0
 91
        1
 62
     0
 92
       -2
340
0
 93
        0
 40
0.045
309
GRIDFORMAT_END
 95
        2
302
GRIDFORMAT
  1
GRIDFORMAT_BEGIN
 90
        0
 91
        1
 62
     0
 92
       -2
340
0
 93
        0
 40
0.045
309
GRIDFORMAT_END
 95
        4
302
GRIDFORMAT
  1
GRIDFORMAT_BEGIN
 90
        0
 91
        1
 62
     0
 92
       -2
340
0
 93
        0
 40
0.045
309
GRIDFORMAT_END
 95
        8
302
GRIDFORMAT
  1
GRIDFORMAT_BEGIN
 90
        0
 91
        1
 62
     0
 92
       -2
340
0
 93
        0
 40
0.045
309
GRIDFORMAT_END
 95
       16
302
GRIDFORMAT
  1
GRIDFORMAT_BEGIN
 90
        0
 91
        1
 62
     0
 92
       -2
340
0
 93
        0
 40
0.045
309
GRIDFORMAT_END
 95
       32
302
GRIDFORMAT
  1
GRIDFORMAT_BEGIN
 90
        0
 91
        1
 62
     0
 92
       -2
340
0
 93
        0
 40
0.045
309
GRIDFORMAT_END
309
TABLEFORMAT_END
  1
CELLSTYLE_BEGIN
 90
        1
 91
        1
300
_TITLE
309
CELLSTYLE_END
300
CELLSTYLE
  1
TABLEFORMAT_BEGIN
 90
        5
170
     1
 91
        0
 92
        0
 62
   257
 93
        1
300
CONTENTFORMAT
  1
CONTENTFORMAT_BEGIN
 90
        0
 91
        0
 92
        4
 93
        0
300

 40
0.0
140
1.0
 94
        5
 62
     0
340
11
144
0.18
309
CONTENTFORMAT_END
171
     1
301
MARGIN
  1
CELLMARGIN_BEGIN
 40
0.06
 40
0.06
 40
0.06
 40
0.06
 40
0.18
 40
0.18
309
CELLMARGIN_END
 94
        6
 95
        1
302
GRIDFORMAT
  1
GRIDFORMAT_BEGIN
 90
        0
 91
        1
 62
     0
 92
       -2
340
0
 93
        0
 40
0.045
309
GRIDFORMAT_END
 95
        2
302
GRIDFORMAT
  1
GRIDFORMAT_BEGIN
 90
        0
 91
        1
 62
     0
 92
       -2
340
0
 93
        0
 40
0.045
309
GRIDFORMAT_END
 95
        4
302
GRIDFORMAT
  1
GRIDFORMAT_BEGIN
 90
        0
 91
        1
 62
     0
 92
       -2
340
0
 93
        0
 40
0.045
309
GRIDFORMAT_END
 95
        8
302
GRIDFORMAT
  1
GRIDFORMAT_BEGIN
 90
        0
 91
        1
 62
     0
 92
       -2
340
0
 93
        0
 40
0.045
309
GRIDFORMAT_END
 95
       16
302
GRIDFORMAT
  1
GRIDFORMAT_BEGIN
 90
        0
 91
        1
 62
     0
 92
       -2
340
0
 93
        0
 40
0.045
309
GRIDFORMAT_END
 95
       32
302
GRIDFORMAT
  1
GRIDFORMAT_BEGIN
 90
        0
 91
        1
 62
     0
 92
       -2
340
0
 93
        0
 40
0.045
309
GRIDFORMAT_END
309
TABLEFORMAT_END
  1
CELLSTYLE_BEGIN
 90
        2
 91
        1
300
_HEADER
309
CELLSTYLE_END
300
CELLSTYLE
  1
TABLEFORMAT_BEGIN
 90
        5
170
     1
 91
        0
 92
        0
 62
   257
 93
        1
300
CONTENTFORMAT
  1
CONTENTFORMAT_BEGIN
 90
        0
 91
        0
 92
        4
 93
        0
300

 40
0.0
140
1.0
 94
        2
 62
     0
340
11
144
0.18
309
CONTENTFORMAT_END
171
     1
301
MARGIN
  1
CELLMARGIN_BEGIN
 40
0.06
 40
0.06
 40
0.06
 40
0.06
 40
0.18
 40
0.18
309
CELLMARGIN_END
 94
        6
 95
        1
302
GRIDFORMAT
  1
GRIDFORMAT_BEGIN
 90
        0
 91
        1
 62
     0
 92
       -2
340
0
 93
        0
 40
0.045
309
GRIDFORMAT_END
 95
        2
302
GRIDFORMAT
  1
GRIDFORMAT_BEGIN
 90
        0
 91
        1
 62
     0
 92
       -2
340
0
 93
        0
 40
0.045
309
GRIDFORMAT_END
 95
        4
302
GRIDFORMAT
  1
GRIDFORMAT_BEGIN
 90
        0
 91
        1
 62
     0
 92
       -2
340
0
 93
        0
 40
0.045
309
GRIDFORMAT_END
 95
        8
302
GRIDFORMAT
  1
GRIDFORMAT_BEGIN
 90
        0
 91
        1
 62
     0
 92
       -2
340
0
 93
        0
 40
0.045
309
GRIDFORMAT_END
 95
       16
302
GRIDFORMAT
  1
GRIDFORMAT_BEGIN
 90
        0
 91
        1
 62
     0
 92
       -2
340
0
 93
        0
 40
0.045
309
GRIDFORMAT_END
 95
       32
302
GRIDFORMAT
  1
GRIDFORMAT_BEGIN
 90
        0
 91
        1
 62
     0
 92
       -2
340
0
 93
        0
 40
0.045
309
GRIDFORMAT_END
309
TABLEFORMAT_END
  1
CELLSTYLE_BEGIN
 90
        3
 91
        2
300
_DATA
309
CELLSTYLE_END
  0
XRECORD
  5
D74F8
102
{ACAD_REACTORS
330
D0C45
102
}
330
D0C45
100
AcDbXrecord
280
     1
102
ACAD_ROUNDTRIP_PRE2007_TABLESTYLE
 90
        4
 91
        0
  1

 92
        4
 93
        0
  2

 94
        4
 95
        0
  3

  0
ENDSEC
  0
EOF
