  0
SECTION
  2
HEADER
  9
$ACADVER
  1
AC1015
  9
$ACADMAINTVER
 70
    20
  9
$DWGCODEPAGE
  3
ANSI_936
  9
$INSBASE
 10
0.0
 20
0.0
 30
0.0
  9
$EXTMIN
 10
102401.9643017302
 20
-169555.2233630647
 30
0.0
  9
$EXTMAX
 10
106333.9643017302
 20
-168163.2233630647
 30
0.0
  9
$LIMMIN
 10
0.0
 20
0.0
  9
$LIMMAX
 10
12.0
 20
9.0
  9
$ORTHOMODE
 70
     0
  9
$REGENMODE
 70
     1
  9
$FILLMODE
 70
     1
  9
$QTEXTMODE
 70
     0
  9
$MIRRTEXT
 70
     0
  9
$LTSCALE
 40
1.0
  9
$ATTMODE
 70
     1
  9
$TEXTSIZE
 40
0.2
  9
$TRACEWID
 40
0.05
  9
$TEXTSTYLE
  7
Standard
  9
$CLAYER
  8
标注
  9
$CELTYPE
  6
ByLayer
  9
$CECOLOR
 62
   256
  9
$CELTSCALE
 40
5.0
  9
$DISPSILH
 70
     0
  9
$DIMSCALE
 40
1.0
  9
$DIMASZ
 40
16.0
  9
$DIMEXO
 40
7.0
  9
$DIMDLI
 40
0.38
  9
$DIMRND
 40
0.0
  9
$DIMDLE
 40
0.0
  9
$DIMEXE
 40
7.0
  9
$DIMTP
 40
0.0
  9
$DIMTM
 40
0.0
  9
$DIMTXT
 40
20.0
  9
$DIMCEN
 40
2.5
  9
$DIMTSZ
 40
0.0
  9
$DIMTOL
 70
     0
  9
$DIMLIM
 70
     0
  9
$DIMTIH
 70
     0
  9
$DIMTOH
 70
     0
  9
$DIMSE1
 70
     0
  9
$DIMSE2
 70
     0
  9
$DIMTAD
 70
     0
  9
$DIMZIN
 70
     8
  9
$DIMBLK
  1

  9
$DIMASO
 70
     1
  9
$DIMSHO
 70
     1
  9
$DIMPOST
  1

  9
$DIMAPOST
  1
"
  9
$DIMALT
 70
     0
  9
$DIMALTD
 70
     3
  9
$DIMALTF
 40
0.03937
  9
$DIMLFAC
 40
1.0
  9
$DIMTOFL
 70
     1
  9
$DIMTVP
 40
0.0
  9
$DIMTIX
 70
     0
  9
$DIMSOXD
 70
     0
  9
$DIMSAH
 70
     0
  9
$DIMBLK1
  1

  9
$DIMBLK2
  1

  9
$DIMSTYLE
  2
副本Standard
  9
$DIMCLRD
 70
   256
  9
$DIMCLRE
 70
   256
  9
$DIMCLRT
 70
   256
  9
$DIMTFAC
 40
1.0
  9
$DIMGAP
 40
1.0
  9
$DIMJUST
 70
     0
  9
$DIMSD1
 70
     0
  9
$DIMSD2
 70
     0
  9
$DIMTOLJ
 70
     1
  9
$DIMTZIN
 70
     0
  9
$DIMALTZ
 70
     0
  9
$DIMALTTZ
 70
     0
  9
$DIMUPT
 70
     0
  9
$DIMDEC
 70
     1
  9
$DIMTDEC
 70
     1
  9
$DIMALTU
 70
     7
  9
$DIMALTTD
 70
     3
  9
$DIMTXSTY
  7
Standard
  9
$DIMAUNIT
 70
     0
  9
$DIMADEC
 70
     1
  9
$DIMALTRND
 40
0.0
  9
$DIMAZIN
 70
     2
  9
$DIMDSEP
 70
    44
  9
$DIMATFIT
 70
     3
  9
$DIMFRAC
 70
     0
  9
$DIMLDRBLK
  1

  9
$DIMLUNIT
 70
     2
  9
$DIMLWD
 70
    -2
  9
$DIMLWE
 70
    -2
  9
$DIMTMOVE
 70
     0
  9
$LUNITS
 70
     2
  9
$LUPREC
 70
     4
  9
$SKETCHINC
 40
0.1
  9
$FILLETRAD
 40
90.0
  9
$AUNITS
 70
     0
  9
$AUPREC
 70
     0
  9
$MENU
  1
.
  9
$ELEVATION
 40
0.0
  9
$PELEVATION
 40
0.0
  9
$THICKNESS
 40
0.0
  9
$LIMCHECK
 70
     0
  9
$CHAMFERA
 40
26.6
  9
$CHAMFERB
 40
26.6
  9
$CHAMFERC
 40
0.0
  9
$CHAMFERD
 40
0.0
  9
$SKPOLY
 70
     0
  9
$TDCREATE
 40
2454355.343801713
  9
$TDUCREATE
 40
2454355.010468380
  9
$TDUPDATE
 40
2457938.599725671
  9
$TDUUPDATE
 40
2457938.266392338
  9
$TDINDWG
 40
9.0107154514
  9
$TDUSRTIMER
 40
9.0107152546
  9
$USRTIMER
 70
     1
  9
$ANGBASE
 50
0.0
  9
$ANGDIR
 70
     0
  9
$PDMODE
 70
     0
  9
$PDSIZE
 40
0.0
  9
$PLINEWID
 40
0.0
  9
$SPLFRAME
 70
     0
  9
$SPLINETYPE
 70
     6
  9
$SPLINESEGS
 70
     8
  9
$HANDSEED
  5
DA33B
  9
$SURFTAB1
 70
     6
  9
$SURFTAB2
 70
     6
  9
$SURFTYPE
 70
     6
  9
$SURFU
 70
     6
  9
$SURFV
 70
     6
  9
$UCSBASE
  2

  9
$UCSNAME
  2

  9
$UCSORG
 10
0.0
 20
0.0
 30
0.0
  9
$UCSXDIR
 10
1.0
 20
0.0
 30
0.0
  9
$UCSYDIR
 10
0.0
 20
1.0
 30
0.0
  9
$UCSORTHOREF
  2

  9
$UCSORTHOVIEW
 70
     0
  9
$UCSORGTOP
 10
0.0
 20
0.0
 30
0.0
  9
$UCSORGBOTTOM
 10
0.0
 20
0.0
 30
0.0
  9
$UCSORGLEFT
 10
0.0
 20
0.0
 30
0.0
  9
$UCSORGRIGHT
 10
0.0
 20
0.0
 30
0.0
  9
$UCSORGFRONT
 10
0.0
 20
0.0
 30
0.0
  9
$UCSORGBACK
 10
0.0
 20
0.0
 30
0.0
  9
$PUCSBASE
  2

  9
$PUCSNAME
  2

  9
$PUCSORG
 10
0.0
 20
0.0
 30
0.0
  9
$PUCSXDIR
 10
1.0
 20
0.0
 30
0.0
  9
$PUCSYDIR
 10
0.0
 20
1.0
 30
0.0
  9
$PUCSORTHOREF
  2

  9
$PUCSORTHOVIEW
 70
     0
  9
$PUCSORGTOP
 10
0.0
 20
0.0
 30
0.0
  9
$PUCSORGBOTTOM
 10
0.0
 20
0.0
 30
0.0
  9
$PUCSORGLEFT
 10
0.0
 20
0.0
 30
0.0
  9
$PUCSORGRIGHT
 10
0.0
 20
0.0
 30
0.0
  9
$PUCSORGFRONT
 10
0.0
 20
0.0
 30
0.0
  9
$PUCSORGBACK
 10
0.0
 20
0.0
 30
0.0
  9
$USERI1
 70
     0
  9
$USERI2
 70
     0
  9
$USERI3
 70
     0
  9
$USERI4
 70
     0
  9
$USERI5
 70
     0
  9
$USERR1
 40
0.0
  9
$USERR2
 40
0.0
  9
$USERR3
 40
0.0
  9
$USERR4
 40
0.0
  9
$USERR5
 40
2.5
  9
$WORLDVIEW
 70
     1
  9
$SHADEDGE
 70
     3
  9
$SHADEDIF
 70
    70
  9
$TILEMODE
 70
     1
  9
$MAXACTVP
 70
    64
  9
$PINSBASE
 10
0.0
 20
0.0
 30
0.0
  9
$PLIMCHECK
 70
     0
  9
$PEXTMIN
 10
0.0
 20
0.0
 30
0.0
  9
$PEXTMAX
 10
0.0
 20
0.0
 30
0.0
  9
$PLIMMIN
 10
0.0
 20
0.0
  9
$PLIMMAX
 10
12.0
 20
9.0
  9
$UNITMODE
 70
     0
  9
$VISRETAIN
 70
     1
  9
$PLINEGEN
 70
     0
  9
$PSLTSCALE
 70
     1
  9
$TREEDEPTH
 70
  3020
  9
$CMLSTYLE
  2
Standard
  9
$CMLJUST
 70
     0
  9
$CMLSCALE
 40
1.0
  9
$PROXYGRAPHICS
 70
     1
  9
$MEASUREMENT
 70
     0
  9
$CELWEIGHT
370
    -1
  9
$ENDCAPS
280
     0
  9
$JOINSTYLE
280
     0
  9
$LWDISPLAY
290
     0
  9
$INSUNITS
 70
     4
  9
$HYPERLINKBASE
  1

  9
$STYLESHEET
  1
MONOCHROME.CTB
  9
$XEDIT
290
     1
  9
$CEPSNTYPE
380
     0
  9
$PSTYLEMODE
290
     1
  9
$FINGERPRINTGUID
  2
{35BD88C0-9548-11D2-9A29-0060089B3A3F}
  9
$VERSIONGUID
  2
{3D1EFFE8-D4C7-4CF4-8E3F-82CD77859039}
  9
$EXTNAMES
290
     1
  9
$PSVPSCALE
 40
0.0
  9
$OLESTARTUP
290
     0
  0
ENDSEC
  0
SECTION
  2
CLASSES
  0
CLASS
  1
ACDBDICTIONARYWDFLT
  2
AcDbDictionaryWithDefault
  3
ObjectDBX Classes
 90
        0
280
     0
281
     0
  0
CLASS
  1
ACDBPLACEHOLDER
  2
AcDbPlaceHolder
  3
ObjectDBX Classes
 90
        0
280
     0
281
     0
  0
CLASS
  1
LAYOUT
  2
AcDbLayout
  3
ObjectDBX Classes
 90
        0
280
     0
281
     0
  0
CLASS
  1
DICTIONARYVAR
  2
AcDbDictionaryVar
  3
ObjectDBX Classes
 90
        0
280
     0
281
     0
  0
CLASS
  1
SORTENTSTABLE
  2
AcDbSortentsTable
  3
ObjectDBX Classes
 90
        0
280
     0
281
     0
  0
CLASS
  1
DIMASSOC
  2
AcDbDimAssoc
  3
"AcDbDimAssoc|Product Desc:     AcDim ARX App For Dimension|Company:          Autodesk, Inc.|WEB Address:      www.autodesk.com"
 90
        0
280
     0
281
     0
  0
CLASS
  1
TABLESTYLE
  2
AcDbTableStyle
  3
ObjectDBX Classes
 90
     4095
280
     0
281
     0
  0
CLASS
  1
VLO-VL
  2
vlo_VL
  3
VL|AutoLISP based application
 90
      129
280
     0
281
     0
  0
CLASS
  1
MATERIAL
  2
AcDbMaterial
  3
ObjectDBX Classes
 90
     1153
280
     0
281
     0
  0
CLASS
  1
VISUALSTYLE
  2
AcDbVisualStyle
  3
ObjectDBX Classes
 90
     4095
280
     0
281
     0
  0
CLASS
  1
SCALE
  2
AcDbScale
  3
ObjectDBX Classes
 90
     1153
280
     0
281
     0
  0
CLASS
  1
MLEADERSTYLE
  2
AcDbMLeaderStyle
  3
ACDB_MLEADERSTYLE_CLASS
 90
     4095
280
     0
281
     0
  0
CLASS
  1
CELLSTYLEMAP
  2
AcDbCellStyleMap
  3
ObjectDBX Classes
 90
     1152
280
     0
281
     0
  0
ENDSEC
  0
SECTION
  2
TABLES
  0
TABLE
  2
VPORT
  5
8
330
0
100
AcDbSymbolTable
 70
     1
  0
VPORT
  5
CED6D
330
8
100
AcDbSymbolTableRecord
100
AcDbViewportTableRecord
  2
*Active
 70
     0
 10
0.0
 20
0.0
 11
1.0
 21
1.0
 12
104500.3754230353
 22
-168995.7933693649
 13
0.0
 23
0.0
 14
0.5
 24
0.5
 15
0.5
 25
0.5
 16
0.0
 26
0.0
 36
1.0
 17
0.0
 27
0.0
 37
0.0
 40
1237.179123886189
 41
2.241676942046855
 42
50.0
 43
0.0
 44
0.0
 50
0.0
 51
0.0
 71
     0
 72
  1000
 73
     1
 74
     3
 75
     0
 76
     0
 77
     0
 78
     0
281
     0
 65
     1
110
0.0
120
0.0
130
0.0
111
1.0
121
0.0
131
0.0
112
0.0
122
1.0
132
0.0
 79
     0
146
0.0
  0
ENDTAB
  0
TABLE
  2
LTYPE
  5
5
330
0
100
AcDbSymbolTable
 70
     3
  0
LTYPE
  5
14
330
5
100
AcDbSymbolTableRecord
100
AcDbLinetypeTableRecord
  2
ByBlock
 70
     0
  3

 72
    65
 73
     0
 40
0.0
  0
LTYPE
  5
15
330
5
100
AcDbSymbolTableRecord
100
AcDbLinetypeTableRecord
  2
ByLayer
 70
     0
  3

 72
    65
 73
     0
 40
0.0
  0
LTYPE
  5
16
330
5
100
AcDbSymbolTableRecord
100
AcDbLinetypeTableRecord
  2
Continuous
 70
     0
  3
Solid line
 72
    65
 73
     0
 40
0.0
  0
LTYPE
  5
98
330
5
100
AcDbSymbolTableRecord
100
AcDbLinetypeTableRecord
  2
HIDDEN2
 70
     0
  3
Hidden (.5x) _ _ _ _ _ _ _ _ _ _ _ _ _ _ _ _ _
 72
    65
 73
     2
 40
4.762499999999998
 49
3.174999999999998
 74
     0
 49
-1.587499999999999
 74
     0
  0
LTYPE
  5
D5D91
330
5
100
AcDbSymbolTableRecord
100
AcDbLinetypeTableRecord
  2
CENTER
 70
     0
  3
Center ____ _ ____ _ ____ _ ____ _ ____ _ ____
 72
    65
 73
     4
 40
50.8
 49
31.75
 74
     0
 49
-6.349999999999998
 74
     0
 49
6.349999999999998
 74
     0
 49
-6.349999999999998
 74
     0
  0
ENDTAB
  0
TABLE
  2
LAYER
  5
2
102
{ACAD_XDICTIONARY
360
AB
102
}
330
0
100
AcDbSymbolTable
 70
     7
  0
LAYER
  5
10
102
{ACAD_XDICTIONARY
360
CF251
102
}
330
2
100
AcDbSymbolTableRecord
100
AcDbLayerTableRecord
  2
0
 70
     0
 62
     7
  6
Continuous
370
    18
390
F
  0
LAYER
  5
9D
102
{ACAD_XDICTIONARY
360
CF259
102
}
330
2
100
AcDbSymbolTableRecord
100
AcDbLayerTableRecord
  2
虚线
 70
     0
 62
     4
  6
HIDDEN2
370
    18
390
F
  0
LAYER
  5
9E
102
{ACAD_XDICTIONARY
360
CF25B
102
}
330
2
100
AcDbSymbolTableRecord
100
AcDbLayerTableRecord
  2
细实线
 70
     0
 62
     7
  6
Continuous
370
     9
390
F
  0
LAYER
  5
582
330
2
100
AcDbSymbolTableRecord
100
AcDbLayerTableRecord
  2
Defpoints
 70
     0
 62
     7
  6
Continuous
290
     0
370
     9
390
F
  0
LAYER
  5
16DF9
102
{ACAD_XDICTIONARY
360
CF25D
102
}
330
2
100
AcDbSymbolTableRecord
100
AcDbLayerTableRecord
  2
标注
 70
     0
 62
    80
  6
Continuous
370
     5
390
F
1001
AcAecLayerStandard
1000

1000

  0
LAYER
  5
D5CE8
330
2
100
AcDbSymbolTableRecord
100
AcDbLayerTableRecord
  2
粗实线
 70
     0
 62
     7
  6
Continuous
370
    25
390
F
1001
AcAecLayerStandard
1000

1000

  0
LAYER
  5
D81F4
102
{ACAD_XDICTIONARY
360
D81F5
102
}
330
2
100
AcDbSymbolTableRecord
100
AcDbLayerTableRecord
  2
标注线
 70
     0
 62
     6
  6
Continuous
370
    -3
390
F
  0
ENDTAB
  0
TABLE
  2
STYLE
  5
3
330
0
100
AcDbSymbolTable
 70
     2
  0
STYLE
  5
11
330
3
100
AcDbSymbolTableRecord
100
AcDbTextStyleTableRecord
  2
Standard
 70
     0
 40
0.0
 41
1.0
 50
0.0
 71
     0
 42
0.2
  3
SimSun.ttf
  4

1001
ACAD
1000
SimSun
1071
    34306
  0
STYLE
  5
9D6ED
330
3
100
AcDbSymbolTableRecord
100
AcDbTextStyleTableRecord
  2
A301
 70
     0
 40
3.5
 41
0.75
 50
0.0
 71
     0
 42
0.0
  3
SimSun.ttf
  4

1001
ACAD
1000
SimSun
1071
    34306
  0
ENDTAB
  0
TABLE
  2
VIEW
  5
6
330
0
100
AcDbSymbolTable
 70
     0
  0
ENDTAB
  0
TABLE
  2
UCS
  5
7
330
0
100
AcDbSymbolTable
 70
     0
  0
ENDTAB
  0
TABLE
  2
APPID
  5
9
330
0
100
AcDbSymbolTable
 70
    19
  0
APPID
  5
12
330
9
100
AcDbSymbolTableRecord
100
AcDbRegAppTableRecord
  2
ACAD
 70
     0
  0
APPID
  5
A5
330
9
100
AcDbSymbolTableRecord
100
AcDbRegAppTableRecord
  2
AcAecLayerStandard
 70
     0
  0
APPID
  5
A6
330
9
100
AcDbSymbolTableRecord
100
AcDbRegAppTableRecord
  2
ACAD_DSTYLE_DIMEXT_LENGTH
 70
     0
  0
APPID
  5
A7
330
9
100
AcDbSymbolTableRecord
100
AcDbRegAppTableRecord
  2
ACAD_DSTYLE_DIMEXT_ENABLED
 70
     0
  0
APPID
  5
A8
330
9
100
AcDbSymbolTableRecord
100
AcDbRegAppTableRecord
  2
ACAD_DSTYLE_DIMJOGGED_JOGANGLE_SYMBOL
 70
     0
  0
APPID
  5
A9
330
9
100
AcDbSymbolTableRecord
100
AcDbRegAppTableRecord
  2
ACAD_DSTYLE_DIMARC_LENGTH_SYMBOL
 70
     0
  0
APPID
  5
AA
330
9
100
AcDbSymbolTableRecord
100
AcDbRegAppTableRecord
  2
ACAD_PSEXT
 70
     0
  0
APPID
  5
173
330
9
100
AcDbSymbolTableRecord
100
AcDbRegAppTableRecord
  2
DCO15
 70
     0
  0
APPID
  5
11D5
330
9
100
AcDbSymbolTableRecord
100
AcDbRegAppTableRecord
  2
ACAD_EXEMPT_FROM_CAD_STANDARDS
 70
     0
  0
APPID
  5
B456
330
9
100
AcDbSymbolTableRecord
100
AcDbRegAppTableRecord
  2
ACAD_DSTYLE_DIMTEXT_FILL
 70
     0
  0
APPID
  5
B459
330
9
100
AcDbSymbolTableRecord
100
AcDbRegAppTableRecord
  2
ACAD_DSTYLE_DIM_LINETYPE
 70
     0
  0
APPID
  5
B45A
330
9
100
AcDbSymbolTableRecord
100
AcDbRegAppTableRecord
  2
ACAD_DSTYLE_DIM_EXT1_LINETYPE
 70
     0
  0
APPID
  5
B45B
330
9
100
AcDbSymbolTableRecord
100
AcDbRegAppTableRecord
  2
ACAD_DSTYLE_DIM_EXT2_LINETYPE
 70
     0
  0
APPID
  5
CEDBC
330
9
100
AcDbSymbolTableRecord
100
AcDbRegAppTableRecord
  2
ACAD_MLEADERVER
 70
     0
  0
APPID
  5
CF35C
330
9
100
AcDbSymbolTableRecord
100
AcDbRegAppTableRecord
  2
ACAD_DSTYLE_DIMRADIAL_EXTENSION
 70
     0
  0
APPID
  5
CF43A
330
9
100
AcDbSymbolTableRecord
100
AcDbRegAppTableRecord
  2
ACAD_DSTYLE_DIMJAG
 70
     0
  0
APPID
  5
CF43B
330
9
100
AcDbSymbolTableRecord
100
AcDbRegAppTableRecord
  2
ACAD_DSTYLE_DIMTALN
 70
     0
  0
APPID
  5
D5B36
330
9
100
AcDbSymbolTableRecord
100
AcDbRegAppTableRecord
  2
AcDbBlockRepETag
 70
     0
  0
APPID
  5
D6F8C
330
9
100
AcDbSymbolTableRecord
100
AcDbRegAppTableRecord
  2
ACAD_DSTYLE_DIMBREAK
 70
     0
  0
ENDTAB
  0
TABLE
  2
DIMSTYLE
  5
A
330
0
100
AcDbSymbolTable
 70
    13
100
AcDbDimStyleTable
 71
     2
340
3BDB5
340
27
  0
DIMSTYLE
105
27
330
A
100
AcDbSymbolTableRecord
100
AcDbDimStyleTableRecord
  2
Standard
 70
     0
 41
20.0
 42
25.0
 44
8.0
 73
     0
 74
     0
 78
     8
 79
     2
140
20.0
147
5.0
172
     1
176
     3
177
     3
178
     3
179
     1
271
     1
272
     1
278
    44
340
11
1001
ACAD_DSTYLE_DIMJOGGED_JOGANGLE_SYMBOL
1070
   384
1040
0.7853981633974483
1001
ACAD_DSTYLE_DIMEXT_LENGTH
1070
   378
1040
8.0
  0
DIMSTYLE
105
3BDB5
102
{ACAD_REACTORS
330
D9EAA
330
D9EC4
330
D9EDE
330
D9EF8
330
D9F12
330
D9F1F
330
D9F2C
330
D9F48
330
D9F62
330
D9F86
330
D9FA2
330
D9FB0
330
D9FD6
330
DA004
330
DA014
330
DA024
330
DA034
330
DA044
330
DA054
330
DA064
330
DA07F
102
}
330
A
100
AcDbSymbolTableRecord
100
AcDbDimStyleTableRecord
  2
副本Standard
 70
     0
  4
"
 41
16.0
 42
7.0
 44
7.0
 73
     0
 74
     0
 78
     8
 79
     2
140
20.0
141
2.5
143
0.03937
147
1.0
171
     3
172
     1
176
   256
177
   256
178
   256
179
     1
271
     1
272
     1
273
     7
274
     3
278
    44
340
11
1001
ACAD_DSTYLE_DIMJAG
1070
   388
1040
1.5
1001
ACAD_DSTYLE_DIMTALN
1070
   392
1070
     0
  0
DIMSTYLE
105
D5B35
330
A
100
AcDbSymbolTableRecord
100
AcDbDimStyleTableRecord
  2
ISO-25
 70
     0
 41
2.5
 42
0.625
 43
3.75
 44
1.25
 73
     0
 74
     0
 77
     1
 78
     8
140
2.5
141
2.5
143
0.03937007874016
147
0.625
171
     3
172
     1
271
     0
272
     0
274
     3
283
     0
284
     8
340
11
1001
ACAD_DSTYLE_DIMJAG
1070
   388
1040
1.5
1001
ACAD_DSTYLE_DIMTALN
1070
   392
1070
     0
1001
ACAD_DSTYLE_DIMJOGGED_JOGANGLE_SYMBOL
1070
   384
1040
1.570796326794896
  0
DIMSTYLE
105
D6346
330
A
100
AcDbSymbolTableRecord
100
AcDbDimStyleTableRecord
  2
XIAO
 70
     0
 41
2.0
 42
1.5
 43
1.0
 44
0.5
 73
     0
 74
     0
 77
     1
 78
     8
140
2.0
141
1.0
143
0.03937007874016
147
0.8
171
     3
172
     1
179
     1
271
     1
272
     1
274
     3
278
    44
283
     0
284
     8
340
11
  0
DIMSTYLE
105
D6347
330
A
100
AcDbSymbolTableRecord
100
AcDbDimStyleTableRecord
  2
副本 (3)Standard
 70
     0
  4
"
 41
16.0
 42
22.0
 44
8.0
 73
     0
 74
     0
 78
     8
 79
     2
140
16.0
141
0.0
143
0.03937
147
5.0
171
     3
172
     1
175
     1
176
     3
177
     3
178
     3
179
     1
271
     1
272
     1
273
     7
274
     3
278
    44
289
     1
340
11
344
D62FB
  0
DIMSTYLE
105
D6348
330
A
100
AcDbSymbolTableRecord
100
AcDbDimStyleTableRecord
  2
100721
 70
     0
  4
"
 41
12.0
 42
18.0
 44
7.0
 73
     0
 74
     0
 78
     8
 79
     2
140
12.0
143
0.03937
147
5.0
171
     1
172
     1
176
   256
177
   256
178
   256
179
     1
271
     1
272
     1
274
     1
278
    44
340
11
  0
DIMSTYLE
105
D6F8A
330
A
100
AcDbSymbolTableRecord
100
AcDbDimStyleTableRecord
  2
副本Standard(2)
 70
     0
  3
mm
  4
"
 41
16.0
 42
22.0
 44
8.0
 73
     0
 74
     0
 78
     8
 79
     2
140
16.0
143
0.03937
147
5.0
170
     1
171
     3
172
     1
176
   256
177
   256
178
   256
179
     1
271
     1
272
     1
273
     7
274
     3
278
    44
340
11
1001
ACAD_DSTYLE_DIMBREAK
1070
   391
1040
0.125
1001
ACAD_DSTYLE_DIMJAG
1070
   388
1040
1.5
1001
ACAD_DSTYLE_DIMTALN
1070
   392
1070
     0
  0
DIMSTYLE
105
D6F8B
330
A
100
AcDbSymbolTableRecord
100
AcDbDimStyleTableRecord
  2
带公差标注
 70
     0
  4
"
 41
16.0
 42
22.0
 44
8.0
 47
2.0
 48
2.0
 71
     1
 73
     0
 74
     0
 78
     8
 79
     2
140
16.0
143
0.03937
147
5.0
171
     3
172
     1
176
   256
177
   256
178
   256
179
     1
271
     1
272
     0
273
     7
274
     3
278
    44
340
11
1001
ACAD_DSTYLE_DIMBREAK
1070
   391
1040
0.125
1001
ACAD_DSTYLE_DIMJAG
1070
   388
1040
1.5
1001
ACAD_DSTYLE_DIMTALN
1070
   392
1070
     0
1001
ACAD_DSTYLE_DIMARC_LENGTH_SYMBOL
1070
   379
1070
     1
1001
ACAD_DSTYLE_DIMEXT_ENABLED
1070
   383
1070
     1
1001
ACAD_DSTYLE_DIMEXT_LENGTH
1070
   378
1040
35.0
1001
ACAD_DSTYLE_DIMJOGGED_JOGANGLE_SYMBOL
1070
   384
1040
1.570796326794896
1001
ACAD_DSTYLE_DIM_LINETYPE
1070
   380
1005
14
1001
ACAD_DSTYLE_DIM_EXT1_LINETYPE
1070
   381
1005
14
1001
ACAD_DSTYLE_DIM_EXT2_LINETYPE
1070
   382
1005
14
  0
DIMSTYLE
105
D77B9
330
A
100
AcDbSymbolTableRecord
100
AcDbDimStyleTableRecord
  2
副本ISO-25
 70
     0
 41
15.0
 42
0.625
 43
3.75
 44
1.25
 73
     0
 77
     1
 78
     8
140
15.0
141
2.5
143
0.03937007874016
147
0.625
171
     1
172
     1
176
     6
177
     6
271
     2
272
     2
274
     1
278
    44
283
     0
284
     8
340
11
371
    15
372
    15
  0
DIMSTYLE
105
D81F6
330
A
100
AcDbSymbolTableRecord
100
AcDbDimStyleTableRecord
  2
英寸
 70
     0
  3
"
 41
18.0
 42
0.625
 43
3.75
 44
1.25
 73
     0
 74
     0
 77
     1
 78
     8
140
18.0
141
2.5
143
0.03937007874016
144
0.03937007874
147
0.625
171
     3
172
     1
176
     3
177
     3
178
     3
271
     3
272
     3
274
     3
276
     2
277
     5
278
    44
283
     0
284
     8
340
11
371
     9
372
     9
1001
ACAD_DSTYLE_DIMBREAK
1070
   391
1040
0.125
1001
ACAD_DSTYLE_DIMJAG
1070
   388
1040
1.5
1001
ACAD_DSTYLE_DIMTALN
1070
   392
1070
     0
1001
ACAD_DSTYLE_DIMEXT_LENGTH
1070
   378
1040
1.25
  0
DIMSTYLE
105
D9DAD
330
A
100
AcDbSymbolTableRecord
100
AcDbDimStyleTableRecord
  2
副本 ISO-25
 70
     0
 41
18.0
 42
0.0
 43
3.75
 44
1.25
 78
     8
140
40.0
141
15.0
143
0.03937007874016
147
3.0
171
     3
172
     1
176
   256
177
   256
271
     2
272
     2
274
     3
278
    44
283
     0
284
     8
340
11
371
     9
372
     9
1001
ACAD_DSTYLE_DIMJOGGED_JOGANGLE_SYMBOL
1070
   384
1040
0.7853981633974483
1001
ACAD_DSTYLE_DIMEXT_LENGTH
1070
   378
1040
1.25
  0
DIMSTYLE
105
D9DAE
330
A
100
AcDbSymbolTableRecord
100
AcDbDimStyleTableRecord
  2
副本 ISO-2512
 70
     0
 41
18.0
 42
10.0
 43
3.75
 44
5.0
 73
     0
 74
     0
 78
     8
140
20.0
141
15.0
143
0.03937007874016
147
3.0
171
     3
172
     1
176
   256
177
   256
271
     1
272
     1
274
     3
278
    44
283
     0
284
     8
340
11
371
     9
372
     9
1001
ACAD_DSTYLE_DIMJOGGED_JOGANGLE_SYMBOL
1070
   384
1040
0.7853981633974483
1001
ACAD_DSTYLE_DIMEXT_LENGTH
1070
   378
1040
1.25
  0
DIMSTYLE
105
D9DAF
330
A
100
AcDbSymbolTableRecord
100
AcDbDimStyleTableRecord
  2
毫米
 70
     0
 41
16.0
 42
20.0
 43
3.75
 44
10.0
 73
     0
 74
     0
 78
     8
140
16.0
141
15.0
143
0.03937007874016
147
3.0
171
     3
172
     1
176
     3
177
     3
178
     3
271
     0
272
     0
274
     3
278
    44
283
     0
284
     8
340
11
371
     9
372
     9
1001
ACAD_DSTYLE_DIMBREAK
1070
   391
1040
0.125
1001
ACAD_DSTYLE_DIMJAG
1070
   388
1040
1.5
1001
ACAD_DSTYLE_DIMTALN
1070
   392
1070
     0
1001
ACAD_DSTYLE_DIMEXT_LENGTH
1070
   378
1040
1.25
  0
ENDTAB
  0
TABLE
  2
BLOCK_RECORD
  5
1
330
0
100
AcDbSymbolTable
 70
    23
  0
BLOCK_RECORD
  5
1F
102
{ACAD_XDICTIONARY
360
118B
102
}
330
1
100
AcDbSymbolTableRecord
100
AcDbBlockTableRecord
  2
*Model_Space
340
22
  0
BLOCK_RECORD
  5
73
330
1
100
AcDbSymbolTableRecord
100
AcDbBlockTableRecord
  2
*Paper_Space
340
74
  0
BLOCK_RECORD
  5
78
330
1
100
AcDbSymbolTableRecord
100
AcDbBlockTableRecord
  2
*Paper_Space0
340
79
  0
BLOCK_RECORD
  5
D62FB
330
1
100
AcDbSymbolTableRecord
100
AcDbBlockTableRecord
  2
_None
340
0
  0
BLOCK_RECORD
  5
D9EAB
330
1
100
AcDbSymbolTableRecord
100
AcDbBlockTableRecord
  2
*D2
340
0
  0
BLOCK_RECORD
  5
D9EC5
330
1
100
AcDbSymbolTableRecord
100
AcDbBlockTableRecord
  2
*D3
340
0
  0
BLOCK_RECORD
  5
D9EDF
330
1
100
AcDbSymbolTableRecord
100
AcDbBlockTableRecord
  2
*D4
340
0
  0
BLOCK_RECORD
  5
D9EF9
330
1
100
AcDbSymbolTableRecord
100
AcDbBlockTableRecord
  2
*D5
340
0
  0
BLOCK_RECORD
  5
D9F13
330
1
100
AcDbSymbolTableRecord
100
AcDbBlockTableRecord
  2
*D6
340
0
  0
BLOCK_RECORD
  5
D9F20
330
1
100
AcDbSymbolTableRecord
100
AcDbBlockTableRecord
  2
*D7
340
0
  0
BLOCK_RECORD
  5
D9F2D
330
1
100
AcDbSymbolTableRecord
100
AcDbBlockTableRecord
  2
*D8
340
0
  0
BLOCK_RECORD
  5
D9F49
330
1
100
AcDbSymbolTableRecord
100
AcDbBlockTableRecord
  2
*D9
340
0
  0
BLOCK_RECORD
  5
D9F63
330
1
100
AcDbSymbolTableRecord
100
AcDbBlockTableRecord
  2
*D10
340
0
  0
BLOCK_RECORD
  5
D9F87
330
1
100
AcDbSymbolTableRecord
100
AcDbBlockTableRecord
  2
*D11
340
0
  0
BLOCK_RECORD
  5
D9FA3
330
1
100
AcDbSymbolTableRecord
100
AcDbBlockTableRecord
  2
*D12
340
0
  0
BLOCK_RECORD
  5
D9FB1
330
1
100
AcDbSymbolTableRecord
100
AcDbBlockTableRecord
  2
*D13
340
0
  0
BLOCK_RECORD
  5
D9FD7
330
1
100
AcDbSymbolTableRecord
100
AcDbBlockTableRecord
  2
*D14
340
0
  0
BLOCK_RECORD
  5
DA005
330
1
100
AcDbSymbolTableRecord
100
AcDbBlockTableRecord
  2
*D15
340
0
  0
BLOCK_RECORD
  5
DA015
330
1
100
AcDbSymbolTableRecord
100
AcDbBlockTableRecord
  2
*D16
340
0
  0
BLOCK_RECORD
  5
DA025
330
1
100
AcDbSymbolTableRecord
100
AcDbBlockTableRecord
  2
*D17
340
0
  0
BLOCK_RECORD
  5
DA035
330
1
100
AcDbSymbolTableRecord
100
AcDbBlockTableRecord
  2
*D18
340
0
  0
BLOCK_RECORD
  5
DA045
330
1
100
AcDbSymbolTableRecord
100
AcDbBlockTableRecord
  2
*D19
340
0
  0
BLOCK_RECORD
  5
DA055
330
1
100
AcDbSymbolTableRecord
100
AcDbBlockTableRecord
  2
*D20
340
0
  0
BLOCK_RECORD
  5
DA065
330
1
100
AcDbSymbolTableRecord
100
AcDbBlockTableRecord
  2
*D21
340
0
  0
BLOCK_RECORD
  5
DA080
330
1
100
AcDbSymbolTableRecord
100
AcDbBlockTableRecord
  2
*D22
340
0
  0
ENDTAB
  0
ENDSEC
  0
SECTION
  2
BLOCKS
  0
BLOCK
  5
20
330
1F
100
AcDbEntity
  8
0
100
AcDbBlockBegin
  2
*Model_Space
 70
     0
 10
0.0
 20
0.0
 30
0.0
  3
*Model_Space
  1

  0
ENDBLK
  5
21
330
1F
100
AcDbEntity
  8
0
100
AcDbBlockEnd
  0
BLOCK
  5
75
330
73
100
AcDbEntity
 67
     1
  8
0
100
AcDbBlockBegin
  2
*Paper_Space
 70
     0
 10
0.0
 20
0.0
 30
0.0
  3
*Paper_Space
  1

  0
ENDBLK
  5
76
330
73
100
AcDbEntity
 67
     1
  8
0
100
AcDbBlockEnd
  0
BLOCK
  5
7A
330
78
100
AcDbEntity
 67
     1
  8
0
100
AcDbBlockBegin
  2
*Paper_Space0
 70
     0
 10
0.0
 20
0.0
 30
0.0
  3
*Paper_Space0
  1

  0
ENDBLK
  5
7B
330
78
100
AcDbEntity
 67
     1
  8
0
100
AcDbBlockEnd
  0
BLOCK
  5
D62FC
330
D62FB
100
AcDbEntity
  8
0
 48
5.0
100
AcDbBlockBegin
  2
_None
 70
     0
 10
0.0
 20
0.0
 30
0.0
  3
_None
  1

  0
ENDBLK
  5
D62FD
330
D62FB
100
AcDbEntity
  8
0
 48
5.0
100
AcDbBlockEnd
  0
BLOCK
  5
D9EAC
330
D9EAB
100
AcDbEntity
  8
0
 48
5.0
100
AcDbBlockBegin
  2
*D2
 70
     1
 10
0.0
 20
0.0
 30
0.0
  3
*D2
  1

  0
LINE
  5
DA091
330
D9EAB
100
AcDbEntity
  8
标注
 48
5.0
370
    -2
100
AcDbLine
 10
104233.9643017302
 20
-168866.2233630647
 30
0.0
 11
104233.9643017302
 21
-169113.7860319678
 31
0.0
  0
LINE
  5
DA092
330
D9EAB
100
AcDbEntity
  8
标注
 48
5.0
370
    -2
100
AcDbLine
 10
104501.9643017302
 20
-168866.2233630647
 30
0.0
 11
104501.9643017302
 21
-169113.7860319678
 31
0.0
  0
LINE
  5
DA093
330
D9EAB
100
AcDbEntity
  8
标注
 48
5.0
370
    -2
100
AcDbLine
 10
104249.9643017302
 20
-169106.7860319677
 30
0.0
 11
104347.1865239524
 21
-169106.7860319677
 31
0.0
  0
LINE
  5
DA094
330
D9EAB
100
AcDbEntity
  8
标注
 48
5.0
370
    -2
100
AcDbLine
 10
104485.9643017302
 20
-169106.7860319677
 30
0.0
 11
104388.742079508
 21
-169106.7860319677
 31
0.0
  0
SOLID
  5
DA095
330
D9EAB
100
AcDbEntity
  8
标注
 48
5.0
100
AcDbTrace
 10
104249.9643017302
 20
-169104.1193653011
 30
0.0
 11
104249.9643017302
 21
-169109.4526986344
 31
0.0
 12
104233.9643017302
 22
-169106.7860319677
 32
0.0
 13
104233.9643017302
 23
-169106.7860319677
 33
0.0
  0
SOLID
  5
DA096
330
D9EAB
100
AcDbEntity
  8
标注
 48
5.0
100
AcDbTrace
 10
104485.9643017302
 20
-169104.1193653011
 30
0.0
 11
104485.9643017302
 21
-169109.4526986344
 31
0.0
 12
104501.9643017302
 22
-169106.7860319677
 32
0.0
 13
104501.9643017302
 23
-169106.7860319677
 33
0.0
  0
MTEXT
  5
DA097
330
D9EAB
100
AcDbEntity
  8
标注
 48
5.0
100
AcDbMText
 10
104367.9643017302
 20
-169106.7860319677
 30
0.0
 40
20.0
 41
0.0
 71
     5
 72
     1
  1
\A1;268
 73
     1
 44
1.0
1001
ACAD
1000
MTEXTBEGIN
1070
    73
1070
     1
1070
    44
1040
1.0
1070
    74
1070
     0
1000
MTEXTEND
  0
POINT
  5
DA098
330
D9EAB
100
AcDbEntity
  8
Defpoints
 62
     0
 48
5.0
100
AcDbPoint
 10
104233.9643017302
 20
-168859.2233630647
 30
0.0
  0
POINT
  5
DA099
330
D9EAB
100
AcDbEntity
  8
Defpoints
 62
     0
 48
5.0
100
AcDbPoint
 10
104501.9643017302
 20
-168859.2233630647
 30
0.0
  0
POINT
  5
DA09A
330
D9EAB
100
AcDbEntity
  8
Defpoints
 62
     0
 48
5.0
100
AcDbPoint
 10
104501.9643017302
 20
-169106.7860319677
 30
0.0
  0
ENDBLK
  5
D9EAD
330
D9EAB
100
AcDbEntity
  8
0
 48
5.0
100
AcDbBlockEnd
  0
BLOCK
  5
D9EC6
330
D9EC5
100
AcDbEntity
  8
0
 48
5.0
100
AcDbBlockBegin
  2
*D3
 70
     1
 10
0.0
 20
0.0
 30
0.0
  3
*D3
  1

  0
LINE
  5
DA09B
330
D9EC5
100
AcDbEntity
  8
标注
 48
5.0
370
    -2
100
AcDbLine
 10
104229.9643017302
 20
-168866.2233630648
 30
0.0
 11
104229.9643017302
 21
-169149.4205651092
 31
0.0
  0
LINE
  5
DA09C
330
D9EC5
100
AcDbEntity
  8
标注
 48
5.0
370
    -2
100
AcDbLine
 10
104505.9643017302
 20
-168866.2233630648
 30
0.0
 11
104505.9643017302
 21
-169149.4205651092
 31
0.0
  0
LINE
  5
DA09D
330
D9EC5
100
AcDbEntity
  8
标注
 48
5.0
370
    -2
100
AcDbLine
 10
104245.9643017302
 20
-169142.4205651092
 30
0.0
 11
104347.0754128413
 21
-169142.4205651092
 31
0.0
  0
LINE
  5
DA09E
330
D9EC5
100
AcDbEntity
  8
标注
 48
5.0
370
    -2
100
AcDbLine
 10
104489.9643017302
 20
-169142.4205651092
 30
0.0
 11
104388.8531906191
 21
-169142.4205651092
 31
0.0
  0
SOLID
  5
DA09F
330
D9EC5
100
AcDbEntity
  8
标注
 48
5.0
100
AcDbTrace
 10
104245.9643017302
 20
-169139.7538984426
 30
0.0
 11
104245.9643017302
 21
-169145.0872317759
 31
0.0
 12
104229.9643017302
 22
-169142.4205651092
 32
0.0
 13
104229.9643017302
 23
-169142.4205651092
 33
0.0
  0
SOLID
  5
DA0A0
330
D9EC5
100
AcDbEntity
  8
标注
 48
5.0
100
AcDbTrace
 10
104489.9643017302
 20
-169139.7538984426
 30
0.0
 11
104489.9643017302
 21
-169145.0872317759
 31
0.0
 12
104505.9643017302
 22
-169142.4205651092
 32
0.0
 13
104505.9643017302
 23
-169142.4205651092
 33
0.0
  0
MTEXT
  5
DA0A1
330
D9EC5
100
AcDbEntity
  8
标注
 48
5.0
100
AcDbMText
 10
104367.9643017302
 20
-169142.4205651092
 30
0.0
 40
20.0
 41
0.0
 71
     5
 72
     1
  1
\A1;276
 73
     1
 44
1.0
1001
ACAD
1000
MTEXTBEGIN
1070
    73
1070
     1
1070
    44
1040
1.0
1070
    74
1070
     0
1000
MTEXTEND
  0
POINT
  5
DA0A2
330
D9EC5
100
AcDbEntity
  8
Defpoints
 62
     0
 48
5.0
100
AcDbPoint
 10
104229.9643017302
 20
-168859.2233630647
 30
0.0
  0
POINT
  5
DA0A3
330
D9EC5
100
AcDbEntity
  8
Defpoints
 62
     0
 48
5.0
100
AcDbPoint
 10
104505.9643017302
 20
-168859.2233630647
 30
0.0
  0
POINT
  5
DA0A4
330
D9EC5
100
AcDbEntity
  8
Defpoints
 62
     0
 48
5.0
100
AcDbPoint
 10
104505.9643017302
 20
-169142.4205651092
 30
0.0
  0
ENDBLK
  5
D9EC7
330
D9EC5
100
AcDbEntity
  8
0
 48
5.0
100
AcDbBlockEnd
  0
BLOCK
  5
D9EE0
330
D9EDF
100
AcDbEntity
  8
0
 48
5.0
100
AcDbBlockBegin
  2
*D4
 70
     1
 10
0.0
 20
0.0
 30
0.0
  3
*D4
  1

  0
LINE
  5
DA0A5
330
D9EDF
100
AcDbEntity
  8
标注
 48
5.0
370
    -2
100
AcDbLine
 10
104374.9643017302
 20
-169067.2233630647
 30
0.0
 11
104579.3144348038
 21
-169067.2233630647
 31
0.0
  0
LINE
  5
DA0A6
330
D9EDF
100
AcDbEntity
  8
标注
 48
5.0
370
    -2
100
AcDbLine
 10
104374.9643017302
 20
-168651.2233630647
 30
0.0
 11
104579.3144348038
 21
-168651.2233630647
 31
0.0
  0
LINE
  5
DA0A7
330
D9EDF
100
AcDbEntity
  8
标注
 48
5.0
370
    -2
100
AcDbLine
 10
104572.3144348038
 20
-169051.2233630647
 30
0.0
 11
104572.3144348038
 21
-168880.3344741758
 31
0.0
  0
LINE
  5
DA0A8
330
D9EDF
100
AcDbEntity
  8
标注
 48
5.0
370
    -2
100
AcDbLine
 10
104572.3144348038
 20
-168667.2233630647
 30
0.0
 11
104572.3144348038
 21
-168838.1122519536
 31
0.0
  0
SOLID
  5
DA0A9
330
D9EDF
100
AcDbEntity
  8
标注
 48
5.0
100
AcDbTrace
 10
104569.6477681371
 20
-169051.2233630647
 30
0.0
 11
104574.9811014704
 21
-169051.2233630647
 31
0.0
 12
104572.3144348038
 22
-169067.2233630647
 32
0.0
 13
104572.3144348038
 23
-169067.2233630647
 33
0.0
  0
SOLID
  5
DA0AA
330
D9EDF
100
AcDbEntity
  8
标注
 48
5.0
100
AcDbTrace
 10
104569.6477681371
 20
-168667.2233630647
 30
0.0
 11
104574.9811014704
 21
-168667.2233630647
 31
0.0
 12
104572.3144348038
 22
-168651.2233630647
 32
0.0
 13
104572.3144348038
 23
-168651.2233630647
 33
0.0
  0
MTEXT
  5
DA0AB
330
D9EDF
100
AcDbEntity
  8
标注
 48
5.0
100
AcDbMText
 10
104572.3144348038
 20
-168859.2233630647
 30
0.0
 40
20.0
 41
0.0
 71
     5
 72
     1
  1
\A1;416
 11
0.0000000000000001
 21
1.0
 31
0.0
 73
     1
 44
1.0
1001
ACAD
1000
MTEXTBEGIN
1070
    73
1070
     1
1070
    44
1040
1.0
1070
    74
1070
     0
1000
MTEXTEND
  0
POINT
  5
DA0AC
330
D9EDF
100
AcDbEntity
  8
Defpoints
 62
     0
 48
5.0
100
AcDbPoint
 10
104367.9643017302
 20
-169067.2233630647
 30
0.0
  0
POINT
  5
DA0AD
330
D9EDF
100
AcDbEntity
  8
Defpoints
 62
     0
 48
5.0
100
AcDbPoint
 10
104367.9643017302
 20
-168651.2233630647
 30
0.0
  0
POINT
  5
DA0AE
330
D9EDF
100
AcDbEntity
  8
Defpoints
 62
     0
 48
5.0
100
AcDbPoint
 10
104572.3144348038
 20
-168651.2233630647
 30
0.0
  0
ENDBLK
  5
D9EE1
330
D9EDF
100
AcDbEntity
  8
0
 48
5.0
100
AcDbBlockEnd
  0
BLOCK
  5
D9EFA
330
D9EF9
100
AcDbEntity
  8
0
 48
5.0
100
AcDbBlockBegin
  2
*D5
 70
     1
 10
0.0
 20
0.0
 30
0.0
  3
*D5
  1

  0
LINE
  5
DA135
330
D9EF9
100
AcDbEntity
  8
标注
 48
5.0
370
    -2
100
AcDbLine
 10
104375.9848378183
 20
-169063.2233630647
 30
0.0
 11
104546.9561107529
 21
-169063.2233630647
 31
0.0
  0
LINE
  5
DA136
330
D9EF9
100
AcDbEntity
  8
标注
 48
5.0
370
    -2
100
AcDbLine
 10
104376.8311320216
 20
-168655.2252992086
 30
0.0
 11
104546.9561107529
 21
-168655.2252992086
 31
0.0
  0
LINE
  5
DA137
330
D9EF9
100
AcDbEntity
  8
标注
 48
5.0
370
    -2
100
AcDbLine
 10
104539.9561107529
 20
-169047.2233630647
 30
0.0
 11
104539.9561107529
 21
-168880.2243311367
 31
0.0
  0
LINE
  5
DA138
330
D9EF9
100
AcDbEntity
  8
标注
 48
5.0
370
    -2
100
AcDbLine
 10
104539.9561107529
 20
-168671.2252992087
 30
0.0
 11
104539.9561107529
 21
-168838.2243311367
 31
0.0
  0
SOLID
  5
DA139
330
D9EF9
100
AcDbEntity
  8
标注
 48
5.0
100
AcDbTrace
 10
104537.2894440862
 20
-169047.2233630647
 30
0.0
 11
104542.6227774196
 21
-169047.2233630647
 31
0.0
 12
104539.9561107529
 22
-169063.2233630647
 32
0.0
 13
104539.9561107529
 23
-169063.2233630647
 33
0.0
  0
SOLID
  5
DA13A
330
D9EF9
100
AcDbEntity
  8
标注
 48
5.0
100
AcDbTrace
 10
104537.2894440862
 20
-168671.2252992087
 30
0.0
 11
104542.6227774196
 21
-168671.2252992087
 31
0.0
 12
104539.9561107529
 22
-168655.2252992086
 32
0.0
 13
104539.9561107529
 23
-168655.2252992086
 33
0.0
  0
MTEXT
  5
DA13B
330
D9EF9
100
AcDbEntity
  8
标注
 48
5.0
100
AcDbMText
 10
104539.9561107529
 20
-168859.2243311367
 30
0.0
 40
20.0
 41
0.0
 71
     5
 72
     1
  1
\A1;408
 11
0.0000000000000001
 21
1.0
 31
0.0
 73
     1
 44
1.0
1001
ACAD
1000
MTEXTBEGIN
1070
    73
1070
     1
1070
    44
1040
1.0
1070
    74
1070
     0
1000
MTEXTEND
  0
POINT
  5
DA13C
330
D9EF9
100
AcDbEntity
  8
Defpoints
 62
     0
 48
5.0
100
AcDbPoint
 10
104368.9848378183
 20
-169063.2233630647
 30
0.0
  0
POINT
  5
DA13D
330
D9EF9
100
AcDbEntity
  8
Defpoints
 62
     0
 48
5.0
100
AcDbPoint
 10
104369.8311320216
 20
-168655.2252992086
 30
0.0
  0
POINT
  5
DA13E
330
D9EF9
100
AcDbEntity
  8
Defpoints
 62
     0
 48
5.0
100
AcDbPoint
 10
104539.9561107529
 20
-168655.2252992086
 30
0.0
  0
ENDBLK
  5
D9EFB
330
D9EF9
100
AcDbEntity
  8
0
 48
5.0
100
AcDbBlockEnd
  0
BLOCK
  5
D9F14
330
D9F13
100
AcDbEntity
  8
0
 48
5.0
100
AcDbBlockBegin
  2
*D6
 70
     1
 10
0.0
 20
0.0
 30
0.0
  3
*D6
  1

  0
LINE
  5
DA0B9
330
D9F13
100
AcDbEntity
  8
标注
 48
5.0
370
    -2
100
AcDbLine
 10
104539.9561107529
 20
-168671.2252992087
 30
0.0
 11
104539.9561107529
 21
-168687.2252992086
 31
0.0
  0
LINE
  5
DA0BA
330
D9F13
100
AcDbEntity
  8
标注
 48
5.0
370
    -2
100
AcDbLine
 10
104539.9561107529
 20
-168635.2233630647
 30
0.0
 11
104539.9561107529
 21
-168619.2233630647
 31
0.0
  0
LINE
  5
DA0BB
330
D9F13
100
AcDbEntity
  8
标注
 48
5.0
370
    -2
100
AcDbLine
 10
104539.9561107529
 20
-168655.2252992086
 30
0.0
 11
104539.9561107529
 21
-168651.2233630647
 31
0.0
  0
SOLID
  5
DA0BC
330
D9F13
100
AcDbEntity
  8
标注
 48
5.0
100
AcDbTrace
 10
104537.2894440862
 20
-168671.2252992087
 30
0.0
 11
104542.6227774196
 21
-168671.2252992087
 31
0.0
 12
104539.9561107529
 22
-168655.2252992086
 32
0.0
 13
104539.9561107529
 23
-168655.2252992086
 33
0.0
  0
SOLID
  5
DA0BD
330
D9F13
100
AcDbEntity
  8
标注
 48
5.0
100
AcDbTrace
 10
104537.2894440862
 20
-168635.2233630647
 30
0.0
 11
104542.6227774196
 21
-168635.2233630647
 31
0.0
 12
104539.9561107529
 22
-168651.2233630647
 32
0.0
 13
104539.9561107529
 23
-168651.2233630647
 33
0.0
  0
MTEXT
  5
DA0BE
330
D9F13
100
AcDbEntity
  8
标注
 48
5.0
100
AcDbMText
 10
104539.9561107529
 20
-168612.1122519536
 30
0.0
 40
20.0
 41
0.0
 71
     5
 72
     1
  1
\A1;4
 11
0.0000000000000001
 21
1.0
 31
0.0
 73
     1
 44
1.0
1001
ACAD
1000
MTEXTBEGIN
1070
    73
1070
     1
1070
    44
1040
1.0
1070
    74
1070
     0
1000
MTEXTEND
  0
POINT
  5
DA0BF
330
D9F13
100
AcDbEntity
  8
Defpoints
 62
     0
 48
5.0
100
AcDbPoint
 10
104539.9561107529
 20
-168655.2252992086
 30
0.0
  0
POINT
  5
DA0C0
330
D9F13
100
AcDbEntity
  8
Defpoints
 62
     0
 48
5.0
100
AcDbPoint
 10
104539.9561107529
 20
-168651.2233630647
 30
0.0
  0
POINT
  5
DA0C1
330
D9F13
100
AcDbEntity
  8
Defpoints
 62
     0
 48
5.0
100
AcDbPoint
 10
104539.9561107529
 20
-168651.2233630647
 30
0.0
  0
ENDBLK
  5
D9F15
330
D9F13
100
AcDbEntity
  8
0
 48
5.0
100
AcDbBlockEnd
  0
BLOCK
  5
D9F21
330
D9F20
100
AcDbEntity
  8
0
 48
5.0
100
AcDbBlockBegin
  2
*D7
 70
     1
 10
0.0
 20
0.0
 30
0.0
  3
*D7
  1

  0
LINE
  5
DA0C2
330
D9F20
100
AcDbEntity
  8
标注
 48
5.0
370
    -2
100
AcDbLine
 10
104485.9643017302
 20
-169106.7860319677
 30
0.0
 11
104469.9643017302
 21
-169106.7860319677
 31
0.0
  0
LINE
  5
DA0C3
330
D9F20
100
AcDbEntity
  8
标注
 48
5.0
370
    -2
100
AcDbLine
 10
104521.9643017302
 20
-169106.7860319677
 30
0.0
 11
104537.9643017302
 21
-169106.7860319677
 31
0.0
  0
LINE
  5
DA0C4
330
D9F20
100
AcDbEntity
  8
标注
 48
5.0
370
    -2
100
AcDbLine
 10
104501.9643017302
 20
-169106.7860319677
 30
0.0
 11
104505.9643017302
 21
-169106.7860319677
 31
0.0
  0
SOLID
  5
DA0C5
330
D9F20
100
AcDbEntity
  8
标注
 48
5.0
100
AcDbTrace
 10
104485.9643017302
 20
-169104.1193653011
 30
0.0
 11
104485.9643017302
 21
-169109.4526986344
 31
0.0
 12
104501.9643017302
 22
-169106.7860319677
 32
0.0
 13
104501.9643017302
 23
-169106.7860319677
 33
0.0
  0
SOLID
  5
DA0C6
330
D9F20
100
AcDbEntity
  8
标注
 48
5.0
100
AcDbTrace
 10
104521.9643017302
 20
-169104.1193653011
 30
0.0
 11
104521.9643017302
 21
-169109.4526986344
 31
0.0
 12
104505.9643017302
 22
-169106.7860319677
 32
0.0
 13
104505.9643017302
 23
-169106.7860319677
 33
0.0
  0
MTEXT
  5
DA0C7
330
D9F20
100
AcDbEntity
  8
标注
 48
5.0
100
AcDbMText
 10
104545.0754128413
 20
-169106.7860319677
 30
0.0
 40
20.0
 41
0.0
 71
     5
 72
     1
  1
\A1;4
 73
     1
 44
1.0
1001
ACAD
1000
MTEXTBEGIN
1070
    73
1070
     1
1070
    44
1040
1.0
1070
    74
1070
     0
1000
MTEXTEND
  0
POINT
  5
DA0C8
330
D9F20
100
AcDbEntity
  8
Defpoints
 62
     0
 48
5.0
100
AcDbPoint
 10
104501.9643017302
 20
-169106.7860319677
 30
0.0
  0
POINT
  5
DA0C9
330
D9F20
100
AcDbEntity
  8
Defpoints
 62
     0
 48
5.0
100
AcDbPoint
 10
104505.9643017302
 20
-169106.7860319677
 30
0.0
  0
POINT
  5
DA0CA
330
D9F20
100
AcDbEntity
  8
Defpoints
 62
     0
 48
5.0
100
AcDbPoint
 10
104505.9643017302
 20
-169106.7860319677
 30
0.0
  0
ENDBLK
  5
D9F22
330
D9F20
100
AcDbEntity
  8
0
 48
5.0
100
AcDbBlockEnd
  0
BLOCK
  5
D9F2E
330
D9F2D
100
AcDbEntity
  8
0
 48
5.0
100
AcDbBlockBegin
  2
*D8
 70
     1
 10
0.0
 20
0.0
 30
0.0
  3
*D8
  1

  0
LINE
  5
DA0CB
330
D9F2D
100
AcDbEntity
  8
标注
 48
5.0
370
    -2
100
AcDbLine
 10
104360.9643017302
 20
-168669.2233630547
 30
0.0
 11
104321.5882971228
 21
-168669.2233630547
 31
0.0
  0
LINE
  5
DA0CC
330
D9F2D
100
AcDbEntity
  8
标注
 48
5.0
370
    -2
100
AcDbLine
 10
104360.9643017302
 20
-168651.2233630647
 30
0.0
 11
104321.5882971228
 21
-168651.2233630647
 31
0.0
  0
LINE
  5
DA0CD
330
D9F2D
100
AcDbEntity
  8
标注
 48
5.0
370
    -2
100
AcDbLine
 10
104328.5882971228
 20
-168685.2233630547
 30
0.0
 11
104328.5882971228
 21
-168701.2233630547
 31
0.0
  0
LINE
  5
DA0CE
330
D9F2D
100
AcDbEntity
  8
标注
 48
5.0
370
    -2
100
AcDbLine
 10
104328.5882971228
 20
-168635.2233630647
 30
0.0
 11
104328.5882971228
 21
-168619.2233630647
 31
0.0
  0
LINE
  5
DA0CF
330
D9F2D
100
AcDbEntity
  8
标注
 48
5.0
370
    -2
100
AcDbLine
 10
104328.5882971228
 20
-168669.2233630547
 30
0.0
 11
104328.5882971228
 21
-168651.2233630647
 31
0.0
  0
SOLID
  5
DA0D0
330
D9F2D
100
AcDbEntity
  8
标注
 48
5.0
100
AcDbTrace
 10
104325.9216304561
 20
-168685.2233630547
 30
0.0
 11
104331.2549637895
 21
-168685.2233630547
 31
0.0
 12
104328.5882971228
 22
-168669.2233630547
 32
0.0
 13
104328.5882971228
 23
-168669.2233630547
 33
0.0
  0
SOLID
  5
DA0D1
330
D9F2D
100
AcDbEntity
  8
标注
 48
5.0
100
AcDbTrace
 10
104325.9216304561
 20
-168635.2233630647
 30
0.0
 11
104331.2549637895
 21
-168635.2233630647
 31
0.0
 12
104328.5882971228
 22
-168651.2233630647
 32
0.0
 13
104328.5882971228
 23
-168651.2233630647
 33
0.0
  0
MTEXT
  5
DA0D2
330
D9F2D
100
AcDbEntity
  8
标注
 48
5.0
100
AcDbMText
 10
104328.5882971228
 20
-168606.4455852869
 30
0.0
 40
20.0
 41
0.0
 71
     5
 72
     1
  1
\A1;18
 11
0.0000000000000001
 21
1.0
 31
0.0
 73
     1
 44
1.0
1001
ACAD
1000
MTEXTBEGIN
1070
    73
1070
     1
1070
    44
1040
1.0
1070
    74
1070
     0
1000
MTEXTEND
  0
POINT
  5
DA0D3
330
D9F2D
100
AcDbEntity
  8
Defpoints
 62
     0
 48
5.0
100
AcDbPoint
 10
104367.9643017302
 20
-168669.2233630547
 30
0.0
  0
POINT
  5
DA0D4
330
D9F2D
100
AcDbEntity
  8
Defpoints
 62
     0
 48
5.0
100
AcDbPoint
 10
104367.9643017302
 20
-168651.2233630647
 30
0.0
  0
POINT
  5
DA0D5
330
D9F2D
100
AcDbEntity
  8
Defpoints
 62
     0
 48
5.0
100
AcDbPoint
 10
104328.5882971228
 20
-168651.2233630647
 30
0.0
  0
ENDBLK
  5
D9F2F
330
D9F2D
100
AcDbEntity
  8
0
 48
5.0
100
AcDbBlockEnd
  0
BLOCK
  5
D9F4A
330
D9F49
100
AcDbEntity
  8
0
 48
5.0
100
AcDbBlockBegin
  2
*D9
 70
     1
 10
0.0
 20
0.0
 30
0.0
  3
*D9
  1

  0
LINE
  5
DA0D6
330
D9F49
100
AcDbEntity
  8
标注
 48
5.0
370
    -2
100
AcDbLine
 10
104374.9643017302
 20
-168669.2233630547
 30
0.0
 11
104405.9602231786
 21
-168669.2233630547
 31
0.0
  0
LINE
  5
DA0D7
330
D9F49
100
AcDbEntity
  8
标注
 48
5.0
370
    -2
100
AcDbLine
 10
104374.9643017302
 20
-168859.2233630647
 30
0.0
 11
104405.9602231786
 21
-168859.2233630647
 31
0.0
  0
LINE
  5
DA0D8
330
D9F49
100
AcDbEntity
  8
标注
 48
5.0
370
    -2
100
AcDbLine
 10
104398.9602231786
 20
-168685.2233630547
 30
0.0
 11
104398.9602231786
 21
-168744.2233630597
 31
0.0
  0
LINE
  5
DA0D9
330
D9F49
100
AcDbEntity
  8
标注
 48
5.0
370
    -2
100
AcDbLine
 10
104398.9602231786
 20
-168843.2233630647
 30
0.0
 11
104398.9602231786
 21
-168784.2233630597
 31
0.0
  0
SOLID
  5
DA0DA
330
D9F49
100
AcDbEntity
  8
标注
 48
5.0
100
AcDbTrace
 10
104396.2935565119
 20
-168685.2233630547
 30
0.0
 11
104401.6268898452
 21
-168685.2233630547
 31
0.0
 12
104398.9602231786
 22
-168669.2233630547
 32
0.0
 13
104398.9602231786
 23
-168669.2233630547
 33
0.0
  0
SOLID
  5
DA0DB
330
D9F49
100
AcDbEntity
  8
标注
 48
5.0
100
AcDbTrace
 10
104396.2935565119
 20
-168843.2233630647
 30
0.0
 11
104401.6268898452
 21
-168843.2233630647
 31
0.0
 12
104398.9602231786
 22
-168859.2233630647
 32
0.0
 13
104398.9602231786
 23
-168859.2233630647
 33
0.0
  0
MTEXT
  5
DA0DC
330
D9F49
100
AcDbEntity
  8
标注
 48
5.0
100
AcDbMText
 10
104398.9602231786
 20
-168764.2233630597
 30
0.0
 40
20.0
 41
0.0
 71
     5
 72
     1
  1
\A1;190
 11
0.0000000000000001
 21
1.0
 31
0.0
 73
     1
 44
1.0
1001
ACAD
1000
MTEXTBEGIN
1070
    73
1070
     1
1070
    44
1040
1.0
1070
    74
1070
     0
1000
MTEXTEND
  0
POINT
  5
DA0DD
330
D9F49
100
AcDbEntity
  8
Defpoints
 62
     0
 48
5.0
100
AcDbPoint
 10
104367.9643017302
 20
-168669.2233630547
 30
0.0
  0
POINT
  5
DA0DE
330
D9F49
100
AcDbEntity
  8
Defpoints
 62
     0
 48
5.0
100
AcDbPoint
 10
104367.9643017302
 20
-168859.2233630647
 30
0.0
  0
POINT
  5
DA0DF
330
D9F49
100
AcDbEntity
  8
Defpoints
 62
     0
 48
5.0
100
AcDbPoint
 10
104398.9602231786
 20
-168859.2233630647
 30
0.0
  0
ENDBLK
  5
D9F4B
330
D9F49
100
AcDbEntity
  8
0
 48
5.0
100
AcDbBlockEnd
  0
BLOCK
  5
D9F64
330
D9F63
100
AcDbEntity
  8
0
 48
5.0
100
AcDbBlockBegin
  2
*D10
 70
     1
 10
0.0
 20
0.0
 30
0.0
  3
*D10
  1

  0
LINE
  5
DA0E0
330
D9F63
100
AcDbEntity
  8
标注
 48
5.0
370
    -2
100
AcDbLine
 10
104374.9643017302
 20
-168669.2233630547
 30
0.0
 11
104448.5085004301
 21
-168669.2233630547
 31
0.0
  0
LINE
  5
DA0E1
330
D9F63
100
AcDbEntity
  8
标注
 48
5.0
370
    -2
100
AcDbLine
 10
104374.9643017302
 20
-169049.2233630747
 30
0.0
 11
104448.5085004301
 21
-169049.2233630747
 31
0.0
  0
LINE
  5
DA0E2
330
D9F63
100
AcDbEntity
  8
标注
 48
5.0
370
    -2
100
AcDbLine
 10
104441.5085004301
 20
-168685.2233630547
 30
0.0
 11
104441.5085004301
 21
-168741.0566963931
 31
0.0
  0
LINE
  5
DA0E3
330
D9F63
100
AcDbEntity
  8
标注
 48
5.0
370
    -2
100
AcDbLine
 10
104441.5085004301
 20
-169033.2233630747
 30
0.0
 11
104441.5085004301
 21
-168782.6122519486
 31
0.0
  0
SOLID
  5
DA0E4
330
D9F63
100
AcDbEntity
  8
标注
 48
5.0
100
AcDbTrace
 10
104438.8418337634
 20
-168685.2233630547
 30
0.0
 11
104444.1751670968
 21
-168685.2233630547
 31
0.0
 12
104441.5085004301
 22
-168669.2233630547
 32
0.0
 13
104441.5085004301
 23
-168669.2233630547
 33
0.0
  0
SOLID
  5
DA0E5
330
D9F63
100
AcDbEntity
  8
标注
 48
5.0
100
AcDbTrace
 10
104438.8418337634
 20
-169033.2233630747
 30
0.0
 11
104444.1751670968
 21
-169033.2233630747
 31
0.0
 12
104441.5085004301
 22
-169049.2233630747
 32
0.0
 13
104441.5085004301
 23
-169049.2233630747
 33
0.0
  0
MTEXT
  5
DA0E6
330
D9F63
100
AcDbEntity
  8
标注
 48
5.0
100
AcDbMText
 10
104441.5085004301
 20
-168761.8344741708
 30
0.0
 40
20.0
 41
0.0
 71
     5
 72
     1
  1
\A1;380
 11
0.0000000000000001
 21
1.0
 31
0.0
 73
     1
 44
1.0
1001
ACAD
1000
MTEXTBEGIN
1070
    73
1070
     1
1070
    44
1040
1.0
1070
    74
1070
     0
1000
MTEXTEND
  0
POINT
  5
DA0E7
330
D9F63
100
AcDbEntity
  8
Defpoints
 62
     0
 48
5.0
100
AcDbPoint
 10
104367.9643017302
 20
-168669.2233630547
 30
0.0
  0
POINT
  5
DA0E8
330
D9F63
100
AcDbEntity
  8
Defpoints
 62
     0
 48
5.0
100
AcDbPoint
 10
104367.9643017302
 20
-169049.2233630747
 30
0.0
  0
POINT
  5
DA0E9
330
D9F63
100
AcDbEntity
  8
Defpoints
 62
     0
 48
5.0
100
AcDbPoint
 10
104441.5085004301
 20
-169049.2233630747
 30
0.0
  0
ENDBLK
  5
D9F65
330
D9F63
100
AcDbEntity
  8
0
 48
5.0
100
AcDbBlockEnd
  0
BLOCK
  5
D9F88
330
D9F87
100
AcDbEntity
  8
0
 48
5.0
100
AcDbBlockBegin
  2
*D11
 70
     1
 10
0.0
 20
0.0
 30
0.0
  3
*D11
  1

  0
LINE
  5
DA0EA
330
D9F87
100
AcDbEntity
  8
标注
 48
5.0
370
    -2
100
AcDbLine
 10
104247.9643017202
 20
-168852.2233630647
 30
0.0
 11
104247.9643017202
 21
-168820.5997738096
 31
0.0
  0
LINE
  5
DA0EB
330
D9F87
100
AcDbEntity
  8
标注
 48
5.0
370
    -2
100
AcDbLine
 10
104229.9643017302
 20
-168852.2233630648
 30
0.0
 11
104229.9643017302
 21
-168820.5997738096
 31
0.0
  0
LINE
  5
DA0EC
330
D9F87
100
AcDbEntity
  8
标注
 48
5.0
370
    -2
100
AcDbLine
 10
104263.9643017202
 20
-168827.5997738095
 30
0.0
 11
104279.9643017202
 21
-168827.5997738095
 31
0.0
  0
LINE
  5
DA0ED
330
D9F87
100
AcDbEntity
  8
标注
 48
5.0
370
    -2
100
AcDbLine
 10
104213.9643017302
 20
-168827.5997738095
 30
0.0
 11
104197.9643017302
 21
-168827.5997738095
 31
0.0
  0
LINE
  5
DA0EE
330
D9F87
100
AcDbEntity
  8
标注
 48
5.0
370
    -2
100
AcDbLine
 10
104247.9643017202
 20
-168827.5997738095
 30
0.0
 11
104229.9643017302
 21
-168827.5997738095
 31
0.0
  0
SOLID
  5
DA0EF
330
D9F87
100
AcDbEntity
  8
标注
 48
5.0
100
AcDbTrace
 10
104263.9643017202
 20
-168824.9331071429
 30
0.0
 11
104263.9643017202
 21
-168830.2664404762
 31
0.0
 12
104247.9643017202
 22
-168827.5997738095
 32
0.0
 13
104247.9643017202
 23
-168827.5997738095
 33
0.0
  0
SOLID
  5
DA0F0
330
D9F87
100
AcDbEntity
  8
标注
 48
5.0
100
AcDbTrace
 10
104213.9643017302
 20
-168824.9331071429
 30
0.0
 11
104213.9643017302
 21
-168830.2664404762
 31
0.0
 12
104229.9643017302
 22
-168827.5997738095
 32
0.0
 13
104229.9643017302
 23
-168827.5997738095
 33
0.0
  0
MTEXT
  5
DA0F1
330
D9F87
100
AcDbEntity
  8
标注
 48
5.0
100
AcDbMText
 10
104185.1865239524
 20
-168827.5997738095
 30
0.0
 40
20.0
 41
0.0
 71
     5
 72
     1
  1
\A1;18
 73
     1
 44
1.0
1001
ACAD
1000
MTEXTBEGIN
1070
    73
1070
     1
1070
    44
1040
1.0
1070
    74
1070
     0
1000
MTEXTEND
  0
POINT
  5
DA0F2
330
D9F87
100
AcDbEntity
  8
Defpoints
 62
     0
 48
5.0
100
AcDbPoint
 10
104247.9643017202
 20
-168859.2233630647
 30
0.0
  0
POINT
  5
DA0F3
330
D9F87
100
AcDbEntity
  8
Defpoints
 62
     0
 48
5.0
100
AcDbPoint
 10
104229.9643017302
 20
-168859.2233630647
 30
0.0
  0
POINT
  5
DA0F4
330
D9F87
100
AcDbEntity
  8
Defpoints
 62
     0
 48
5.0
100
AcDbPoint
 10
104229.9643017302
 20
-168827.5997738095
 30
0.0
  0
ENDBLK
  5
D9F89
330
D9F87
100
AcDbEntity
  8
0
 48
5.0
100
AcDbBlockEnd
  0
BLOCK
  5
D9FA4
330
D9FA3
100
AcDbEntity
  8
0
 48
5.0
100
AcDbBlockBegin
  2
*D12
 70
     1
 10
0.0
 20
0.0
 30
0.0
  3
*D12
  1

  0
LINE
  5
DA0F5
330
D9FA3
100
AcDbEntity
  8
标注
 48
5.0
370
    -2
100
AcDbLine
 10
104247.9643017202
 20
-168866.2233630647
 30
0.0
 11
104247.9643017202
 21
-168898.7386973833
 31
0.0
  0
LINE
  5
DA0F6
330
D9FA3
100
AcDbEntity
  8
标注
 48
5.0
370
    -2
100
AcDbLine
 10
104367.9643017302
 20
-168866.2233630647
 30
0.0
 11
104367.9643017302
 21
-168898.7386973833
 31
0.0
  0
LINE
  5
DA0F7
330
D9FA3
100
AcDbEntity
  8
标注
 48
5.0
370
    -2
100
AcDbLine
 10
104263.9643017202
 20
-168891.7386973833
 30
0.0
 11
104287.9643017252
 21
-168891.7386973833
 31
0.0
  0
LINE
  5
DA0F8
330
D9FA3
100
AcDbEntity
  8
标注
 48
5.0
370
    -2
100
AcDbLine
 10
104351.9643017302
 20
-168891.7386973833
 30
0.0
 11
104327.9643017252
 21
-168891.7386973833
 31
0.0
  0
SOLID
  5
DA0F9
330
D9FA3
100
AcDbEntity
  8
标注
 48
5.0
100
AcDbTrace
 10
104263.9643017202
 20
-168889.0720307167
 30
0.0
 11
104263.9643017202
 21
-168894.40536405
 31
0.0
 12
104247.9643017202
 22
-168891.7386973833
 32
0.0
 13
104247.9643017202
 23
-168891.7386973833
 33
0.0
  0
SOLID
  5
DA0FA
330
D9FA3
100
AcDbEntity
  8
标注
 48
5.0
100
AcDbTrace
 10
104351.9643017302
 20
-168889.0720307167
 30
0.0
 11
104351.9643017302
 21
-168894.40536405
 31
0.0
 12
104367.9643017302
 22
-168891.7386973833
 32
0.0
 13
104367.9643017302
 23
-168891.7386973833
 33
0.0
  0
MTEXT
  5
DA0FB
330
D9FA3
100
AcDbEntity
  8
标注
 48
5.0
100
AcDbMText
 10
104307.9643017252
 20
-168891.7386973833
 30
0.0
 40
20.0
 41
0.0
 71
     5
 72
     1
  1
\A1;120
 73
     1
 44
1.0
1001
ACAD
1000
MTEXTBEGIN
1070
    73
1070
     1
1070
    44
1040
1.0
1070
    74
1070
     0
1000
MTEXTEND
  0
POINT
  5
DA0FC
330
D9FA3
100
AcDbEntity
  8
Defpoints
 62
     0
 48
5.0
100
AcDbPoint
 10
104247.9643017202
 20
-168859.2233630647
 30
0.0
  0
POINT
  5
DA0FD
330
D9FA3
100
AcDbEntity
  8
Defpoints
 62
     0
 48
5.0
100
AcDbPoint
 10
104367.9643017302
 20
-168859.2233630647
 30
0.0
  0
POINT
  5
DA0FE
330
D9FA3
100
AcDbEntity
  8
Defpoints
 62
     0
 48
5.0
100
AcDbPoint
 10
104367.9643017302
 20
-168891.7386973833
 30
0.0
  0
ENDBLK
  5
D9FA5
330
D9FA3
100
AcDbEntity
  8
0
 48
5.0
100
AcDbBlockEnd
  0
BLOCK
  5
D9FB2
330
D9FB1
100
AcDbEntity
  8
0
 48
5.0
100
AcDbBlockBegin
  2
*D13
 70
     1
 10
0.0
 20
0.0
 30
0.0
  3
*D13
  1

  0
LINE
  5
DA0FF
330
D9FB1
100
AcDbEntity
  8
标注
 48
5.0
370
    -2
100
AcDbLine
 10
104247.9643017202
 20
-168866.2233630647
 30
0.0
 11
104247.9643017202
 21
-168942.6839689662
 31
0.0
  0
LINE
  5
DA100
330
D9FB1
100
AcDbEntity
  8
标注
 48
5.0
370
    -2
100
AcDbLine
 10
104487.9643017402
 20
-168866.2233630647
 30
0.0
 11
104487.9643017402
 21
-168942.6839689662
 31
0.0
  0
LINE
  5
DA101
330
D9FB1
100
AcDbEntity
  8
标注
 48
5.0
370
    -2
100
AcDbLine
 10
104263.9643017202
 20
-168935.6839689662
 30
0.0
 11
104284.6309683918
 21
-168935.6839689662
 31
0.0
  0
LINE
  5
DA102
330
D9FB1
100
AcDbEntity
  8
标注
 48
5.0
370
    -2
100
AcDbLine
 10
104471.9643017402
 20
-168935.6839689662
 30
0.0
 11
104326.4087461696
 21
-168935.6839689662
 31
0.0
  0
SOLID
  5
DA103
330
D9FB1
100
AcDbEntity
  8
标注
 48
5.0
100
AcDbTrace
 10
104263.9643017202
 20
-168933.0173022996
 30
0.0
 11
104263.9643017202
 21
-168938.3506356328
 31
0.0
 12
104247.9643017202
 22
-168935.6839689662
 32
0.0
 13
104247.9643017202
 23
-168935.6839689662
 33
0.0
  0
SOLID
  5
DA104
330
D9FB1
100
AcDbEntity
  8
标注
 48
5.0
100
AcDbTrace
 10
104471.9643017402
 20
-168933.0173022996
 30
0.0
 11
104471.9643017402
 21
-168938.3506356328
 31
0.0
 12
104487.9643017402
 22
-168935.6839689662
 32
0.0
 13
104487.9643017402
 23
-168935.6839689662
 33
0.0
  0
MTEXT
  5
DA105
330
D9FB1
100
AcDbEntity
  8
标注
 48
5.0
100
AcDbMText
 10
104305.5198572807
 20
-168935.6839689662
 30
0.0
 40
20.0
 41
0.0
 71
     5
 72
     1
  1
\A1;240
 73
     1
 44
1.0
1001
ACAD
1000
MTEXTBEGIN
1070
    73
1070
     1
1070
    44
1040
1.0
1070
    74
1070
     0
1000
MTEXTEND
  0
POINT
  5
DA106
330
D9FB1
100
AcDbEntity
  8
Defpoints
 62
     0
 48
5.0
100
AcDbPoint
 10
104247.9643017202
 20
-168859.2233630647
 30
0.0
  0
POINT
  5
DA107
330
D9FB1
100
AcDbEntity
  8
Defpoints
 62
     0
 48
5.0
100
AcDbPoint
 10
104487.9643017402
 20
-168859.2233630647
 30
0.0
  0
POINT
  5
DA108
330
D9FB1
100
AcDbEntity
  8
Defpoints
 62
     0
 48
5.0
100
AcDbPoint
 10
104487.9643017402
 20
-168935.6839689662
 30
0.0
  0
ENDBLK
  5
D9FB3
330
D9FB1
100
AcDbEntity
  8
0
 48
5.0
100
AcDbBlockEnd
  0
BLOCK
  5
D9FD8
330
D9FD7
100
AcDbEntity
  8
0
 48
5.0
100
AcDbBlockBegin
  2
*D14
 70
     1
 10
0.0
 20
0.0
 30
0.0
  3
*D14
  1

  0
LINE
  5
DA109
330
D9FD7
100
AcDbEntity
  8
标注
 48
5.0
370
    -2
100
AcDbLine
 10
104341.9056253035
 20
-168835.8578889011
 30
0.0
 11
104353.8181630986
 21
-168846.5392485187
 31
0.0
  0
LINE
  5
DA10A
330
D9FD7
100
AcDbEntity
  8
标注
 48
5.0
370
    -2
100
AcDbLine
 10
104382.1104403618
 20
-168871.9074776107
 30
0.0
 11
104394.0229781568
 21
-168882.5888372283
 31
0.0
  0
MTEXT
  5
DA10B
102
{ACAD_XDICTIONARY
360
DA339
102
}
330
D9FD7
100
AcDbEntity
  8
标注
 48
5.0
100
AcDbMText
 10
104316.2871258727
 20
-168812.8870987979
 30
0.0
 40
20.0
 41
0.0
 71
     5
 72
     1
  1
\A1;{\fGulim|b0|i0|c129|p34;5-\U+22056}
 11
0.744533612189543
 21
-0.6675849761041598
 31
0.0
 73
     1
 44
1.0
1001
ACAD
1000
MTEXTBEGIN
1070
    73
1070
     1
1070
    44
1040
1.0
1070
    74
1070
     0
1000
MTEXTEND
  0
LINE
  5
DA10C
330
D9FD7
100
AcDbEntity
  8
标注
 48
5.0
370
    -2
100
AcDbLine
 10
104370.1979025668
 20
-168861.226117993
 30
0.0
 11
104365.7307008936
 21
-168857.2206081364
 31
0.0
  0
SOLID
  5
DA10D
330
D9FD7
100
AcDbEntity
  8
标注
 48
5.0
100
AcDbTrace
 10
104383.8906669647
 20
-168869.9220546449
 30
0.0
 11
104380.3302137588
 21
-168873.8929005765
 31
0.0
 12
104370.1979025668
 22
-168861.226117993
 32
0.0
 13
104370.1979025668
 23
-168861.226117993
 33
0.0
  0
SOLID
  5
DA10E
330
D9FD7
100
AcDbEntity
  8
标注
 48
5.0
100
AcDbTrace
 10
104355.5983897015
 20
-168844.5538255529
 30
0.0
 11
104352.0379364957
 21
-168848.5246714846
 31
0.0
 12
104365.7307008936
 22
-168857.2206081364
 32
0.0
 13
104365.7307008936
 23
-168857.2206081364
 33
0.0
  0
POINT
  5
DA10F
330
D9FD7
100
AcDbEntity
  8
Defpoints
 62
     0
 48
5.0
100
AcDbPoint
 10
104365.7307008936
 20
-168857.2206081364
 30
0.0
  0
POINT
  5
DA110
330
D9FD7
100
AcDbEntity
  8
Defpoints
 62
     0
 48
5.0
100
AcDbPoint
 10
104370.1979025668
 20
-168861.226117993
 30
0.0
  0
ENDBLK
  5
D9FD9
330
D9FD7
100
AcDbEntity
  8
0
 48
5.0
100
AcDbBlockEnd
  0
BLOCK
  5
DA006
330
DA005
100
AcDbEntity
  8
0
 48
5.0
100
AcDbBlockBegin
  2
*D15
 70
     1
 10
0.0
 20
0.0
 30
0.0
  3
*D15
  1

  0
LINE
  5
DA13F
330
DA005
100
AcDbEntity
  8
标注
 48
5.0
370
    -2
100
AcDbLine
 10
104282.96557377
 20
-169009.7770451155
 30
0.0
 11
104270.7791028567
 21
-169020.1447800021
 31
0.0
  0
MTEXT
  5
DA140
330
DA005
100
AcDbEntity
  8
标注
 48
5.0
100
AcDbMText
 10
104299.0872592491
 20
-168996.0613958383
 30
0.0
 40
20.0
 41
0.0
 71
     5
 72
     1
  1
\A1;R90
 11
0.7616544320806609
 21
0.6479834304146102
 31
0.0
 73
     1
 44
1.0
1001
ACAD
1000
MTEXTBEGIN
1070
    73
1070
     1
1070
    44
1040
1.0
1070
    74
1070
     0
1000
MTEXTEND
  0
SOLID
  5
DA141
330
DA005
100
AcDbEntity
  8
标注
 48
5.0
100
AcDbTrace
 10
104269.0511470423
 20
-169018.1137015166
 30
0.0
 11
104272.5070586711
 21
-169022.1758584877
 31
0.0
 12
104258.5926319434
 22
-169030.5125148888
 32
0.0
 13
104258.5926319434
 23
-169030.5125148888
 33
0.0
  0
POINT
  5
DA142
330
DA005
100
AcDbEntity
  8
Defpoints
 62
     0
 48
5.0
100
AcDbPoint
 10
104258.5926319434
 20
-169030.5125148888
 30
0.0
  0
POINT
  5
DA143
330
DA005
100
AcDbEntity
  8
Defpoints
 62
     0
 48
5.0
100
AcDbPoint
 10
104327.1415308308
 20
-168972.1940061514
 30
0.0
  0
ENDBLK
  5
DA007
330
DA005
100
AcDbEntity
  8
0
 48
5.0
100
AcDbBlockEnd
  0
BLOCK
  5
DA016
330
DA015
100
AcDbEntity
  8
0
 48
5.0
100
AcDbBlockBegin
  2
*D16
 70
     1
 10
0.0
 20
0.0
 30
0.0
  3
*D16
  1

  0
LINE
  5
DA144
330
DA015
100
AcDbEntity
  8
标注
 48
5.0
370
    -2
100
AcDbLine
 10
104355.5161479799
 20
-169031.1340977997
 30
0.0
 11
104355.2866889246
 21
-169047.132452357
 31
0.0
  0
MTEXT
  5
DA145
330
DA015
100
AcDbEntity
  8
标注
 48
5.0
100
AcDbMText
 10
104355.9216849909
 20
-169002.8592281133
 30
0.0
 40
20.0
 41
0.0
 71
     5
 72
     1
  1
\A1;R900
 11
0.0143411909565556
 21
0.9998971598329237
 31
0.0
 73
     1
 44
1.0
1001
ACAD
1000
MTEXTBEGIN
1070
    73
1070
     1
1070
    44
1040
1.0
1070
    74
1070
     0
1000
MTEXTEND
  0
SOLID
  5
DA146
330
DA015
100
AcDbEntity
  8
标注
 48
5.0
100
AcDbTrace
 10
104352.6202964984
 20
-169047.0942091811
 30
0.0
 11
104357.9530813508
 21
-169047.1706955329
 31
0.0
 12
104355.0572298693
 22
-169063.1308069143
 32
0.0
 13
104355.0572298693
 23
-169063.1308069143
 33
0.0
  0
POINT
  5
DA147
330
DA015
100
AcDbEntity
  8
Defpoints
 62
     0
 48
5.0
100
AcDbPoint
 10
104355.0572298693
 20
-169063.1308069143
 30
0.0
  0
POINT
  5
DA148
330
DA015
100
AcDbEntity
  8
Defpoints
 62
     0
 48
5.0
100
AcDbPoint
 10
104367.9643017302
 20
-168163.2233630647
 30
0.0
  0
ENDBLK
  5
DA017
330
DA015
100
AcDbEntity
  8
0
 48
5.0
100
AcDbBlockEnd
  0
BLOCK
  5
DA026
330
DA025
100
AcDbEntity
  8
0
 48
5.0
100
AcDbBlockBegin
  2
*D17
 70
     1
 10
0.0
 20
0.0
 30
0.0
  3
*D17
  1

  0
LINE
  5
DA149
330
DA025
100
AcDbEntity
  8
标注
 48
5.0
370
    -2
100
AcDbLine
 10
104461.756435841
 20
-168995.8212480761
 30
0.0
 11
104476.3686739683
 21
-169002.3391079175
 31
0.0
  0
MTEXT
  5
DA14A
330
DA025
100
AcDbEntity
  8
标注
 48
5.0
100
AcDbMText
 10
104442.4256624851
 20
-168987.1986626611
 30
0.0
 40
20.0
 41
0.0
 71
     5
 72
     1
  1
\A1;R90
 11
0.9132648829561366
 21
-0.4073662400826976
 31
0.0
 73
     1
 44
1.0
1001
ACAD
1000
MTEXTBEGIN
1070
    73
1070
     1
1070
    44
1040
1.0
1070
    74
1070
     0
1000
MTEXTEND
  0
SOLID
  5
DA14B
330
DA025
100
AcDbEntity
  8
标注
 48
5.0
100
AcDbTrace
 10
104477.4549839418
 20
-168999.9037348962
 30
0.0
 11
104475.2823639947
 21
-169004.7744809387
 31
0.0
 12
104490.9809120956
 22
-169008.8569677588
 32
0.0
 13
104490.9809120956
 23
-169008.8569677588
 33
0.0
  0
POINT
  5
DA14C
330
DA025
100
AcDbEntity
  8
Defpoints
 62
     0
 48
5.0
100
AcDbPoint
 10
104490.9809120956
 20
-169008.8569677588
 30
0.0
  0
POINT
  5
DA14D
330
DA025
100
AcDbEntity
  8
Defpoints
 62
     0
 48
5.0
100
AcDbPoint
 10
104408.7870726297
 20
-168972.1940061514
 30
0.0
  0
ENDBLK
  5
DA027
330
DA025
100
AcDbEntity
  8
0
 48
5.0
100
AcDbBlockEnd
  0
BLOCK
  5
DA036
330
DA035
100
AcDbEntity
  8
0
 48
5.0
100
AcDbBlockBegin
  2
*D18
 70
     1
 10
0.0
 20
0.0
 30
0.0
  3
*D18
  1

  0
LINE
  5
DA14E
330
DA035
100
AcDbEntity
  8
标注
 48
5.0
370
    -2
100
AcDbLine
 10
104469.6625046253
 20
-168894.5524126451
 30
0.0
 11
104485.6601696381
 21
-168894.82575152
 31
0.0
  0
MTEXT
  5
DA14F
330
DA035
100
AcDbEntity
  8
标注
 48
5.0
100
AcDbMText
 10
104434.2787802743
 20
-168893.947840203
 30
0.0
 40
20.0
 41
0.0
 71
     5
 72
     1
  1
\A1;R2100
 11
0.9998540632955174
 21
-0.0170836796810143
 31
0.0
 73
     1
 44
1.0
1001
ACAD
1000
MTEXTBEGIN
1070
    73
1070
     1
1070
    44
1040
1.0
1070
    74
1070
     0
1000
MTEXTEND
  0
SOLID
  5
DA150
330
DA035
100
AcDbEntity
  8
标注
 48
5.0
100
AcDbTrace
 10
104485.7057261173
 20
-168892.1594740178
 30
0.0
 11
104485.6146131589
 21
-168897.4920290221
 31
0.0
 12
104501.6578346508
 22
-168895.0990903948
 32
0.0
 13
104501.6578346508
 23
-168895.0990903948
 33
0.0
  0
POINT
  5
DA151
330
DA035
100
AcDbEntity
  8
Defpoints
 62
     0
 48
5.0
100
AcDbPoint
 10
104501.6578346508
 20
-168895.0990903948
 30
0.0
  0
POINT
  5
DA152
330
DA035
100
AcDbEntity
  8
Defpoints
 62
     0
 48
5.0
100
AcDbPoint
 10
102401.9643017302
 20
-168859.2233630647
 30
0.0
  0
ENDBLK
  5
DA037
330
DA035
100
AcDbEntity
  8
0
 48
5.0
100
AcDbBlockEnd
  0
BLOCK
  5
DA046
330
DA045
100
AcDbEntity
  8
0
 48
5.0
100
AcDbBlockBegin
  2
*D19
 70
     1
 10
0.0
 20
0.0
 30
0.0
  3
*D19
  1

  0
LINE
  5
DA153
330
DA045
100
AcDbEntity
  8
标注
 48
5.0
370
    -2
100
AcDbLine
 10
104287.7274593564
 20
-168703.702385434
 30
0.0
 11
104276.8546120531
 21
-168691.9643621114
 31
0.0
  0
MTEXT
  5
DA154
330
DA045
100
AcDbEntity
  8
标注
 48
5.0
100
AcDbMText
 10
104302.1113302681
 20
-168719.230812121
 30
0.0
 40
20.0
 41
0.0
 71
     5
 72
     1
  1
\A1;R90
 11
0.6795529564544202
 21
-0.7336264576567948
 31
0.0
 73
     1
 44
1.0
1001
ACAD
1000
MTEXTBEGIN
1070
    73
1070
     1
1070
    44
1040
1.0
1070
    74
1070
     0
1000
MTEXTEND
  0
SOLID
  5
DA155
330
DA045
100
AcDbEntity
  8
标注
 48
5.0
100
AcDbTrace
 10
104278.8109492735
 20
-168690.1522208942
 30
0.0
 11
104274.8982748327
 21
-168693.7765033286
 31
0.0
 12
104265.9817647498
 22
-168680.2263387888
 32
0.0
 13
104265.9817647498
 23
-168680.2263387888
 33
0.0
  0
POINT
  5
DA156
330
DA045
100
AcDbEntity
  8
Defpoints
 62
     0
 48
5.0
100
AcDbPoint
 10
104265.9817647498
 20
-168680.2263387888
 30
0.0
  0
POINT
  5
DA157
330
DA045
100
AcDbEntity
  8
Defpoints
 62
     0
 48
5.0
100
AcDbPoint
 10
104327.1415308307
 20
-168746.252719978
 30
0.0
  0
ENDBLK
  5
DA047
330
DA045
100
AcDbEntity
  8
0
 48
5.0
100
AcDbBlockEnd
  0
BLOCK
  5
DA056
330
DA055
100
AcDbEntity
  8
0
 48
5.0
100
AcDbBlockBegin
  2
*D20
 70
     1
 10
0.0
 20
0.0
 30
0.0
  3
*D20
  1

  0
LINE
  5
DA158
330
DA055
100
AcDbEntity
  8
标注
 48
5.0
370
    -2
100
AcDbLine
 10
104267.8611222105
 20
-168770.6702627297
 30
0.0
 11
104251.8757978041
 21
-168769.9851323596
 31
0.0
  0
MTEXT
  5
DA159
330
DA055
100
AcDbEntity
  8
标注
 48
5.0
100
AcDbMText
 10
104303.2175515398
 20
-168772.1856378885
 30
0.0
 40
20.0
 41
0.0
 71
     5
 72
     1
  1
\A1;R2100
 11
0.9990827753963312
 21
-0.0428206481310595
 31
0.0
 73
     1
 44
1.0
1001
ACAD
1000
MTEXTBEGIN
1070
    73
1070
     1
1070
    44
1040
1.0
1070
    74
1070
     0
1000
MTEXTEND
  0
SOLID
  5
DA15A
330
DA055
100
AcDbEntity
  8
标注
 48
5.0
100
AcDbTrace
 10
104251.9899861992
 20
-168767.3209116252
 30
0.0
 11
104251.7616094091
 21
-168772.649353094
 31
0.0
 12
104235.8904733978
 22
-168769.3000019895
 32
0.0
 13
104235.8904733978
 23
-168769.3000019895
 33
0.0
  0
POINT
  5
DA15B
330
DA055
100
AcDbEntity
  8
Defpoints
 62
     0
 48
5.0
100
AcDbPoint
 10
104235.8904733978
 20
-168769.3000019895
 30
0.0
  0
POINT
  5
DA15C
330
DA055
100
AcDbEntity
  8
Defpoints
 62
     0
 48
5.0
100
AcDbPoint
 10
106333.9643017302
 20
-168859.2233630647
 30
0.0
  0
ENDBLK
  5
DA057
330
DA055
100
AcDbEntity
  8
0
 48
5.0
100
AcDbBlockEnd
  0
BLOCK
  5
DA066
330
DA065
100
AcDbEntity
  8
0
 48
5.0
100
AcDbBlockBegin
  2
*D21
 70
     1
 10
0.0
 20
0.0
 30
0.0
  3
*D21
  1

  0
LINE
  5
DA15D
330
DA065
100
AcDbEntity
  8
标注
 48
5.0
370
    -2
100
AcDbLine
 10
104355.9818492178
 20
-168687.3060738992
 30
0.0
 11
104355.7609745171
 21
-168671.3075985228
 31
0.0
  0
MTEXT
  5
DA15E
330
DA065
100
AcDbEntity
  8
标注
 48
5.0
100
AcDbMText
 10
104356.3722145743
 20
-168715.5811571163
 30
0.0
 40
20.0
 41
0.0
 71
     5
 72
     1
  1
\A1;R900
 11
0.0138046687930275
 21
-0.9999047110197626
 31
0.0
 73
     1
 44
1.0
1001
ACAD
1000
MTEXTBEGIN
1070
    73
1070
     1
1070
    44
1040
1.0
1070
    74
1070
     0
1000
MTEXTEND
  0
SOLID
  5
DA15F
330
DA065
100
AcDbEntity
  8
标注
 48
5.0
100
AcDbTrace
 10
104358.4273870798
 20
-168671.2707860727
 30
0.0
 11
104353.0945619544
 21
-168671.3444109729
 31
0.0
 12
104355.5400998164
 22
-168655.3091231465
 32
0.0
 13
104355.5400998164
 23
-168655.3091231465
 33
0.0
  0
POINT
  5
DA160
330
DA065
100
AcDbEntity
  8
Defpoints
 62
     0
 48
5.0
100
AcDbPoint
 10
104355.5400998164
 20
-168655.3091231465
 30
0.0
  0
POINT
  5
DA161
330
DA065
100
AcDbEntity
  8
Defpoints
 62
     0
 48
5.0
100
AcDbPoint
 10
104367.9643017302
 20
-169555.2233630647
 30
0.0
  0
ENDBLK
  5
DA067
330
DA065
100
AcDbEntity
  8
0
 48
5.0
100
AcDbBlockEnd
  0
BLOCK
  5
DA081
330
DA080
100
AcDbEntity
  8
0
 48
5.0
100
AcDbBlockBegin
  2
*D22
 70
     1
 10
0.0
 20
0.0
 30
0.0
  3
*D22
  1

  0
LINE
  5
DA162
330
DA080
100
AcDbEntity
  8
标注
 48
5.0
370
    -2
100
AcDbLine
 10
104477.0062534104
 20
-168643.6116288897
 30
0.0
 11
104467.4612563351
 21
-168657.9728232493
 31
0.0
  0
MTEXT
  5
DA163
330
DA080
100
AcDbEntity
  8
标注
 48
5.0
100
AcDbMText
 10
104488.7226391504
 20
-168625.9834105176
 30
0.0
 40
20.0
 41
0.0
 71
     5
 72
     1
  1
\A1;R90
 11
0.5535300349585051
 21
0.8328292144244439
 31
0.0
 73
     1
 44
1.0
1001
ACAD
1000
MTEXTBEGIN
1070
    73
1070
     1
1070
    44
1040
1.0
1070
    74
1070
     0
1000
MTEXTEND
  0
LINE
  5
DA164
330
DA080
100
AcDbEntity
  8
标注
 48
5.0
370
    -2
100
AcDbLine
 10
104408.7870726297
 20
-168746.252719978
 30
0.0
 11
104458.6047757758
 21
-168671.29809068
 31
0.0
  0
SOLID
  5
DA165
330
DA080
100
AcDbEntity
  8
标注
 48
5.0
100
AcDbTrace
 10
104465.24037843
 20
-168656.496743156
 30
0.0
 11
104469.6821342403
 21
-168659.4489033424
 31
0.0
 12
104458.6047757758
 22
-168671.29809068
 32
0.0
 13
104458.6047757758
 23
-168671.29809068
 33
0.0
  0
POINT
  5
DA166
330
DA080
100
AcDbEntity
  8
Defpoints
 62
     0
 48
5.0
100
AcDbPoint
 10
104458.6047757758
 20
-168671.29809068
 30
0.0
  0
POINT
  5
DA167
330
DA080
100
AcDbEntity
  8
Defpoints
 62
     0
 48
5.0
100
AcDbPoint
 10
104408.7870726297
 20
-168746.252719978
 30
0.0
  0
ENDBLK
  5
DA082
330
DA080
100
AcDbEntity
  8
0
 48
5.0
100
AcDbBlockEnd
  0
ENDSEC
  0
SECTION
  2
ENTITIES
  0
LWPOLYLINE
  5
D9E92
102
{ACAD_REACTORS
330
D9EC3
330
DA013
330
DA023
330
DA033
330
DA043
330
DA053
330
DA063
330
DA073
330
DA090
102
}
330
1F
100
AcDbEntity
  8
虚线
 48
5.0
100
AcDbPolyline
 90
        8
 70
     1
 43
0.0
 10
104498.6448086401
 20
-168741.1943329742
 42
0.3833093876019976
 10
104413.3229360629
 20
-168656.3670929684
 42
0.0252152632129358
 10
104322.6056673975
 20
-168656.3670929684
 42
0.3833093876019977
 10
104237.2837948203
 20
-168741.1943329742
 42
0.0281243782785494
 10
104237.2837948203
 20
-168977.2523931553
 42
0.3833093876019515
 10
104322.6056673975
 20
-169062.079633161
 42
0.0252152632129399
 10
104413.3229360629
 20
-169062.079633161
 42
0.3833093876019975
 10
104498.6448086401
 20
-168977.2523931553
 42
0.0281243782785492
  0
LWPOLYLINE
  5
D9E9B
102
{ACAD_REACTORS
330
D9EDD
330
D9EF7
102
}
330
1F
100
AcDbEntity
  8
0
100
AcDbPolyline
 90
        8
 70
     1
 43
0.0
 10
104502.6384857961
 20
-168740.969515774
 42
0.3833093876020339
 10
104413.5245299933
 20
-168652.3721762124
 42
0.0252152632129356
 10
104322.4040734671
 20
-168652.3721762124
 42
0.3833093876020339
 10
104233.2901176643
 20
-168740.969515774
 42
0.0281243782785525
 10
104233.2901176643
 20
-168977.4772103555
 42
0.3833093876019474
 10
104322.4040734671
 20
-169066.074549917
 42
0.0252152632129438
 10
104413.5245299933
 20
-169066.074549917
 42
0.3833093876020337
 10
104502.6384857961
 20
-168977.4772103554
 42
0.0281243782785523
  0
LINE
  5
D9EA0
330
1F
100
AcDbEntity
  8
虚线
 48
5.0
100
AcDbLine
 10
104250.9643017202
 20
-168859.2233630647
 30
0.0
 11
104364.9643017302
 21
-168859.2233630647
 31
0.0
  0
LINE
  5
D9EA1
330
1F
100
AcDbEntity
  8
虚线
 48
5.0
100
AcDbLine
 10
104367.9643017302
 20
-169046.2233630747
 30
0.0
 11
104367.9643017302
 21
-168862.2233630647
 31
0.0
  0
CIRCLE
  5
D9EA2
102
{ACAD_REACTORS
330
D9F61
330
D9FEB
102
}
330
1F
100
AcDbEntity
  8
细实线
 48
5.0
100
AcDbCircle
 10
104367.9643017302
 20
-168859.2233630647
 30
0.0
 40
3.0
  0
CIRCLE
  5
D9EA3
102
{ACAD_REACTORS
330
D9F47
102
}
330
1F
100
AcDbEntity
  8
细实线
 48
5.0
100
AcDbCircle
 10
104367.9643017302
 20
-168669.2233630547
 30
0.0
 40
3.0
  0
CIRCLE
  5
D9EA4
102
{ACAD_REACTORS
330
D9FA1
102
}
330
1F
100
AcDbEntity
  8
细实线
 48
5.0
100
AcDbCircle
 10
104247.9643017202
 20
-168859.2233630647
 30
0.0
 40
3.0
  0
CIRCLE
  5
D9EA5
102
{ACAD_REACTORS
330
D9F7B
102
}
330
1F
100
AcDbEntity
  8
细实线
 48
5.0
100
AcDbCircle
 10
104367.9643017302
 20
-169049.2233630747
 30
0.0
 40
3.0
  0
CIRCLE
  5
D9EA6
102
{ACAD_REACTORS
330
D9FC9
102
}
330
1F
100
AcDbEntity
  8
细实线
 48
5.0
100
AcDbCircle
 10
104487.9643017402
 20
-168859.2233630647
 30
0.0
 40
3.0
  0
LINE
  5
D9EA7
330
1F
100
AcDbEntity
  8
虚线
 48
5.0
100
AcDbLine
 10
104367.9643017302
 20
-168856.2233630647
 30
0.0
 11
104367.9643017302
 21
-168672.2233630547
 31
0.0
  0
LINE
  5
D9EA8
330
1F
100
AcDbEntity
  8
虚线
 48
5.0
100
AcDbLine
 10
104370.9643017302
 20
-168859.2233630647
 30
0.0
 11
104484.9643017402
 21
-168859.2233630647
 31
0.0
  0
DIMENSION
  5
D9EAA
102
{ACAD_XDICTIONARY
360
D9EB8
102
}
102
{ACAD_REACTORS
330
D9EC3
102
}
330
1F
100
AcDbEntity
  8
标注
 48
5.0
100
AcDbDimension
  2
*D2
 10
104501.9643017302
 20
-169106.7860319677
 30
0.0
 11
104367.9643017302
 21
-169106.7860319677
 31
0.0
 70
    32
 71
     5
 42
268.0
  3
副本Standard
100
AcDbAlignedDimension
 13
104233.9643017302
 23
-168859.2233630647
 33
0.0
 14
104501.9643017302
 24
-168859.2233630647
 34
0.0
100
AcDbRotatedDimension
  0
DIMENSION
  5
D9EC4
102
{ACAD_XDICTIONARY
360
D9ED2
102
}
102
{ACAD_REACTORS
330
D9EDD
102
}
330
1F
100
AcDbEntity
  8
标注
 48
5.0
100
AcDbDimension
  2
*D3
 10
104505.9643017302
 20
-169142.4205651092
 30
0.0
 11
104367.9643017302
 21
-169142.4205651092
 31
0.0
 70
    32
 71
     5
 42
276.0
  3
副本Standard
100
AcDbAlignedDimension
 13
104229.9643017302
 23
-168859.2233630647
 33
0.0
 14
104505.9643017302
 24
-168859.2233630647
 34
0.0
100
AcDbRotatedDimension
  0
DIMENSION
  5
D9EDE
102
{ACAD_XDICTIONARY
360
D9EEC
102
}
102
{ACAD_REACTORS
330
D9EF7
102
}
330
1F
100
AcDbEntity
  8
标注
 48
5.0
100
AcDbDimension
  2
*D4
 10
104572.3144348038
 20
-168651.2233630647
 30
0.0
 11
104572.3144348038
 21
-168859.2233630647
 31
0.0
 70
    32
 71
     5
 42
416.0
  3
副本Standard
100
AcDbAlignedDimension
 13
104367.9643017302
 23
-169067.2233630647
 33
0.0
 14
104367.9643017302
 24
-168651.2233630647
 34
0.0
 50
90.0
100
AcDbRotatedDimension
  0
DIMENSION
  5
D9EF8
330
1F
100
AcDbEntity
  8
标注
 48
5.0
100
AcDbDimension
  2
*D5
 10
104539.9561107529
 20
-168655.2252992086
 30
0.0
 11
104539.9561107529
 21
-168859.2243311367
 31
0.0
 70
    32
 71
     5
 42
407.9980638560663
  3
副本Standard
100
AcDbAlignedDimension
 13
104368.9848378183
 23
-169063.2233630647
 33
0.0
 14
104369.8311320216
 24
-168655.2252992086
 34
0.0
 50
90.0
100
AcDbRotatedDimension
  0
DIMENSION
  5
D9F12
330
1F
100
AcDbEntity
  8
标注
 48
5.0
100
AcDbDimension
  2
*D6
 10
104539.9561107529
 20
-168651.2233630647
 30
0.0
 11
104539.9561107529
 21
-168612.1122519536
 31
0.0
 70
    32
 71
     5
 42
4.001936143933561
  3
副本Standard
100
AcDbAlignedDimension
 13
104539.9561107529
 23
-168655.2252992086
 33
0.0
 14
104539.9561107529
 24
-168651.2233630647
 34
0.0
 50
90.0
100
AcDbRotatedDimension
  0
DIMENSION
  5
D9F1F
330
1F
100
AcDbEntity
  8
标注
 48
5.0
100
AcDbDimension
  2
*D7
 10
104505.9643017302
 20
-169106.7860319677
 30
0.0
 11
104545.0754128413
 21
-169106.7860319677
 31
0.0
 70
    32
 71
     5
 42
4.0
  3
副本Standard
100
AcDbAlignedDimension
 13
104501.9643017302
 23
-169106.7860319677
 33
0.0
 14
104505.9643017302
 24
-169106.7860319677
 34
0.0
100
AcDbRotatedDimension
  0
DIMENSION
  5
D9F2C
102
{ACAD_XDICTIONARY
360
D9F3B
102
}
102
{ACAD_REACTORS
330
D9F47
102
}
330
1F
100
AcDbEntity
  8
标注
 48
5.0
100
AcDbDimension
  2
*D8
 10
104328.5882971228
 20
-168651.2233630647
 30
0.0
 11
104328.5882971228
 21
-168606.4455852869
 31
0.0
 70
    32
 71
     5
 42
17.99999999001738
  3
副本Standard
100
AcDbAlignedDimension
 13
104367.9643017302
 23
-168669.2233630547
 33
0.0
 14
104367.9643017302
 24
-168651.2233630647
 34
0.0
 50
90.0
100
AcDbRotatedDimension
  0
DIMENSION
  5
D9F48
102
{ACAD_XDICTIONARY
360
D9F56
102
}
102
{ACAD_REACTORS
330
D9F61
102
}
330
1F
100
AcDbEntity
  8
标注
 48
5.0
100
AcDbDimension
  2
*D9
 10
104398.9602231786
 20
-168859.2233630647
 30
0.0
 11
104398.9602231786
 21
-168764.2233630597
 31
0.0
 70
    32
 71
     5
 42
190.0000000099826
  3
副本Standard
100
AcDbAlignedDimension
 13
104367.9643017302
 23
-168669.2233630547
 33
0.0
 14
104367.9643017302
 24
-168859.2233630647
 34
0.0
 50
90.0
100
AcDbRotatedDimension
  0
DIMENSION
  5
D9F62
102
{ACAD_XDICTIONARY
360
D9F70
102
}
102
{ACAD_REACTORS
330
D9F7B
102
}
330
1F
100
AcDbEntity
  8
标注
 48
5.0
100
AcDbDimension
  2
*D10
 10
104441.5085004301
 20
-169049.2233630747
 30
0.0
 11
104441.5085004301
 21
-168761.8344741708
 31
0.0
 70
   160
 71
     5
 42
380.0000000199943
  3
副本Standard
100
AcDbAlignedDimension
 13
104367.9643017302
 23
-168669.2233630547
 33
0.0
 14
104367.9643017302
 24
-169049.2233630747
 34
0.0
 50
90.0
100
AcDbRotatedDimension
  0
DIMENSION
  5
D9F86
102
{ACAD_XDICTIONARY
360
D9F95
102
}
102
{ACAD_REACTORS
330
D9FA1
102
}
330
1F
100
AcDbEntity
  8
标注
 48
5.0
100
AcDbDimension
  2
*D11
 10
104229.9643017302
 20
-168827.5997738095
 30
0.0
 11
104185.1865239524
 21
-168827.5997738095
 31
0.0
 70
    32
 71
     5
 42
17.99999999000283
  3
副本Standard
100
AcDbAlignedDimension
 13
104247.9643017202
 23
-168859.2233630647
 33
0.0
 14
104229.9643017302
 24
-168859.2233630647
 34
0.0
100
AcDbRotatedDimension
  0
DIMENSION
  5
D9FA2
330
1F
100
AcDbEntity
  8
标注
 48
5.0
100
AcDbDimension
  2
*D12
 10
104367.9643017302
 20
-168891.7386973833
 30
0.0
 11
104307.9643017252
 21
-168891.7386973833
 31
0.0
 70
    32
 71
     5
 42
120.0000000099971
  3
副本Standard
100
AcDbAlignedDimension
 13
104247.9643017202
 23
-168859.2233630647
 33
0.0
 14
104367.9643017302
 24
-168859.2233630647
 34
0.0
100
AcDbRotatedDimension
  0
DIMENSION
  5
D9FB0
102
{ACAD_XDICTIONARY
360
D9FBE
102
}
102
{ACAD_REACTORS
330
D9FC9
102
}
330
1F
100
AcDbEntity
  8
标注
 48
5.0
100
AcDbDimension
  2
*D13
 10
104487.9643017402
 20
-168935.6839689662
 30
0.0
 11
104305.5198572807
 21
-168935.6839689662
 31
0.0
 70
   160
 71
     5
 42
240.0000000199943
  3
副本Standard
100
AcDbAlignedDimension
 13
104247.9643017202
 23
-168859.2233630647
 33
0.0
 14
104487.9643017402
 24
-168859.2233630647
 34
0.0
100
AcDbRotatedDimension
  0
DIMENSION
  5
D9FD6
102
{ACAD_XDICTIONARY
360
D9FE2
102
}
102
{ACAD_REACTORS
330
D9FEB
102
}
330
1F
100
AcDbEntity
  8
标注
 48
5.0
100
AcDbDimension
  2
*D14
 10
104370.1979025668
 20
-168861.226117993
 30
0.0
 11
104316.2871258727
 21
-168812.8870987979
 31
0.0
 70
    35
  1
{\fGulim|b0|i0|c129|p34;5-<>}
 71
     5
 42
6.0
  3
副本Standard
100
AcDbDiametricDimension
 15
104365.7307008936
 25
-168857.2206081364
 35
0.0
 40
0.0
1001
ACAD
1000
DSTYLE
1002
{
1070
   288
1070
     1
1002
}
1001
ACAD_DSTYLE_DIMRADIAL_EXTENSION
1070
   387
1070
     1
1070
   388
1040
0.0
1070
   390
1040
0.0
  0
DIMENSION
  5
DA004
102
{ACAD_XDICTIONARY
360
DA00D
102
}
102
{ACAD_REACTORS
330
DA013
102
}
330
1F
100
AcDbEntity
  8
标注
 48
5.0
100
AcDbDimension
  2
*D15
 10
104327.1415308308
 20
-168972.1940061514
 30
0.0
 11
104299.0872592491
 21
-168996.0613958383
 31
0.0
 70
   164
 71
     5
 42
90.0000000000873
  3
副本Standard
100
AcDbRadialDimension
 15
104258.5926319434
 25
-169030.5125148888
 35
0.0
 40
0.0
1001
ACAD
1000
DSTYLE
1002
{
1070
   288
1070
     1
1002
}
1001
ACAD_DSTYLE_DIMRADIAL_EXTENSION
1070
   387
1070
     1
1070
   388
1040
3.197826586621772
1070
   390
1040
4.661969137952316
  0
DIMENSION
  5
DA014
102
{ACAD_XDICTIONARY
360
DA01D
102
}
102
{ACAD_REACTORS
330
DA023
102
}
330
1F
100
AcDbEntity
  8
标注
 48
5.0
100
AcDbDimension
  2
*D16
 10
104367.9643017302
 20
-168163.2233630647
 30
0.0
 11
104355.9216849909
 21
-169002.8592281133
 31
0.0
 70
   164
 71
     5
 42
899.9999999999706
  3
副本Standard
100
AcDbRadialDimension
 15
104355.0572298693
 25
-169063.1308069143
 35
0.0
 40
0.0
1001
ACAD
1000
DSTYLE
1002
{
1070
   288
1070
     1
1002
}
1001
ACAD_DSTYLE_DIMRADIAL_EXTENSION
1070
   387
1070
     1
1070
   388
1040
4.661969137952568
1070
   390
1040
4.762808822816825
  0
DIMENSION
  5
DA024
102
{ACAD_XDICTIONARY
360
DA02D
102
}
102
{ACAD_REACTORS
330
DA033
102
}
330
1F
100
AcDbEntity
  8
标注
 48
5.0
100
AcDbDimension
  2
*D17
 10
104408.7870726297
 20
-168972.1940061514
 30
0.0
 11
104442.4256624851
 21
-168987.1986626611
 31
0.0
 70
   164
 71
     5
 42
89.99999999988359
  3
副本Standard
100
AcDbRadialDimension
 15
104490.9809120956
 25
-169008.8569677588
 35
0.0
 40
0.0
1001
ACAD
1000
DSTYLE
1002
{
1070
   288
1070
     1
1002
}
1001
ACAD_DSTYLE_DIMRADIAL_EXTENSION
1070
   387
1070
     1
1070
   388
1040
4.762808822816738
1070
   390
1040
6.226951374147597
  0
DIMENSION
  5
DA034
102
{ACAD_XDICTIONARY
360
DA03D
102
}
102
{ACAD_REACTORS
330
DA043
102
}
330
1F
100
AcDbEntity
  8
标注
 48
5.0
100
AcDbDimension
  2
*D18
 10
102401.9643017302
 20
-168859.2233630647
 30
0.0
 11
104434.2787802743
 21
-168893.947840203
 31
0.0
 70
   164
 71
     5
 42
2100.000000000058
  3
副本Standard
100
AcDbRadialDimension
 15
104501.6578346508
 25
-168895.0990903948
 35
0.0
 40
0.0
1001
ACAD
1000
DSTYLE
1002
{
1070
   288
1070
     1
1002
}
1001
ACAD_DSTYLE_DIMRADIAL_EXTENSION
1070
   387
1070
     1
1070
   388
1040
6.226951374147456
1070
   390
1040
0.0562339330321276
  0
DIMENSION
  5
DA044
102
{ACAD_XDICTIONARY
360
DA04D
102
}
102
{ACAD_REACTORS
330
DA053
102
}
330
1F
100
AcDbEntity
  8
标注
 48
5.0
100
AcDbDimension
  2
*D19
 10
104327.1415308307
 20
-168746.252719978
 30
0.0
 11
104302.1113302681
 21
-168719.230812121
 31
0.0
 70
   164
 71
     5
 42
90.0
  3
副本Standard
100
AcDbRadialDimension
 15
104265.9817647498
 25
-168680.2263387888
 35
0.0
 40
0.0
1001
ACAD
1000
DSTYLE
1002
{
1070
   288
1070
     1
1002
}
1001
ACAD_DSTYLE_DIMRADIAL_EXTENSION
1070
   387
1070
     1
1070
   388
1040
1.621216169226945
1070
   390
1040
3.085358720557803
  0
DIMENSION
  5
DA054
102
{ACAD_XDICTIONARY
360
DA05D
102
}
102
{ACAD_REACTORS
330
DA063
102
}
330
1F
100
AcDbEntity
  8
标注
 48
5.0
100
AcDbDimension
  2
*D20
 10
106333.9643017302
 20
-168859.2233630647
 30
0.0
 11
104303.2175515398
 21
-168772.1856378885
 31
0.0
 70
   164
 71
     5
 42
2100.000000000073
  3
副本Standard
100
AcDbRadialDimension
 15
104235.8904733978
 25
-168769.3000019895
 35
0.0
 40
0.0
1001
ACAD
1000
DSTYLE
1002
{
1070
   288
1070
     1
1002
}
1001
ACAD_DSTYLE_DIMRADIAL_EXTENSION
1070
   387
1070
     1
1070
   388
1040
3.085358720557663
1070
   390
1040
3.197826586621921
  0
DIMENSION
  5
DA064
102
{ACAD_XDICTIONARY
360
DA06D
102
}
102
{ACAD_REACTORS
330
DA073
102
}
330
1F
100
AcDbEntity
  8
标注
 48
5.0
100
AcDbDimension
  2
*D21
 10
104367.9643017302
 20
-169555.2233630647
 30
0.0
 11
104356.3722145743
 21
-168715.5811571163
 31
0.0
 70
   164
 71
     5
 42
900.0000000004074
  3
副本Standard
100
AcDbRadialDimension
 15
104355.5400998164
 25
-168655.3091231465
 35
0.0
 40
0.0
1001
ACAD
1000
DSTYLE
1002
{
1070
   288
1070
     1
1002
}
1001
ACAD_DSTYLE_DIMRADIAL_EXTENSION
1070
   387
1070
     1
1070
   388
1040
1.520376484362774
1070
   390
1040
1.621216169227016
  0
DIMENSION
  5
DA07F
102
{ACAD_XDICTIONARY
360
DA089
102
}
102
{ACAD_REACTORS
330
DA090
102
}
330
1F
100
AcDbEntity
  8
标注
 48
5.0
100
AcDbDimension
  2
*D22
 10
104408.7870726297
 20
-168746.252719978
 30
0.0
 11
104488.7226391504
 21
-168625.9834105176
 31
0.0
 70
   164
 71
     5
 42
89.99999999976717
  3
副本Standard
100
AcDbRadialDimension
 15
104458.6047757758
 25
-168671.29809068
 35
0.0
 40
0.0
1001
ACAD
1000
DSTYLE
1002
{
1070
   288
1070
     1
1002
}
1001
ACAD_DSTYLE_DIMRADIAL_EXTENSION
1070
   387
1070
     1
1070
   388
1040
0.0562339330319889
1070
   390
1040
1.520376484362846
  0
ENDSEC
  0
SECTION
  2
OBJECTS
  0
DICTIONARY
  5
C
330
0
100
AcDbDictionary
281
     1
  3
ACAD_2007HEADERVARS_RT
350
DA32B
  3
ACAD_COLOR
350
6C
  3
ACAD_GROUP
350
D
  3
ACAD_LAYOUT
350
1A
  3
ACAD_MATERIAL
350
6B
  3
ACAD_MLEADERSTYLE
350
CEDBA
  3
ACAD_MLINESTYLE
350
17
  3
ACAD_PLOTSETTINGS
350
19
  3
ACAD_PLOTSTYLENAME
350
E
  3
ACAD_SCALELIST
350
CED98
  3
ACAD_TABLESTYLE
350
FAF
  3
ACAD_VISUALSTYLE
350
CED87
  3
AcadDim
350
100FD
  3
ACDB_RECOMPOSE_DATA
350
D0C4C
  3
AcDbVariableDictionary
350
59
  3
ASE_INDEX_DICTIONARY
350
C2668
  3
DWGPROPS
350
DA32A
  3
lxx_dict
350
A9D16
  0
DICTIONARY
  5
AB
330
2
100
AcDbDictionary
280
     1
281
     1
  3
ACAD_LAYERFILTERS
360
D5CEC
  3
ACAD_LAYERSTATES
360
AC
  3
ACLYDICTIONARY
360
D5CEB
  0
DICTIONARY
  5
CF251
330
10
100
AcDbDictionary
280
     1
281
     1
  3
ADSK_XREC_LAYER_RECONCILED
360
CF252
  0
DICTIONARY
  5
CF259
330
9D
100
AcDbDictionary
280
     1
281
     1
  3
ADSK_XREC_LAYER_RECONCILED
360
CF25A
  0
DICTIONARY
  5
CF25B
330
9E
100
AcDbDictionary
280
     1
281
     1
  3
ADSK_XREC_LAYER_RECONCILED
360
CF25C
  0
DICTIONARY
  5
CF25D
330
16DF9
100
AcDbDictionary
280
     1
281
     1
  3
ADSK_XREC_LAYER_RECONCILED
360
CF25E
  0
DICTIONARY
  5
D81F5
330
D81F4
100
AcDbDictionary
280
     1
281
     1
  0
DICTIONARY
  5
118B
330
1F
100
AcDbDictionary
280
     1
281
     1
  3
ACAD_SORTENTS
360
118C
  0
DICTIONARY
  5
DA339
330
DA10B
100
AcDbDictionary
280
     1
281
     1
  3
ACAD_MTEXT_RT
360
DA33A
  0
DICTIONARY
  5
D9EB8
330
D9EAA
100
AcDbDictionary
280
     1
281
     1
  3
ACAD_DIMASSOC
360
D9EC3
  0
DICTIONARY
  5
D9ED2
330
D9EC4
100
AcDbDictionary
280
     1
281
     1
  3
ACAD_DIMASSOC
360
D9EDD
  0
DICTIONARY
  5
D9EEC
330
D9EDE
100
AcDbDictionary
280
     1
281
     1
  3
ACAD_DIMASSOC
360
D9EF7
  0
DICTIONARY
  5
D9F3B
330
D9F2C
100
AcDbDictionary
280
     1
281
     1
  3
ACAD_DIMASSOC
360
D9F47
  0
DICTIONARY
  5
D9F56
330
D9F48
100
AcDbDictionary
280
     1
281
     1
  3
ACAD_DIMASSOC
360
D9F61
  0
DICTIONARY
  5
D9F70
330
D9F62
100
AcDbDictionary
280
     1
281
     1
  3
ACAD_DIMASSOC
360
D9F7B
  0
DICTIONARY
  5
D9F95
330
D9F86
100
AcDbDictionary
280
     1
281
     1
  3
ACAD_DIMASSOC
360
D9FA1
  0
DICTIONARY
  5
D9FBE
330
D9FB0
100
AcDbDictionary
280
     1
281
     1
  3
ACAD_DIMASSOC
360
D9FC9
  0
DICTIONARY
  5
D9FE2
330
D9FD6
100
AcDbDictionary
280
     1
281
     1
  3
ACAD_DIMASSOC
360
D9FEB
  0
DICTIONARY
  5
DA00D
330
DA004
100
AcDbDictionary
280
     1
281
     1
  3
ACAD_DIMASSOC
360
DA013
  0
DICTIONARY
  5
DA01D
330
DA014
100
AcDbDictionary
280
     1
281
     1
  3
ACAD_DIMASSOC
360
DA023
  0
DICTIONARY
  5
DA02D
330
DA024
100
AcDbDictionary
280
     1
281
     1
  3
ACAD_DIMASSOC
360
DA033
  0
DICTIONARY
  5
DA03D
330
DA034
100
AcDbDictionary
280
     1
281
     1
  3
ACAD_DIMASSOC
360
DA043
  0
DICTIONARY
  5
DA04D
330
DA044
100
AcDbDictionary
280
     1
281
     1
  3
ACAD_DIMASSOC
360
DA053
  0
DICTIONARY
  5
DA05D
330
DA054
100
AcDbDictionary
280
     1
281
     1
  3
ACAD_DIMASSOC
360
DA063
  0
DICTIONARY
  5
DA06D
330
DA064
100
AcDbDictionary
280
     1
281
     1
  3
ACAD_DIMASSOC
360
DA073
  0
DICTIONARY
  5
DA089
330
DA07F
100
AcDbDictionary
280
     1
281
     1
  3
ACAD_DIMASSOC
360
DA090
  0
DICTIONARY
  5
DA32B
102
{ACAD_REACTORS
330
C
102
}
330
C
100
AcDbDictionary
281
     1
  3
DIMARCSYM
350
DA32E
  3
DIMFXL
350
DA32D
  3
DIMFXLON
350
DA32C
  3
DIMLTEX1
350
DA330
  3
DIMLTEX2
350
DA331
  3
DIMLTYPE
350
DA32F
  0
DICTIONARY
  5
6C
102
{ACAD_REACTORS
330
C
102
}
330
C
100
AcDbDictionary
281
     1
  0
DICTIONARY
  5
D
102
{ACAD_REACTORS
330
C
102
}
330
C
100
AcDbDictionary
281
     1
  0
DICTIONARY
  5
1A
102
{ACAD_REACTORS
330
C
102
}
330
C
100
AcDbDictionary
281
     1
  3
Model
350
22
  3
布局1
350
74
  3
布局2
350
79
  0
DICTIONARY
  5
6B
102
{ACAD_REACTORS
330
C
102
}
330
C
100
AcDbDictionary
281
     1
  3
ByBlock
350
CED77
  3
ByLayer
350
CED6F
  3
Global
350
CED7F
  0
DICTIONARY
  5
CEDBA
102
{ACAD_REACTORS
330
C
102
}
330
C
100
AcDbDictionary
281
     1
  3
Standard
350
CEDBB
  0
DICTIONARY
  5
17
102
{ACAD_REACTORS
330
C
102
}
330
C
100
AcDbDictionary
281
     1
  3
Standard
350
18
  0
DICTIONARY
  5
19
102
{ACAD_REACTORS
330
C
102
}
330
C
100
AcDbDictionary
281
     1
  0
ACDBDICTIONARYWDFLT
  5
E
102
{ACAD_REACTORS
330
C
102
}
330
C
100
AcDbDictionary
281
     1
  3
Normal
350
F
100
AcDbDictionaryWithDefault
340
F
  0
DICTIONARY
  5
CED98
102
{ACAD_REACTORS
330
C
102
}
330
C
100
AcDbDictionary
281
     1
  3
A0
350
CED99
  3
A1
350
CED9A
  3
A2
350
CED9B
  3
A3
350
CED9C
  3
A4
350
CED9D
  3
A5
350
CED9E
  3
A6
350
CED9F
  3
A7
350
CEDA0
  3
A8
350
CEDA1
  3
A9
350
CEDA2
  3
B0
350
CEDA3
  3
B1
350
CEDA4
  3
B2
350
CEDA5
  3
B3
350
CEDA6
  3
B4
350
CEDA7
  3
B5
350
CEDA8
  3
B6
350
CEDA9
  3
B7
350
CEDAA
  3
B8
350
CEDAB
  3
B9
350
CEDAC
  3
C0
350
CEDAD
  3
C1
350
CEDAE
  3
C2
350
CEDAF
  3
C3
350
CEDB0
  3
C4
350
CEDB1
  3
C5
350
CEDB2
  3
C6
350
CEDB3
  3
C7
350
CEDB4
  3
C8
350
CEDB5
  3
C9
350
CEDB6
  3
D0
350
CEDB7
  3
D1
350
CEDB8
  3
D2
350
CEDB9
  0
DICTIONARY
  5
FAF
102
{ACAD_REACTORS
330
C
102
}
330
C
100
AcDbDictionary
281
     1
  3
Standard
350
FB0
  0
DICTIONARY
  5
CED87
102
{ACAD_REACTORS
330
C
102
}
330
C
100
AcDbDictionary
281
     1
  3
2dWireframe
350
CED8D
  3
3D Hidden
350
CED8F
  3
3dWireframe
350
CED8E
  3
Basic
350
CED8C
  3
Brighten
350
CED93
  3
ColorChange
350
CED97
  3
Conceptual
350
CED90
  3
Dim
350
CED92
  3
Facepattern
350
CED96
  3
Flat
350
CED88
  3
FlatWithEdges
350
CED89
  3
Gouraud
350
CED8A
  3
GouraudWithEdges
350
CED8B
  3
Linepattern
350
CED95
  3
Realistic
350
CED91
  3
Thicken
350
CED94
  0
XRECORD
  5
100FD
102
{ACAD_REACTORS
330
C
102
}
330
C
100
AcDbXrecord
280
     1
 90
   990106
  3

 60
     0
 61
     0
 62
     1
 63
     3
 64
     0
 65
     0
 66
     0
 67
     3
 68
     1
 69
     0
 70
     0
 71
     0
 72
     0
 40
0.0
170
     0
  0
XRECORD
  5
D0C4C
102
{ACAD_REACTORS
330
C
102
}
330
C
100
AcDbXrecord
280
     1
 90
        1
330
FB0
  0
DICTIONARY
  5
59
102
{ACAD_REACTORS
330
C
102
}
330
C
100
AcDbDictionary
281
     1
  3
CANNOSCALE
350
D0C4F
  3
CMLEADERSTYLE
350
D0C4D
  3
CTABLESTYLE
350
100D
  3
DIMASSOC
350
5A
  3
HIDETEXT
350
5E
  3
INDEXCTL
350
DA2FD
  3
LIGHTINGUNITS
350
D0C50
  3
MSLTSCALE
350
D0C4E
  3
SORTENTS
350
DA2FC
  0
DICTIONARY
  5
C2668
102
{ACAD_REACTORS
330
C
102
}
330
C
100
AcDbDictionary
281
     1
  3
ASEBlockHierarchyIndexRecord
350
C2669
1001
DCO15
1040
1779131318.625
  0
XRECORD
  5
DA32A
102
{ACAD_REACTORS
330
C
102
}
330
C
100
AcDbXrecord
280
     1
  1
DWGPROPS COOKIE
  2

  3

  4

  6

  7

  8
Administrator
  9

300
=
301
=
302
=
303
=
304
=
305
=
306
=
307
=
308
=
309
=
 40
9.010715393518518
 41
2454355.343801713
 42
2457938.599725671
  1

 90
        0
  0
DICTIONARY
  5
A9D16
102
{ACAD_REACTORS
330
C
102
}
330
C
100
AcDbDictionary
281
     1
  3
lxx_dimth
350
A9D17
  0
DICTIONARY
  5
D5CEC
102
{ACAD_REACTORS
330
AB
102
}
330
AB
100
AcDbDictionary
281
     1
  0
DICTIONARY
  5
AC
102
{ACAD_REACTORS
330
AB
102
}
330
AB
100
AcDbDictionary
281
     1
  0
DICTIONARY
  5
D5CEB
102
{ACAD_REACTORS
330
AB
102
}
330
AB
100
AcDbDictionary
281
     1
1001
ACAD
1000
<All
  0
XRECORD
  5
CF252
102
{ACAD_REACTORS
330
CF251
102
}
330
CF251
100
AcDbXrecord
280
     1
290
     1
  0
XRECORD
  5
CF25A
102
{ACAD_REACTORS
330
CF259
102
}
330
CF259
100
AcDbXrecord
280
     1
290
     1
  0
XRECORD
  5
CF25C
102
{ACAD_REACTORS
330
CF25B
102
}
330
CF25B
100
AcDbXrecord
280
     1
290
     1
  0
XRECORD
  5
CF25E
102
{ACAD_REACTORS
330
CF25D
102
}
330
CF25D
100
AcDbXrecord
280
     1
290
     1
  0
SORTENTSTABLE
  5
118C
102
{ACAD_REACTORS
330
118B
102
}
330
118B
100
AcDbSortentsTable
330
1F
331
D9EA6
  5
D9EA8
331
D9EA8
  5
D9EA1
331
D9EA7
  5
D9EA3
331
D9EA0
  5
D9EA0
331
D9EA1
  5
D9EA2
331
D9E92
  5
D9E92
331
D9EA2
  5
D9EA4
331
D9E9B
  5
D9E93
331
D9EA3
  5
D9EA5
331
D9EA4
  5
D9EA6
331
D9EA5
  5
D9EA7
  0
XRECORD
  5
DA33A
102
{ACAD_REACTORS
330
DA339
102
}
330
DA339
100
AcDbXrecord
280
     1
 40
57865.0
  1
\A1;{\fGulim|b0|i0|c129|p34;5-\U+22056}
  0
DIMASSOC
  5
D9EC3
102
{ACAD_REACTORS
330
D9EB8
102
}
330
D9EB8
100
AcDbDimAssoc
330
D9EAA
 90
        3
 70
     0
 71
     0
  1
AcDbOsnapPointRef
 72
     2
331
D9E92
 73
     2
 91
        4
 40
3.141592653589792
 10
0.0
 20
0.0
 30
0.0
 75
     0
  1
AcDbOsnapPointRef
 72
     2
331
D9E92
 73
     2
 91
        8
 40
6.283185307179585
 10
0.0
 20
0.0
 30
0.0
 75
     0
  0
DIMASSOC
  5
D9EDD
102
{ACAD_REACTORS
330
D9ED2
102
}
330
D9ED2
100
AcDbDimAssoc
330
D9EC4
 90
        3
 70
     0
 71
     0
  1
AcDbOsnapPointRef
 72
     2
331
D9E9B
 73
     2
 91
        4
 40
3.141592653589861
 10
0.0
 20
0.0
 30
0.0
 75
     0
  1
AcDbOsnapPointRef
 72
     8
331
D9E9B
 73
     2
 91
        8
 40
6.283185307179572
 10
0.0
 20
0.0
 30
0.0
 75
     1
  1
AcDbOsnapPointRef
 72
     2
331
D9E9B
 73
     2
 91
        4
 40
3.141592653589861
 10
0.0
 20
0.0
 30
0.0
 75
     0
  0
DIMASSOC
  5
D9EF7
102
{ACAD_REACTORS
330
D9EEC
102
}
330
D9EEC
100
AcDbDimAssoc
330
D9EDE
 90
        3
 70
     0
 71
     0
  1
AcDbOsnapPointRef
 72
     2
331
D9E9B
 73
     2
 91
        6
 40
4.712388980384351
 10
0.0
 20
0.0
 30
0.0
 75
     0
  1
AcDbOsnapPointRef
 72
     2
331
D9E9B
 73
     2
 91
        2
 40
1.570796326794573
 10
0.0
 20
0.0
 30
0.0
 75
     0
  0
DIMASSOC
  5
D9F47
102
{ACAD_REACTORS
330
D9F3B
102
}
330
D9F3B
100
AcDbDimAssoc
330
D9F2C
 90
        1
 70
     0
 71
     0
  1
AcDbOsnapPointRef
 72
     3
331
D9EA3
 73
     2
 91
        0
 40
0.0
 10
0.0
 20
0.0
 30
0.0
 75
     0
  0
DIMASSOC
  5
D9F61
102
{ACAD_REACTORS
330
D9F56
102
}
330
D9F56
100
AcDbDimAssoc
330
D9F48
 90
        2
 70
     0
 71
     0
  1
AcDbOsnapPointRef
 72
     3
331
D9EA2
 73
     2
 91
        0
 40
0.0
 10
0.0
 20
0.0
 30
0.0
 75
     0
  0
DIMASSOC
  5
D9F7B
102
{ACAD_REACTORS
330
D9F70
102
}
330
D9F70
100
AcDbDimAssoc
330
D9F62
 90
        2
 70
     0
 71
     0
  1
AcDbOsnapPointRef
 72
     3
331
D9EA5
 73
     2
 91
        0
 40
0.0
 10
0.0
 20
0.0
 30
0.0
 75
     0
  0
DIMASSOC
  5
D9FA1
102
{ACAD_REACTORS
330
D9F95
102
}
330
D9F95
100
AcDbDimAssoc
330
D9F86
 90
        1
 70
     0
 71
     0
  1
AcDbOsnapPointRef
 72
     3
331
D9EA4
 73
     2
 91
        0
 40
0.0
 10
0.0
 20
0.0
 30
0.0
 75
     0
  0
DIMASSOC
  5
D9FC9
102
{ACAD_REACTORS
330
D9FBE
102
}
330
D9FBE
100
AcDbDimAssoc
330
D9FB0
 90
        2
 70
     0
 71
     0
  1
AcDbOsnapPointRef
 72
     3
331
D9EA6
 73
     2
 91
        0
 40
0.0
 10
0.0
 20
0.0
 30
0.0
 75
     0
  0
DIMASSOC
  5
D9FEB
102
{ACAD_REACTORS
330
D9FE2
102
}
330
D9FE2
100
AcDbDimAssoc
330
D9FD6
 90
        2
 70
     0
 71
     0
  1
AcDbOsnapPointRef
 72
     3
331
D9EA2
 73
     2
 91
        0
 40
0.0
 10
0.0
 20
0.0
 30
0.0
 75
     0
  0
DIMASSOC
  5
DA013
102
{ACAD_REACTORS
330
DA00D
102
}
330
DA00D
100
AcDbDimAssoc
330
DA004
 90
        2
 70
     0
 71
     0
  1
AcDbOsnapPointRef
 72
     3
331
D9E92
 73
     2
 91
        5
 40
0.0
 10
0.0
 20
0.0
 30
0.0
 75
     0
  0
DIMASSOC
  5
DA023
102
{ACAD_REACTORS
330
DA01D
102
}
330
DA01D
100
AcDbDimAssoc
330
DA014
 90
        2
 70
     0
 71
     0
  1
AcDbOsnapPointRef
 72
     3
331
D9E92
 73
     2
 91
        6
 40
0.0
 10
0.0
 20
0.0
 30
0.0
 75
     0
  0
DIMASSOC
  5
DA033
102
{ACAD_REACTORS
330
DA02D
102
}
330
DA02D
100
AcDbDimAssoc
330
DA024
 90
        2
 70
     0
 71
     0
  1
AcDbOsnapPointRef
 72
     3
331
D9E92
 73
     2
 91
        7
 40
0.0
 10
0.0
 20
0.0
 30
0.0
 75
     0
  0
DIMASSOC
  5
DA043
102
{ACAD_REACTORS
330
DA03D
102
}
330
DA03D
100
AcDbDimAssoc
330
DA034
 90
        2
 70
     0
 71
     0
  1
AcDbOsnapPointRef
 72
     3
331
D9E92
 73
     2
 91
        8
 40
0.0
 10
0.0
 20
0.0
 30
0.0
 75
     0
  0
DIMASSOC
  5
DA053
102
{ACAD_REACTORS
330
DA04D
102
}
330
DA04D
100
AcDbDimAssoc
330
DA044
 90
        2
 70
     0
 71
     0
  1
AcDbOsnapPointRef
 72
     3
331
D9E92
 73
     2
 91
        3
 40
0.0
 10
0.0
 20
0.0
 30
0.0
 75
     0
  0
DIMASSOC
  5
DA063
102
{ACAD_REACTORS
330
DA05D
102
}
330
DA05D
100
AcDbDimAssoc
330
DA054
 90
        2
 70
     0
 71
     0
  1
AcDbOsnapPointRef
 72
     3
331
D9E92
 73
     2
 91
        4
 40
0.0
 10
0.0
 20
0.0
 30
0.0
 75
     0
  0
DIMASSOC
  5
DA073
102
{ACAD_REACTORS
330
DA06D
102
}
330
DA06D
100
AcDbDimAssoc
330
DA064
 90
        2
 70
     0
 71
     0
  1
AcDbOsnapPointRef
 72
     3
331
D9E92
 73
     2
 91
        2
 40
0.0
 10
0.0
 20
0.0
 30
0.0
 75
     0
  0
DIMASSOC
  5
DA090
102
{ACAD_REACTORS
330
DA089
102
}
330
DA089
100
AcDbDimAssoc
330
DA07F
 90
        2
 70
     0
 71
     0
  1
AcDbOsnapPointRef
 72
     3
331
D9E92
 73
     2
 91
        1
 40
0.0
 10
0.0
 20
0.0
 30
0.0
 75
     0
  0
XRECORD
  5
DA32E
102
{ACAD_REACTORS
330
DA32B
102
}
330
DA32B
100
AcDbXrecord
280
     1
 70
     1
  0
XRECORD
  5
DA32D
102
{ACAD_REACTORS
330
DA32B
102
}
330
DA32B
100
AcDbXrecord
280
     1
 40
1.25
  0
XRECORD
  5
DA32C
102
{ACAD_REACTORS
330
DA32B
102
}
330
DA32B
100
AcDbXrecord
280
     1
290
     1
  0
XRECORD
  5
DA330
102
{ACAD_REACTORS
330
DA32B
102
}
330
DA32B
100
AcDbXrecord
280
     1
340
14
  0
XRECORD
  5
DA331
102
{ACAD_REACTORS
330
DA32B
102
}
330
DA32B
100
AcDbXrecord
280
     1
340
14
  0
XRECORD
  5
DA32F
102
{ACAD_REACTORS
330
DA32B
102
}
330
DA32B
100
AcDbXrecord
280
     1
340
14
  0
LAYOUT
  5
22
102
{ACAD_XDICTIONARY
360
DA332
102
}
102
{ACAD_REACTORS
330
1A
102
}
330
1A
100
AcDbPlotSettings
  1

  2
\\PC-201204061032\Canon LBP2900
  4
A4
  6

 40
5.873749732971191
 41
6.805091857910156
 42
5.873748779296875
 43
4.857757568359375
 44
209.9733276367186
 45
296.9259948730469
 46
-5.889999999999998
 47
-5.87
 48
85766.02374884076
 49
-163980.7810393121
140
88736.02374884079
141
-161880.7810393122
142
1.0
143
10.0
 70
 11940
 72
     1
 73
     1
 74
     4
  7
monochrome.ctb
 75
     0
147
0.1
148
-85766.02374884076
149
163980.7810393121
100
AcDbLayout
  1
Model
 70
     1
 71
     0
 10
0.0
 20
0.0
 11
12.0
 21
9.0
 12
0.0
 22
0.0
 32
0.0
 14
0.0
 24
0.0
 34
0.0
 15
0.0
 25
0.0
 35
0.0
146
0.0
 13
0.0
 23
0.0
 33
0.0
 16
1.0
 26
0.0
 36
0.0
 17
0.0
 27
1.0
 37
0.0
 76
     0
330
1F
331
CED6D
  0
LAYOUT
  5
74
102
{ACAD_XDICTIONARY
360
DA334
102
}
102
{ACAD_REACTORS
330
1A
102
}
330
1A
100
AcDbPlotSettings
  1

  2
\\ADSCCNDC1\hq601xrx1
  4

  6

 40
0.0
 41
0.0
 42
0.0
 43
0.0
 44
0.0
 45
0.0
 46
0.0
 47
0.0
 48
0.0
 49
0.0
140
0.0
141
0.0
142
1.0
143
1.0
 70
   688
 72
     0
 73
     0
 74
     5
  7
monochrome.ctb
 75
    16
147
1.0
148
0.0
149
0.0
100
AcDbLayout
  1
布局1
 70
     1
 71
     1
 10
0.0
 20
0.0
 11
12.0
 21
9.0
 12
0.0
 22
0.0
 32
0.0
 14
0.0
 24
0.0
 34
0.0
 15
0.0
 25
0.0
 35
0.0
146
0.0
 13
0.0
 23
0.0
 33
0.0
 16
1.0
 26
0.0
 36
0.0
 17
0.0
 27
1.0
 37
0.0
 76
     0
330
73
  0
LAYOUT
  5
79
102
{ACAD_XDICTIONARY
360
DA336
102
}
102
{ACAD_REACTORS
330
1A
102
}
330
1A
100
AcDbPlotSettings
  1

  2
\\ADSCCNDC1\hq601xrx1
  4

  6

 40
0.0
 41
0.0
 42
0.0
 43
0.0
 44
0.0
 45
0.0
 46
0.0
 47
0.0
 48
0.0
 49
0.0
140
0.0
141
0.0
142
1.0
143
1.0
 70
   688
 72
     0
 73
     0
 74
     5
  7
monochrome.ctb
 75
    16
147
1.0
148
0.0
149
0.0
100
AcDbLayout
  1
布局2
 70
     1
 71
     2
 10
0.0
 20
0.0
 11
12.0
 21
9.0
 12
0.0
 22
0.0
 32
0.0
 14
0.0
 24
0.0
 34
0.0
 15
0.0
 25
0.0
 35
0.0
146
0.0
 13
0.0
 23
0.0
 33
0.0
 16
1.0
 26
0.0
 36
0.0
 17
0.0
 27
1.0
 37
0.0
 76
     0
330
78
  0
MATERIAL
  5
CED77
102
{ACAD_XDICTIONARY
360
CED78
102
}
102
{ACAD_REACTORS
330
6B
102
}
330
6B
100
AcDbMaterial
  1
ByBlock
 72
     0
 43
0.0208333333333333
 43
0.0
 43
0.0
 43
0.0
 43
0.0
 43
0.0208333333333333
 43
0.0
 43
0.0
 43
0.0
 43
0.0
 43
1.0
 43
0.0
 43
0.0
 43
0.0
 43
0.0
 43
1.0
 77
     0
 47
0.0208333333333333
 47
0.0
 47
0.0
 47
0.0
 47
0.0
 47
0.0208333333333333
 47
0.0
 47
0.0
 47
0.0
 47
0.0
 47
1.0
 47
0.0
 47
0.0
 47
0.0
 47
0.0
 47
1.0
171
     0
 49
0.0208333333333333
 49
0.0
 49
0.0
 49
0.0
 49
0.0
 49
0.0208333333333333
 49
0.0
 49
0.0
 49
0.0
 49
0.0
 49
1.0
 49
0.0
 49
0.0
 49
0.0
 49
0.0
 49
1.0
175
     0
142
0.0208333333333333
142
0.0
142
0.0
142
0.0
142
0.0
142
0.0208333333333333
142
0.0
142
0.0
142
0.0
142
0.0
142
1.0
142
0.0
142
0.0
142
0.0
142
0.0
142
1.0
179
     0
144
0.0208333333333333
144
0.0
144
0.0
144
0.0
144
0.0
144
0.0208333333333333
144
0.0
144
0.0
144
0.0
144
0.0
144
1.0
144
0.0
144
0.0
144
0.0
144
0.0
144
1.0
147
0.0208333333333333
147
0.0
147
0.0
147
0.0
147
0.0
147
0.0208333333333333
147
0.0
147
0.0
147
0.0
147
0.0
147
1.0
147
0.0
147
0.0
147
0.0
147
0.0
147
1.0
  0
MATERIAL
  5
CED6F
102
{ACAD_XDICTIONARY
360
CED70
102
}
102
{ACAD_REACTORS
330
6B
102
}
330
6B
100
AcDbMaterial
  1
ByLayer
 72
     0
 43
0.0208333333333333
 43
0.0
 43
0.0
 43
0.0
 43
0.0
 43
0.0208333333333333
 43
0.0
 43
0.0
 43
0.0
 43
0.0
 43
1.0
 43
0.0
 43
0.0
 43
0.0
 43
0.0
 43
1.0
 77
     0
 47
0.0208333333333333
 47
0.0
 47
0.0
 47
0.0
 47
0.0
 47
0.0208333333333333
 47
0.0
 47
0.0
 47
0.0
 47
0.0
 47
1.0
 47
0.0
 47
0.0
 47
0.0
 47
0.0
 47
1.0
171
     0
 49
0.0208333333333333
 49
0.0
 49
0.0
 49
0.0
 49
0.0
 49
0.0208333333333333
 49
0.0
 49
0.0
 49
0.0
 49
0.0
 49
1.0
 49
0.0
 49
0.0
 49
0.0
 49
0.0
 49
1.0
175
     0
142
0.0208333333333333
142
0.0
142
0.0
142
0.0
142
0.0
142
0.0208333333333333
142
0.0
142
0.0
142
0.0
142
0.0
142
1.0
142
0.0
142
0.0
142
0.0
142
0.0
142
1.0
179
     0
144
0.0208333333333333
144
0.0
144
0.0
144
0.0
144
0.0
144
0.0208333333333333
144
0.0
144
0.0
144
0.0
144
0.0
144
1.0
144
0.0
144
0.0
144
0.0
144
0.0
144
1.0
147
0.0208333333333333
147
0.0
147
0.0
147
0.0
147
0.0
147
0.0208333333333333
147
0.0
147
0.0
147
0.0
147
0.0
147
1.0
147
0.0
147
0.0
147
0.0
147
0.0
147
1.0
  0
MATERIAL
  5
CED7F
102
{ACAD_XDICTIONARY
360
CED80
102
}
102
{ACAD_REACTORS
330
6B
102
}
330
6B
100
AcDbMaterial
  1
Global
 72
     0
 43
0.0208333333333333
 43
0.0
 43
0.0
 43
0.0
 43
0.0
 43
0.0208333333333333
 43
0.0
 43
0.0
 43
0.0
 43
0.0
 43
1.0
 43
0.0
 43
0.0
 43
0.0
 43
0.0
 43
1.0
 77
     0
 47
0.0208333333333333
 47
0.0
 47
0.0
 47
0.0
 47
0.0
 47
0.0208333333333333
 47
0.0
 47
0.0
 47
0.0
 47
0.0
 47
1.0
 47
0.0
 47
0.0
 47
0.0
 47
0.0
 47
1.0
171
     0
 49
0.0208333333333333
 49
0.0
 49
0.0
 49
0.0
 49
0.0
 49
0.0208333333333333
 49
0.0
 49
0.0
 49
0.0
 49
0.0
 49
1.0
 49
0.0
 49
0.0
 49
0.0
 49
0.0
 49
1.0
175
     0
142
0.0208333333333333
142
0.0
142
0.0
142
0.0
142
0.0
142
0.0208333333333333
142
0.0
142
0.0
142
0.0
142
0.0
142
1.0
142
0.0
142
0.0
142
0.0
142
0.0
142
1.0
179
     0
144
0.0208333333333333
144
0.0
144
0.0
144
0.0
144
0.0
144
0.0208333333333333
144
0.0
144
0.0
144
0.0
144
0.0
144
1.0
144
0.0
144
0.0
144
0.0
144
0.0
144
1.0
147
0.0208333333333333
147
0.0
147
0.0
147
0.0
147
0.0
147
0.0208333333333333
147
0.0
147
0.0
147
0.0
147
0.0
147
1.0
147
0.0
147
0.0
147
0.0
147
0.0
147
1.0
  0
MLEADERSTYLE
  5
CEDBB
102
{ACAD_REACTORS
330
CEDBA
102
}
330
CEDBA
100
AcDbMLeaderStyle
170
     2
171
     1
172
     0
 90
        2
 40
0.0
 41
0.0
173
     1
 91
-1056964608
340
14
 92
       -2
290
     1
 42
0.09
291
     1
 43
0.36
  3
Standard
 44
0.18
300

342
11
174
     1
178
     6
175
     1
176
     0
 93
-1056964608
 45
0.18
292
     0
297
     0
 46
0.18
 94
-1056964608
 47
1.0
 49
1.0
140
1.0
293
     1
141
0.0
294
     1
177
     0
142
1.0
295
     0
296
     0
143
0.125
1001
ACAD_MLEADERVER
1070
     2
  0
MLINESTYLE
  5
18
102
{ACAD_REACTORS
330
17
102
}
330
17
100
AcDbMlineStyle
  2
STANDARD
 70
     0
  3

 62
   256
 51
90.0
 52
90.0
 71
     2
 49
0.5
 62
   256
  6
BYLAYER
 49
-0.5
 62
   256
  6
BYLAYER
  0
ACDBPLACEHOLDER
  5
F
102
{ACAD_REACTORS
330
E
102
}
330
E
  0
SCALE
  5
CED99
102
{ACAD_REACTORS
330
CED98
102
}
330
CED98
100
AcDbScale
 70
     0
300
1:1
140
1.0
141
1.0
290
     1
  0
SCALE
  5
CED9A
102
{ACAD_REACTORS
330
CED98
102
}
330
CED98
100
AcDbScale
 70
     0
300
1:2
140
1.0
141
2.0
290
     0
  0
SCALE
  5
CED9B
102
{ACAD_REACTORS
330
CED98
102
}
330
CED98
100
AcDbScale
 70
     0
300
1:4
140
1.0
141
4.0
290
     0
  0
SCALE
  5
CED9C
102
{ACAD_REACTORS
330
CED98
102
}
330
CED98
100
AcDbScale
 70
     0
300
1:5
140
1.0
141
5.0
290
     0
  0
SCALE
  5
CED9D
102
{ACAD_REACTORS
330
CED98
102
}
330
CED98
100
AcDbScale
 70
     0
300
1:8
140
1.0
141
8.0
290
     0
  0
SCALE
  5
CED9E
102
{ACAD_REACTORS
330
CED98
102
}
330
CED98
100
AcDbScale
 70
     0
300
1:10
140
1.0
141
10.0
290
     0
  0
SCALE
  5
CED9F
102
{ACAD_REACTORS
330
CED98
102
}
330
CED98
100
AcDbScale
 70
     0
300
1:16
140
1.0
141
16.0
290
     0
  0
SCALE
  5
CEDA0
102
{ACAD_REACTORS
330
CED98
102
}
330
CED98
100
AcDbScale
 70
     0
300
1:20
140
1.0
141
20.0
290
     0
  0
SCALE
  5
CEDA1
102
{ACAD_REACTORS
330
CED98
102
}
330
CED98
100
AcDbScale
 70
     0
300
1:30
140
1.0
141
30.0
290
     0
  0
SCALE
  5
CEDA2
102
{ACAD_REACTORS
330
CED98
102
}
330
CED98
100
AcDbScale
 70
     0
300
1:40
140
1.0
141
40.0
290
     0
  0
SCALE
  5
CEDA3
102
{ACAD_REACTORS
330
CED98
102
}
330
CED98
100
AcDbScale
 70
     0
300
1:50
140
1.0
141
50.0
290
     0
  0
SCALE
  5
CEDA4
102
{ACAD_REACTORS
330
CED98
102
}
330
CED98
100
AcDbScale
 70
     0
300
1:100
140
1.0
141
100.0
290
     0
  0
SCALE
  5
CEDA5
102
{ACAD_REACTORS
330
CED98
102
}
330
CED98
100
AcDbScale
 70
     0
300
2:1
140
2.0
141
1.0
290
     0
  0
SCALE
  5
CEDA6
102
{ACAD_REACTORS
330
CED98
102
}
330
CED98
100
AcDbScale
 70
     0
300
4:1
140
4.0
141
1.0
290
     0
  0
SCALE
  5
CEDA7
102
{ACAD_REACTORS
330
CED98
102
}
330
CED98
100
AcDbScale
 70
     0
300
8:1
140
8.0
141
1.0
290
     0
  0
SCALE
  5
CEDA8
102
{ACAD_REACTORS
330
CED98
102
}
330
CED98
100
AcDbScale
 70
     0
300
10:1
140
10.0
141
1.0
290
     0
  0
SCALE
  5
CEDA9
102
{ACAD_REACTORS
330
CED98
102
}
330
CED98
100
AcDbScale
 70
     0
300
100:1
140
100.0
141
1.0
290
     0
  0
SCALE
  5
CEDAA
102
{ACAD_REACTORS
330
CED98
102
}
330
CED98
100
AcDbScale
 70
     0
300
1/128" = 1'-0"
140
0.0078125
141
12.0
290
     0
  0
SCALE
  5
CEDAB
102
{ACAD_REACTORS
330
CED98
102
}
330
CED98
100
AcDbScale
 70
     0
300
1/64" = 1'-0"
140
0.015625
141
12.0
290
     0
  0
SCALE
  5
CEDAC
102
{ACAD_REACTORS
330
CED98
102
}
330
CED98
100
AcDbScale
 70
     0
300
1/32" = 1'-0"
140
0.03125
141
12.0
290
     0
  0
SCALE
  5
CEDAD
102
{ACAD_REACTORS
330
CED98
102
}
330
CED98
100
AcDbScale
 70
     0
300
1/16" = 1'-0"
140
0.0625
141
12.0
290
     0
  0
SCALE
  5
CEDAE
102
{ACAD_REACTORS
330
CED98
102
}
330
CED98
100
AcDbScale
 70
     0
300
3/32" = 1'-0"
140
0.09375
141
12.0
290
     0
  0
SCALE
  5
CEDAF
102
{ACAD_REACTORS
330
CED98
102
}
330
CED98
100
AcDbScale
 70
     0
300
1/8" = 1'-0"
140
0.125
141
12.0
290
     0
  0
SCALE
  5
CEDB0
102
{ACAD_REACTORS
330
CED98
102
}
330
CED98
100
AcDbScale
 70
     0
300
3/16" = 1'-0"
140
0.1875
141
12.0
290
     0
  0
SCALE
  5
CEDB1
102
{ACAD_REACTORS
330
CED98
102
}
330
CED98
100
AcDbScale
 70
     0
300
1/4" = 1'-0"
140
0.25
141
12.0
290
     0
  0
SCALE
  5
CEDB2
102
{ACAD_REACTORS
330
CED98
102
}
330
CED98
100
AcDbScale
 70
     0
300
3/8" = 1'-0"
140
0.375
141
12.0
290
     0
  0
SCALE
  5
CEDB3
102
{ACAD_REACTORS
330
CED98
102
}
330
CED98
100
AcDbScale
 70
     0
300
1/2" = 1'-0"
140
0.5
141
12.0
290
     0
  0
SCALE
  5
CEDB4
102
{ACAD_REACTORS
330
CED98
102
}
330
CED98
100
AcDbScale
 70
     0
300
3/4" = 1'-0"
140
0.75
141
12.0
290
     0
  0
SCALE
  5
CEDB5
102
{ACAD_REACTORS
330
CED98
102
}
330
CED98
100
AcDbScale
 70
     0
300
1" = 1'-0"
140
1.0
141
12.0
290
     0
  0
SCALE
  5
CEDB6
102
{ACAD_REACTORS
330
CED98
102
}
330
CED98
100
AcDbScale
 70
     0
300
1-1/2" = 1'-0"
140
1.5
141
12.0
290
     0
  0
SCALE
  5
CEDB7
102
{ACAD_REACTORS
330
CED98
102
}
330
CED98
100
AcDbScale
 70
     0
300
3" = 1'-0"
140
3.0
141
12.0
290
     0
  0
SCALE
  5
CEDB8
102
{ACAD_REACTORS
330
CED98
102
}
330
CED98
100
AcDbScale
 70
     0
300
6" = 1'-0"
140
6.0
141
12.0
290
     0
  0
SCALE
  5
CEDB9
102
{ACAD_REACTORS
330
CED98
102
}
330
CED98
100
AcDbScale
 70
     0
300
1'-0" = 1'-0"
140
12.0
141
12.0
290
     0
  0
TABLESTYLE
  5
FB0
102
{ACAD_XDICTIONARY
360
D0C45
102
}
102
{ACAD_REACTORS
330
FAF
102
}
330
FAF
100
AcDbTableStyle
  3
Standard
 70
     0
 71
     0
 40
0.06
 41
0.06
280
     0
281
     0
  7
Standard
140
0.18
170
     2
 62
     0
 63
     7
283
     0
274
    -2
284
     1
 64
     0
275
    -2
285
     1
 65
     0
276
    -2
286
     1
 66
     0
277
    -2
287
     1
 67
     0
278
    -2
288
     1
 68
     0
279
    -2
289
     1
 69
     0
  7
Standard
140
0.25
170
     5
 62
     0
 63
     7
283
     0
274
    -2
284
     1
 64
     0
275
    -2
285
     1
 65
     0
276
    -2
286
     1
 66
     0
277
    -2
287
     1
 67
     0
278
    -2
288
     1
 68
     0
279
    -2
289
     1
 69
     0
  7
Standard
140
0.18
170
     5
 62
     0
 63
     7
283
     0
274
    -2
284
     1
 64
     0
275
    -2
285
     1
 65
     0
276
    -2
286
     1
 66
     0
277
    -2
287
     1
 67
     0
278
    -2
288
     1
 68
     0
279
    -2
289
     1
 69
     0
  0
VISUALSTYLE
  5
CED8D
102
{ACAD_REACTORS
330
CED87
102
}
330
CED87
100
AcDbVisualStyle
  2
2dWireframe
 70
     4
 71
     0
 72
     2
 73
     0
 90
        0
 40
-0.6
 41
-30.0
 62
     5
 63
     7
 74
     1
 91
        4
 64
     7
 65
   257
 75
     1
175
     1
 42
1.0
 92
        0
 66
   257
 43
1.0
 76
     1
 77
     6
 78
     2
 67
     7
 79
     5
170
     0
171
     0
290
     0
174
     0
 93
        1
 44
0.0
173
     0
291
     0
 45
0.0
1001
ACAD
1000
AcDbSavedByObjectVersion
1070
     0
1000
AcDbSavedByObjectVersion
1070
     0
  0
VISUALSTYLE
  5
CED8F
102
{ACAD_REACTORS
330
CED87
102
}
330
CED87
100
AcDbVisualStyle
  2
3D Hidden
 70
     6
 71
     1
 72
     2
 73
     2
 90
        0
 40
-0.6
 41
-30.0
 62
     5
 63
     7
 74
     2
 91
        2
 64
     7
 65
   257
 75
     2
175
     1
 42
40.0
 92
        0
 66
   257
 43
1.0
 76
     1
 77
     6
 78
     2
 67
     7
 79
     3
170
     0
171
     0
290
     0
174
     0
 93
        1
 44
0.0
173
     0
291
     0
 45
0.0
1001
ACAD
1000
AcDbSavedByObjectVersion
1070
     0
1000
AcDbSavedByObjectVersion
1070
     0
  0
VISUALSTYLE
  5
CED8E
102
{ACAD_REACTORS
330
CED87
102
}
330
CED87
100
AcDbVisualStyle
  2
3dWireframe
 70
     5
 71
     0
 72
     2
 73
     0
 90
        0
 40
-0.6
 41
-30.0
 62
     5
 63
     7
 74
     1
 91
        4
 64
     7
 65
   257
 75
     1
175
     1
 42
1.0
 92
        0
 66
   257
 43
1.0
 76
     1
 77
     6
 78
     2
 67
     7
 79
     5
170
     0
171
     0
290
     0
174
     0
 93
        1
 44
0.0
173
     0
291
     0
 45
0.0
1001
ACAD
1000
AcDbSavedByObjectVersion
1070
     0
1000
AcDbSavedByObjectVersion
1070
     0
  0
VISUALSTYLE
  5
CED8C
102
{ACAD_REACTORS
330
CED87
102
}
330
CED87
100
AcDbVisualStyle
  2
Basic
 70
     7
 71
     1
 72
     0
 73
     1
 90
        0
 40
-0.6
 41
-30.0
 62
     5
 63
     7
 74
     0
 91
        4
 64
     7
 65
   257
 75
     1
175
     1
 42
1.0
 92
        8
 66
     7
 43
1.0
 76
     1
 77
     6
 78
     2
 67
     7
 79
     5
170
     0
171
     0
290
     0
174
     0
 93
        1
 44
0.0
173
     0
291
     1
 45
0.0
1001
ACAD
1000
AcDbSavedByObjectVersion
1070
     0
1000
AcDbSavedByObjectVersion
1070
     0
  0
VISUALSTYLE
  5
CED93
102
{ACAD_REACTORS
330
CED87
102
}
330
CED87
100
AcDbVisualStyle
  2
Brighten
 70
    12
 71
     2
 72
     2
 73
     0
 90
        0
 40
-0.6
 41
-30.0
 62
     5
 63
     7
 74
     1
 91
        4
 64
     7
 65
   257
 75
     1
175
     1
 42
1.0
 92
        8
 66
     7
 43
1.0
 76
     1
 77
     6
 78
     2
 67
     7
 79
     5
170
     0
171
     0
290
     0
174
     0
 93
        1
 44
50.0
173
     0
291
     1
 45
0.0
1001
ACAD
1000
AcDbSavedByObjectVersion
1070
     0
1000
AcDbSavedByObjectVersion
1070
     0
  0
VISUALSTYLE
  5
CED97
102
{ACAD_REACTORS
330
CED87
102
}
330
CED87
100
AcDbVisualStyle
  2
ColorChange
 70
    16
 71
     2
 72
     2
 73
     3
 90
        0
 40
-0.6
 41
-30.0
 62
     5
 63
     8
 74
     1
 91
        4
 64
     7
 65
   257
 75
     1
175
     1
 42
1.0
 92
        8
 66
     8
 43
1.0
 76
     1
 77
     6
 78
     2
 67
     7
 79
     5
170
     0
171
     0
290
     0
174
     0
 93
        1
 44
0.0
173
     0
291
     1
 45
0.0
1001
ACAD
1000
AcDbSavedByObjectVersion
1070
     0
1000
AcDbSavedByObjectVersion
1070
     0
  0
VISUALSTYLE
  5
CED90
102
{ACAD_REACTORS
330
CED87
102
}
330
CED87
100
AcDbVisualStyle
  2
Conceptual
 70
     9
 71
     3
 72
     2
 73
     0
 90
        0
 40
-0.6
 41
-30.0
 62
     5
 63
     7
 74
     2
 91
        2
 64
     7
 65
   257
 75
     1
175
     1
 42
40.0
 92
        8
 66
     7
 43
1.0
 76
     1
 77
     6
 78
     2
 67
     7
 79
     3
170
     0
171
     0
290
     0
174
     0
 93
        1
 44
0.0
173
     0
291
     0
 45
0.0
1001
ACAD
1000
AcDbSavedByObjectVersion
1070
     0
1000
AcDbSavedByObjectVersion
1070
     0
  0
VISUALSTYLE
  5
CED92
102
{ACAD_REACTORS
330
CED87
102
}
330
CED87
100
AcDbVisualStyle
  2
Dim
 70
    11
 71
     2
 72
     2
 73
     0
 90
        0
 40
-0.6
 41
-30.0
 62
     5
 63
     7
 74
     1
 91
        4
 64
     7
 65
   257
 75
     1
175
     1
 42
1.0
 92
        8
 66
     7
 43
1.0
 76
     1
 77
     6
 78
     2
 67
     7
 79
     5
170
     0
171
     0
290
     0
174
     0
 93
        1
 44
-50.0
173
     0
291
     1
 45
0.0
1001
ACAD
1000
AcDbSavedByObjectVersion
1070
     0
1000
AcDbSavedByObjectVersion
1070
     0
  0
VISUALSTYLE
  5
CED96
102
{ACAD_REACTORS
330
CED87
102
}
330
CED87
100
AcDbVisualStyle
  2
Facepattern
 70
    15
 71
     2
 72
     2
 73
     0
 90
        0
 40
-0.6
 41
-30.0
 62
     5
 63
     7
 74
     1
 91
        4
 64
     7
 65
   257
 75
     1
175
     1
 42
1.0
 92
        8
 66
     7
 43
1.0
 76
     1
 77
     6
 78
     2
 67
     7
 79
     5
170
     0
171
     0
290
     0
174
     0
 93
        1
 44
0.0
173
     0
291
     1
 45
0.0
1001
ACAD
1000
AcDbSavedByObjectVersion
1070
     0
1000
AcDbSavedByObjectVersion
1070
     0
  0
VISUALSTYLE
  5
CED88
102
{ACAD_REACTORS
330
CED87
102
}
330
CED87
100
AcDbVisualStyle
  2
Flat
 70
     0
 71
     2
 72
     1
 73
     1
 90
        2
 40
-0.6
 41
30.0
 62
     5
 63
     7
 74
     0
 91
        4
 64
     7
 65
   257
 75
     1
175
     1
 42
1.0
 92
        8
 66
     7
 43
1.0
 76
     1
 77
     6
 78
     2
 67
     7
 79
     5
170
     0
171
     0
290
     0
174
     0
 93
       13
 44
0.0
173
     0
291
     1
 45
0.0
1001
ACAD
1000
AcDbSavedByObjectVersion
1070
     0
1000
AcDbSavedByObjectVersion
1070
     0
  0
VISUALSTYLE
  5
CED89
102
{ACAD_REACTORS
330
CED87
102
}
330
CED87
100
AcDbVisualStyle
  2
FlatWithEdges
 70
     1
 71
     2
 72
     1
 73
     1
 90
        2
 40
-0.6
 41
30.0
 62
     5
 63
     7
 74
     1
 91
        4
 64
     7
 65
   257
 75
     1
175
     1
 42
1.0
 92
        0
 66
   257
 43
1.0
 76
     1
 77
     6
 78
     2
 67
     7
 79
     5
170
     0
171
     0
290
     0
174
     0
 93
       13
 44
0.0
173
     0
291
     1
 45
0.0
1001
ACAD
1000
AcDbSavedByObjectVersion
1070
     0
1000
AcDbSavedByObjectVersion
1070
     0
  0
VISUALSTYLE
  5
CED8A
102
{ACAD_REACTORS
330
CED87
102
}
330
CED87
100
AcDbVisualStyle
  2
Gouraud
 70
     2
 71
     2
 72
     2
 73
     1
 90
        2
 40
-0.6
 41
30.0
 62
     5
 63
     7
 74
     0
 91
        4
 64
     7
 65
   257
 75
     1
175
     1
 42
1.0
 92
        0
 66
     7
 43
1.0
 76
     1
 77
     6
 78
     2
 67
     7
 79
     5
170
     0
171
     0
290
     0
174
     0
 93
       13
 44
0.0
173
     0
291
     1
 45
0.0
1001
ACAD
1000
AcDbSavedByObjectVersion
1070
     0
1000
AcDbSavedByObjectVersion
1070
     0
  0
VISUALSTYLE
  5
CED8B
102
{ACAD_REACTORS
330
CED87
102
}
330
CED87
100
AcDbVisualStyle
  2
GouraudWithEdges
 70
     3
 71
     2
 72
     2
 73
     1
 90
        2
 40
-0.6
 41
30.0
 62
     5
 63
     7
 74
     1
 91
        4
 64
     7
 65
   257
 75
     1
175
     1
 42
1.0
 92
        0
 66
   257
 43
1.0
 76
     1
 77
     6
 78
     2
 67
     7
 79
     5
170
     0
171
     0
290
     0
174
     0
 93
       13
 44
0.0
173
     0
291
     1
 45
0.0
1001
ACAD
1000
AcDbSavedByObjectVersion
1070
     0
1000
AcDbSavedByObjectVersion
1070
     0
  0
VISUALSTYLE
  5
CED95
102
{ACAD_REACTORS
330
CED87
102
}
330
CED87
100
AcDbVisualStyle
  2
Linepattern
 70
    14
 71
     2
 72
     2
 73
     0
 90
        0
 40
-0.6
 41
-30.0
 62
     5
 63
     7
 74
     1
 91
        4
 64
     7
 65
   257
 75
     7
175
     7
 42
1.0
 92
        8
 66
     7
 43
1.0
 76
     1
 77
     6
 78
     2
 67
     7
 79
     5
170
     0
171
     0
290
     0
174
     0
 93
        1
 44
0.0
173
     0
291
     1
 45
0.0
1001
ACAD
1000
AcDbSavedByObjectVersion
1070
     0
1000
AcDbSavedByObjectVersion
1070
     0
  0
VISUALSTYLE
  5
CED91
102
{ACAD_REACTORS
330
CED87
102
}
330
CED87
100
AcDbVisualStyle
  2
Realistic
 70
     8
 71
     2
 72
     2
 73
     0
 90
        0
 40
-0.6
 41
-30.0
 62
     5
 63
     7
 74
     1
 91
        0
 64
     7
 65
   257
 75
     1
175
     1
 42
1.0
 92
        8
 66
     8
 43
1.0
 76
     1
 77
     6
 78
     2
 67
     7
 79
     5
170
     0
171
     0
290
     0
174
     0
 93
       13
 44
0.0
173
     0
291
     0
 45
0.0
1001
ACAD
1000
AcDbSavedByObjectVersion
1070
     0
1000
AcDbSavedByObjectVersion
1070
     0
  0
VISUALSTYLE
  5
CED94
102
{ACAD_REACTORS
330
CED87
102
}
330
CED87
100
AcDbVisualStyle
  2
Thicken
 70
    13
 71
     2
 72
     2
 73
     0
 90
        0
 40
-0.6
 41
-30.0
 62
     5
 63
     7
 74
     1
 91
        4
 64
     7
 65
   257
 75
     1
175
     1
 42
1.0
 92
       12
 66
     7
 43
1.0
 76
     1
 77
     6
 78
     2
 67
     7
 79
     5
170
     0
171
     0
290
     0
174
     0
 93
        1
 44
0.0
173
     0
291
     1
 45
0.0
1001
ACAD
1000
AcDbSavedByObjectVersion
1070
     0
1000
AcDbSavedByObjectVersion
1070
     0
  0
DICTIONARYVAR
  5
D0C4F
102
{ACAD_REACTORS
330
59
102
}
330
59
100
DictionaryVariables
280
     0
  1
1:1
  0
DICTIONARYVAR
  5
D0C4D
102
{ACAD_REACTORS
330
59
102
}
330
59
100
DictionaryVariables
280
     0
  1
STANDARD
  0
DICTIONARYVAR
  5
100D
102
{ACAD_REACTORS
330
59
102
}
330
59
100
DictionaryVariables
280
     0
  1
STANDARD
  0
DICTIONARYVAR
  5
5A
102
{ACAD_REACTORS
330
59
102
}
330
59
100
DictionaryVariables
280
     0
  1
2
  0
DICTIONARYVAR
  5
5E
102
{ACAD_REACTORS
330
59
102
}
330
59
100
DictionaryVariables
280
     0
  1
1
  0
DICTIONARYVAR
  5
DA2FD
102
{ACAD_REACTORS
330
59
102
}
330
59
100
DictionaryVariables
280
     0
  1
0
  0
DICTIONARYVAR
  5
D0C50
102
{ACAD_REACTORS
330
59
102
}
330
59
100
DictionaryVariables
280
     0
  1
0
  0
DICTIONARYVAR
  5
D0C4E
102
{ACAD_REACTORS
330
59
102
}
330
59
100
DictionaryVariables
280
     0
  1
0
  0
DICTIONARYVAR
  5
DA2FC
102
{ACAD_REACTORS
330
59
102
}
330
59
100
DictionaryVariables
280
     0
  1
127
  0
XRECORD
  5
C2669
102
{ACAD_REACTORS
330
C2668
102
}
330
C2668
100
AcDbXrecord
280
     1
330
0
330
0
330
0
330
0
330
0
330
0
330
0
330
0
330
0
330
0
330
0
330
0
330
0
330
0
330
0
330
0
330
0
330
0
330
0
330
0
330
0
330
0
330
0
330
0
330
0
330
0
330
0
330
0
330
0
330
0
330
0
330
0
330
0
  0
VLO-VL
  5
A9D17
102
{ACAD_REACTORS
330
A9D16
102
}
330
A9D16
100
vlo_VL
 90
   -64512
 91
       12
 92
        1
 40
2.5
300
(&VLO-R . 0)
  0
DICTIONARY
  5
DA332
330
22
100
AcDbDictionary
280
     1
281
     1
  3
ACAD_XREC_ROUNDTRIP
360
DA333
  0
DICTIONARY
  5
DA334
330
74
100
AcDbDictionary
280
     1
281
     1
  3
ACAD_XREC_ROUNDTRIP
360
DA335
  0
DICTIONARY
  5
DA336
330
79
100
AcDbDictionary
280
     1
281
     1
  3
ACAD_XREC_ROUNDTRIP
360
DA337
  0
DICTIONARY
  5
CED78
330
CED77
100
AcDbDictionary
280
     1
281
     1
  3
ACAD_XREC_ROUNDTRIP
360
DA318
  3
BUMPTILE
360
CED7A
  3
DIFFUSETILE
360
CED79
  3
OPACITYTILE
360
CED7D
  3
REFLECTIONTILE
360
CED7C
  3
REFRACTIONTILE
360
CED7E
  3
SPECULARTILE
360
CED7B
  0
DICTIONARY
  5
CED70
330
CED6F
100
AcDbDictionary
280
     1
281
     1
  3
ACAD_XREC_ROUNDTRIP
360
DA317
  3
BUMPTILE
360
CED72
  3
DIFFUSETILE
360
CED71
  3
OPACITYTILE
360
CED75
  3
REFLECTIONTILE
360
CED74
  3
REFRACTIONTILE
360
CED76
  3
SPECULARTILE
360
CED73
  0
DICTIONARY
  5
CED80
330
CED7F
100
AcDbDictionary
280
     1
281
     1
  3
ACAD_XREC_ROUNDTRIP
360
DA319
  3
BUMPTILE
360
CED82
  3
DIFFUSETILE
360
CED81
  3
OPACITYTILE
360
CED85
  3
REFLECTIONTILE
360
CED84
  3
REFRACTIONTILE
360
CED86
  3
SPECULARTILE
360
CED83
  0
DICTIONARY
  5
D0C45
330
FB0
100
AcDbDictionary
280
     1
281
     1
  3
ACAD_ROUNDTRIP_2008_TABLESTYLE_CELLSTYLEMAP
360
DA329
  3
ACAD_XREC_ROUNDTRIP
360
DA338
  0
XRECORD
  5
DA333
102
{ACAD_REACTORS
330
DA332
102
}
330
DA332
100
AcDbXrecord
280
     1
102
SHADEPLOT
 70
     0
102
SHADEPLOTRESLEVEL
 70
     2
102
SHADEPLOTCUSTOMDPI
 70
   300
  0
XRECORD
  5
DA335
102
{ACAD_REACTORS
330
DA334
102
}
330
DA334
100
AcDbXrecord
280
     1
102
SHADEPLOT
 70
     0
102
SHADEPLOTRESLEVEL
 70
     2
102
SHADEPLOTCUSTOMDPI
 70
   300
  0
XRECORD
  5
DA337
102
{ACAD_REACTORS
330
DA336
102
}
330
DA336
100
AcDbXrecord
280
     1
102
SHADEPLOT
 70
     0
102
SHADEPLOTRESLEVEL
 70
     2
102
SHADEPLOTCUSTOMDPI
 70
   300
  0
XRECORD
  5
DA318
102
{ACAD_REACTORS
330
CED78
102
}
330
CED78
100
AcDbXrecord
280
     1
102
MATERIAL
148
0.0
149
0.0
149
0.0
 93
        0
 94
      127
282
     0
 72
     0
 77
     0
171
     0
175
     0
179
     0
273
     0
  0
XRECORD
  5
CED7A
102
{ACAD_REACTORS
330
CED78
102
}
330
CED78
100
AcDbXrecord
280
     1
270
     1
271
     1
  0
XRECORD
  5
CED79
102
{ACAD_REACTORS
330
CED78
102
}
330
CED78
100
AcDbXrecord
280
     1
270
     1
271
     1
  0
XRECORD
  5
CED7D
102
{ACAD_REACTORS
330
CED78
102
}
330
CED78
100
AcDbXrecord
280
     1
270
     1
271
     1
  0
XRECORD
  5
CED7C
102
{ACAD_REACTORS
330
CED78
102
}
330
CED78
100
AcDbXrecord
280
     1
270
     1
271
     1
  0
XRECORD
  5
CED7E
102
{ACAD_REACTORS
330
CED78
102
}
330
CED78
100
AcDbXrecord
280
     1
270
     1
271
     1
  0
XRECORD
  5
CED7B
102
{ACAD_REACTORS
330
CED78
102
}
330
CED78
100
AcDbXrecord
280
     1
270
     1
271
     1
  0
XRECORD
  5
DA317
102
{ACAD_REACTORS
330
CED70
102
}
330
CED70
100
AcDbXrecord
280
     1
102
MATERIAL
148
0.0
149
0.0
149
0.0
 93
        0
 94
      127
282
     0
 72
     0
 77
     0
171
     0
175
     0
179
     0
273
     0
  0
XRECORD
  5
CED72
102
{ACAD_REACTORS
330
CED70
102
}
330
CED70
100
AcDbXrecord
280
     1
270
     1
271
     1
  0
XRECORD
  5
CED71
102
{ACAD_REACTORS
330
CED70
102
}
330
CED70
100
AcDbXrecord
280
     1
270
     1
271
     1
  0
XRECORD
  5
CED75
102
{ACAD_REACTORS
330
CED70
102
}
330
CED70
100
AcDbXrecord
280
     1
270
     1
271
     1
  0
XRECORD
  5
CED74
102
{ACAD_REACTORS
330
CED70
102
}
330
CED70
100
AcDbXrecord
280
     1
270
     1
271
     1
  0
XRECORD
  5
CED76
102
{ACAD_REACTORS
330
CED70
102
}
330
CED70
100
AcDbXrecord
280
     1
270
     1
271
     1
  0
XRECORD
  5
CED73
102
{ACAD_REACTORS
330
CED70
102
}
330
CED70
100
AcDbXrecord
280
     1
270
     1
271
     1
  0
XRECORD
  5
DA319
102
{ACAD_REACTORS
330
CED80
102
}
330
CED80
100
AcDbXrecord
280
     1
102
MATERIAL
148
0.0
149
0.0
149
0.0
 93
        0
 94
      127
282
     0
 72
     0
 77
     0
171
     0
175
     0
179
     0
273
     0
  0
XRECORD
  5
CED82
102
{ACAD_REACTORS
330
CED80
102
}
330
CED80
100
AcDbXrecord
280
     1
270
     1
271
     1
  0
XRECORD
  5
CED81
102
{ACAD_REACTORS
330
CED80
102
}
330
CED80
100
AcDbXrecord
280
     1
270
     1
271
     1
  0
XRECORD
  5
CED85
102
{ACAD_REACTORS
330
CED80
102
}
330
CED80
100
AcDbXrecord
280
     1
270
     1
271
     1
  0
XRECORD
  5
CED84
102
{ACAD_REACTORS
330
CED80
102
}
330
CED80
100
AcDbXrecord
280
     1
270
     1
271
     1
  0
XRECORD
  5
CED86
102
{ACAD_REACTORS
330
CED80
102
}
330
CED80
100
AcDbXrecord
280
     1
270
     1
271
     1
  0
XRECORD
  5
CED83
102
{ACAD_REACTORS
330
CED80
102
}
330
CED80
100
AcDbXrecord
280
     1
270
     1
271
     1
  0
CELLSTYLEMAP
  5
DA329
102
{ACAD_REACTORS
330
D0C45
102
}
330
D0C45
100
AcDbCellStyleMap
 90
        3
300
CELLSTYLE
  1
TABLEFORMAT_BEGIN
 90
        5
170
     1
 91
        0
 92
    32768
 62
   257
 93
        1
300
CONTENTFORMAT
  1
CONTENTFORMAT_BEGIN
 90
        0
 91
        0
 92
        4
 93
        0
300

 40
0.0
140
1.0
 94
        5
 62
     0
340
11
144
0.25
309
CONTENTFORMAT_END
171
     1
301
MARGIN
  1
CELLMARGIN_BEGIN
 40
0.06
 40
0.06
 40
0.06
 40
0.06
 40
0.18
 40
0.18
309
CELLMARGIN_END
 94
        6
 95
        1
302
GRIDFORMAT
  1
GRIDFORMAT_BEGIN
 90
        0
 91
        1
 62
     0
 92
       -2
340
0
 93
        0
 40
0.045
309
GRIDFORMAT_END
 95
        2
302
GRIDFORMAT
  1
GRIDFORMAT_BEGIN
 90
        0
 91
        1
 62
     0
 92
       -2
340
0
 93
        0
 40
0.045
309
GRIDFORMAT_END
 95
        4
302
GRIDFORMAT
  1
GRIDFORMAT_BEGIN
 90
        0
 91
        1
 62
     0
 92
       -2
340
0
 93
        0
 40
0.045
309
GRIDFORMAT_END
 95
        8
302
GRIDFORMAT
  1
GRIDFORMAT_BEGIN
 90
        0
 91
        1
 62
     0
 92
       -2
340
0
 93
        0
 40
0.045
309
GRIDFORMAT_END
 95
       16
302
GRIDFORMAT
  1
GRIDFORMAT_BEGIN
 90
        0
 91
        1
 62
     0
 92
       -2
340
0
 93
        0
 40
0.045
309
GRIDFORMAT_END
 95
       32
302
GRIDFORMAT
  1
GRIDFORMAT_BEGIN
 90
        0
 91
        1
 62
     0
 92
       -2
340
0
 93
        0
 40
0.045
309
GRIDFORMAT_END
309
TABLEFORMAT_END
  1
CELLSTYLE_BEGIN
 90
        1
 91
        1
300
_TITLE
309
CELLSTYLE_END
300
CELLSTYLE
  1
TABLEFORMAT_BEGIN
 90
        5
170
     1
 91
        0
 92
        0
 62
   257
 93
        1
300
CONTENTFORMAT
  1
CONTENTFORMAT_BEGIN
 90
        0
 91
        0
 92
        4
 93
        0
300

 40
0.0
140
1.0
 94
        5
 62
     0
340
11
144
0.18
309
CONTENTFORMAT_END
171
     1
301
MARGIN
  1
CELLMARGIN_BEGIN
 40
0.06
 40
0.06
 40
0.06
 40
0.06
 40
0.18
 40
0.18
309
CELLMARGIN_END
 94
        6
 95
        1
302
GRIDFORMAT
  1
GRIDFORMAT_BEGIN
 90
        0
 91
        1
 62
     0
 92
       -2
340
0
 93
        0
 40
0.045
309
GRIDFORMAT_END
 95
        2
302
GRIDFORMAT
  1
GRIDFORMAT_BEGIN
 90
        0
 91
        1
 62
     0
 92
       -2
340
0
 93
        0
 40
0.045
309
GRIDFORMAT_END
 95
        4
302
GRIDFORMAT
  1
GRIDFORMAT_BEGIN
 90
        0
 91
        1
 62
     0
 92
       -2
340
0
 93
        0
 40
0.045
309
GRIDFORMAT_END
 95
        8
302
GRIDFORMAT
  1
GRIDFORMAT_BEGIN
 90
        0
 91
        1
 62
     0
 92
       -2
340
0
 93
        0
 40
0.045
309
GRIDFORMAT_END
 95
       16
302
GRIDFORMAT
  1
GRIDFORMAT_BEGIN
 90
        0
 91
        1
 62
     0
 92
       -2
340
0
 93
        0
 40
0.045
309
GRIDFORMAT_END
 95
       32
302
GRIDFORMAT
  1
GRIDFORMAT_BEGIN
 90
        0
 91
        1
 62
     0
 92
       -2
340
0
 93
        0
 40
0.045
309
GRIDFORMAT_END
309
TABLEFORMAT_END
  1
CELLSTYLE_BEGIN
 90
        2
 91
        1
300
_HEADER
309
CELLSTYLE_END
300
CELLSTYLE
  1
TABLEFORMAT_BEGIN
 90
        5
170
     1
 91
        0
 92
        0
 62
   257
 93
        1
300
CONTENTFORMAT
  1
CONTENTFORMAT_BEGIN
 90
        0
 91
        0
 92
        4
 93
        0
300

 40
0.0
140
1.0
 94
        2
 62
     0
340
11
144
0.18
309
CONTENTFORMAT_END
171
     1
301
MARGIN
  1
CELLMARGIN_BEGIN
 40
0.06
 40
0.06
 40
0.06
 40
0.06
 40
0.18
 40
0.18
309
CELLMARGIN_END
 94
        6
 95
        1
302
GRIDFORMAT
  1
GRIDFORMAT_BEGIN
 90
        0
 91
        1
 62
     0
 92
       -2
340
0
 93
        0
 40
0.045
309
GRIDFORMAT_END
 95
        2
302
GRIDFORMAT
  1
GRIDFORMAT_BEGIN
 90
        0
 91
        1
 62
     0
 92
       -2
340
0
 93
        0
 40
0.045
309
GRIDFORMAT_END
 95
        4
302
GRIDFORMAT
  1
GRIDFORMAT_BEGIN
 90
        0
 91
        1
 62
     0
 92
       -2
340
0
 93
        0
 40
0.045
309
GRIDFORMAT_END
 95
        8
302
GRIDFORMAT
  1
GRIDFORMAT_BEGIN
 90
        0
 91
        1
 62
     0
 92
       -2
340
0
 93
        0
 40
0.045
309
GRIDFORMAT_END
 95
       16
302
GRIDFORMAT
  1
GRIDFORMAT_BEGIN
 90
        0
 91
        1
 62
     0
 92
       -2
340
0
 93
        0
 40
0.045
309
GRIDFORMAT_END
 95
       32
302
GRIDFORMAT
  1
GRIDFORMAT_BEGIN
 90
        0
 91
        1
 62
     0
 92
       -2
340
0
 93
        0
 40
0.045
309
GRIDFORMAT_END
309
TABLEFORMAT_END
  1
CELLSTYLE_BEGIN
 90
        3
 91
        2
300
_DATA
309
CELLSTYLE_END
  0
XRECORD
  5
DA338
102
{ACAD_REACTORS
330
D0C45
102
}
330
D0C45
100
AcDbXrecord
280
     1
102
ACAD_ROUNDTRIP_PRE2007_TABLESTYLE
 90
        4
 91
        0
  1

 92
        4
 93
        0
  2

 94
        4
 95
        0
  3

  0
ENDSEC
  0
EOF
