  0
SECTION
  2
HEADER
  9
$ACADVER
  1
AC1015
  9
$ACADMAINTVER
 70
    20
  9
$DWGCODEPAGE
  3
ANSI_936
  9
$INSBASE
 10
0.0
 20
0.0
 30
0.0
  9
$EXTMIN
 10
102209.6591716261
 20
-169686.0090776739
 30
-0.0000000349181948
  9
$EXTMAX
 10
103785.3312481853
 20
-168028.8820179178
 30
0.0000000814935747
  9
$LIMMIN
 10
0.0
 20
0.0
  9
$LIMMAX
 10
12.0
 20
9.0
  9
$ORTHOMODE
 70
     0
  9
$REGENMODE
 70
     1
  9
$FILLMODE
 70
     1
  9
$QTEXTMODE
 70
     0
  9
$MIRRTEXT
 70
     0
  9
$LTSCALE
 40
1.0
  9
$ATTMODE
 70
     1
  9
$TEXTSIZE
 40
0.2
  9
$TRACEWID
 40
0.05
  9
$TEXTSTYLE
  7
Standard
  9
$CLAYER
  8
标注
  9
$CELTYPE
  6
ByLayer
  9
$CECOLOR
 62
   256
  9
$CELTSCALE
 40
5.0
  9
$DISPSILH
 70
     0
  9
$DIMSCALE
 40
1.0
  9
$DIMASZ
 40
16.0
  9
$DIMEXO
 40
7.0
  9
$DIMDLI
 40
0.38
  9
$DIMRND
 40
0.0
  9
$DIMDLE
 40
0.0
  9
$DIMEXE
 40
7.0
  9
$DIMTP
 40
0.0
  9
$DIMTM
 40
0.0
  9
$DIMTXT
 40
20.0
  9
$DIMCEN
 40
2.5
  9
$DIMTSZ
 40
0.0
  9
$DIMTOL
 70
     0
  9
$DIMLIM
 70
     0
  9
$DIMTIH
 70
     0
  9
$DIMTOH
 70
     0
  9
$DIMSE1
 70
     0
  9
$DIMSE2
 70
     0
  9
$DIMTAD
 70
     0
  9
$DIMZIN
 70
     8
  9
$DIMBLK
  1

  9
$DIMASO
 70
     1
  9
$DIMSHO
 70
     1
  9
$DIMPOST
  1

  9
$DIMAPOST
  1
"
  9
$DIMALT
 70
     0
  9
$DIMALTD
 70
     3
  9
$DIMALTF
 40
0.03937
  9
$DIMLFAC
 40
1.0
  9
$DIMTOFL
 70
     1
  9
$DIMTVP
 40
0.0
  9
$DIMTIX
 70
     0
  9
$DIMSOXD
 70
     0
  9
$DIMSAH
 70
     0
  9
$DIMBLK1
  1

  9
$DIMBLK2
  1

  9
$DIMSTYLE
  2
副本Standard
  9
$DIMCLRD
 70
   256
  9
$DIMCLRE
 70
   256
  9
$DIMCLRT
 70
   256
  9
$DIMTFAC
 40
1.0
  9
$DIMGAP
 40
1.0
  9
$DIMJUST
 70
     0
  9
$DIMSD1
 70
     0
  9
$DIMSD2
 70
     0
  9
$DIMTOLJ
 70
     1
  9
$DIMTZIN
 70
     0
  9
$DIMALTZ
 70
     0
  9
$DIMALTTZ
 70
     0
  9
$DIMUPT
 70
     0
  9
$DIMDEC
 70
     1
  9
$DIMTDEC
 70
     1
  9
$DIMALTU
 70
     7
  9
$DIMALTTD
 70
     3
  9
$DIMTXSTY
  7
Standard
  9
$DIMAUNIT
 70
     0
  9
$DIMADEC
 70
     1
  9
$DIMALTRND
 40
0.0
  9
$DIMAZIN
 70
     2
  9
$DIMDSEP
 70
    44
  9
$DIMATFIT
 70
     3
  9
$DIMFRAC
 70
     0
  9
$DIMLDRBLK
  1

  9
$DIMLUNIT
 70
     2
  9
$DIMLWD
 70
    -2
  9
$DIMLWE
 70
    -2
  9
$DIMTMOVE
 70
     0
  9
$LUNITS
 70
     2
  9
$LUPREC
 70
     4
  9
$SKETCHINC
 40
0.1
  9
$FILLETRAD
 40
35.0
  9
$AUNITS
 70
     0
  9
$AUPREC
 70
     0
  9
$MENU
  1
.
  9
$ELEVATION
 40
0.0
  9
$PELEVATION
 40
0.0
  9
$THICKNESS
 40
0.0
  9
$LIMCHECK
 70
     0
  9
$CHAMFERA
 40
26.6
  9
$CHAMFERB
 40
26.6
  9
$CHAMFERC
 40
0.0
  9
$CHAMFERD
 40
0.0
  9
$SKPOLY
 70
     0
  9
$TDCREATE
 40
2454355.343801713
  9
$TDUCREATE
 40
2454355.010468380
  9
$TDUPDATE
 40
2457938.592874560
  9
$TDUUPDATE
 40
2457938.259541227
  9
$TDINDWG
 40
8.8460938889
  9
$TDUSRTIMER
 40
8.8460937963
  9
$USRTIMER
 70
     1
  9
$ANGBASE
 50
0.0
  9
$ANGDIR
 70
     0
  9
$PDMODE
 70
     0
  9
$PDSIZE
 40
0.0
  9
$PLINEWID
 40
0.0
  9
$SPLFRAME
 70
     0
  9
$SPLINETYPE
 70
     6
  9
$SPLINESEGS
 70
     8
  9
$HANDSEED
  5
D7F31
  9
$SURFTAB1
 70
     6
  9
$SURFTAB2
 70
     6
  9
$SURFTYPE
 70
     6
  9
$SURFU
 70
     6
  9
$SURFV
 70
     6
  9
$UCSBASE
  2

  9
$UCSNAME
  2

  9
$UCSORG
 10
0.0
 20
0.0
 30
0.0
  9
$UCSXDIR
 10
1.0
 20
0.0
 30
0.0
  9
$UCSYDIR
 10
0.0
 20
1.0
 30
0.0
  9
$UCSORTHOREF
  2

  9
$UCSORTHOVIEW
 70
     0
  9
$UCSORGTOP
 10
0.0
 20
0.0
 30
0.0
  9
$UCSORGBOTTOM
 10
0.0
 20
0.0
 30
0.0
  9
$UCSORGLEFT
 10
0.0
 20
0.0
 30
0.0
  9
$UCSORGRIGHT
 10
0.0
 20
0.0
 30
0.0
  9
$UCSORGFRONT
 10
0.0
 20
0.0
 30
0.0
  9
$UCSORGBACK
 10
0.0
 20
0.0
 30
0.0
  9
$PUCSBASE
  2

  9
$PUCSNAME
  2

  9
$PUCSORG
 10
0.0
 20
0.0
 30
0.0
  9
$PUCSXDIR
 10
1.0
 20
0.0
 30
0.0
  9
$PUCSYDIR
 10
0.0
 20
1.0
 30
0.0
  9
$PUCSORTHOREF
  2

  9
$PUCSORTHOVIEW
 70
     0
  9
$PUCSORGTOP
 10
0.0
 20
0.0
 30
0.0
  9
$PUCSORGBOTTOM
 10
0.0
 20
0.0
 30
0.0
  9
$PUCSORGLEFT
 10
0.0
 20
0.0
 30
0.0
  9
$PUCSORGRIGHT
 10
0.0
 20
0.0
 30
0.0
  9
$PUCSORGFRONT
 10
0.0
 20
0.0
 30
0.0
  9
$PUCSORGBACK
 10
0.0
 20
0.0
 30
0.0
  9
$USERI1
 70
     0
  9
$USERI2
 70
     0
  9
$USERI3
 70
     0
  9
$USERI4
 70
     0
  9
$USERI5
 70
     0
  9
$USERR1
 40
0.0
  9
$USERR2
 40
0.0
  9
$USERR3
 40
0.0
  9
$USERR4
 40
0.0
  9
$USERR5
 40
2.5
  9
$WORLDVIEW
 70
     1
  9
$SHADEDGE
 70
     3
  9
$SHADEDIF
 70
    70
  9
$TILEMODE
 70
     1
  9
$MAXACTVP
 70
    64
  9
$PINSBASE
 10
0.0
 20
0.0
 30
0.0
  9
$PLIMCHECK
 70
     0
  9
$PEXTMIN
 10
0.0
 20
0.0
 30
0.0
  9
$PEXTMAX
 10
0.0
 20
0.0
 30
0.0
  9
$PLIMMIN
 10
0.0
 20
0.0
  9
$PLIMMAX
 10
12.0
 20
9.0
  9
$UNITMODE
 70
     0
  9
$VISRETAIN
 70
     1
  9
$PLINEGEN
 70
     0
  9
$PSLTSCALE
 70
     1
  9
$TREEDEPTH
 70
  3020
  9
$CMLSTYLE
  2
Standard
  9
$CMLJUST
 70
     0
  9
$CMLSCALE
 40
1.0
  9
$PROXYGRAPHICS
 70
     1
  9
$MEASUREMENT
 70
     0
  9
$CELWEIGHT
370
    -1
  9
$ENDCAPS
280
     0
  9
$JOINSTYLE
280
     0
  9
$LWDISPLAY
290
     0
  9
$INSUNITS
 70
     4
  9
$HYPERLINKBASE
  1

  9
$STYLESHEET
  1
MONOCHROME.CTB
  9
$XEDIT
290
     1
  9
$CEPSNTYPE
380
     0
  9
$PSTYLEMODE
290
     1
  9
$FINGERPRINTGUID
  2
{35BD88C0-9548-11D2-9A29-0060089B3A3F}
  9
$VERSIONGUID
  2
{69DE522F-D91C-46EE-8F12-158E9E698EA5}
  9
$EXTNAMES
290
     1
  9
$PSVPSCALE
 40
0.0
  9
$OLESTARTUP
290
     0
  0
ENDSEC
  0
SECTION
  2
CLASSES
  0
CLASS
  1
ACDBDICTIONARYWDFLT
  2
AcDbDictionaryWithDefault
  3
ObjectDBX Classes
 90
        0
280
     0
281
     0
  0
CLASS
  1
ACDBPLACEHOLDER
  2
AcDbPlaceHolder
  3
ObjectDBX Classes
 90
        0
280
     0
281
     0
  0
CLASS
  1
LAYOUT
  2
AcDbLayout
  3
ObjectDBX Classes
 90
        0
280
     0
281
     0
  0
CLASS
  1
DICTIONARYVAR
  2
AcDbDictionaryVar
  3
ObjectDBX Classes
 90
        0
280
     0
281
     0
  0
CLASS
  1
SORTENTSTABLE
  2
AcDbSortentsTable
  3
ObjectDBX Classes
 90
        0
280
     0
281
     0
  0
CLASS
  1
DIMASSOC
  2
AcDbDimAssoc
  3
"AcDbDimAssoc|Product Desc:     AcDim ARX App For Dimension|Company:          Autodesk, Inc.|WEB Address:      www.autodesk.com"
 90
        0
280
     0
281
     0
  0
CLASS
  1
TABLESTYLE
  2
AcDbTableStyle
  3
ObjectDBX Classes
 90
     4095
280
     0
281
     0
  0
CLASS
  1
VLO-VL
  2
vlo_VL
  3
VL|AutoLISP based application
 90
      129
280
     0
281
     0
  0
CLASS
  1
MATERIAL
  2
AcDbMaterial
  3
ObjectDBX Classes
 90
     1153
280
     0
281
     0
  0
CLASS
  1
VISUALSTYLE
  2
AcDbVisualStyle
  3
ObjectDBX Classes
 90
     4095
280
     0
281
     0
  0
CLASS
  1
SCALE
  2
AcDbScale
  3
ObjectDBX Classes
 90
     1153
280
     0
281
     0
  0
CLASS
  1
MLEADERSTYLE
  2
AcDbMLeaderStyle
  3
ACDB_MLEADERSTYLE_CLASS
 90
     4095
280
     0
281
     0
  0
CLASS
  1
CELLSTYLEMAP
  2
AcDbCellStyleMap
  3
ObjectDBX Classes
 90
     1152
280
     0
281
     0
  0
ENDSEC
  0
SECTION
  2
TABLES
  0
TABLE
  2
VPORT
  5
8
330
0
100
AcDbSymbolTable
 70
     1
  0
VPORT
  5
CED6D
330
8
100
AcDbSymbolTableRecord
100
AcDbViewportTableRecord
  2
*Active
 70
     0
 10
0.0
 20
0.0
 11
1.0
 21
1.0
 12
102997.4952099057
 22
-168857.4455477958
 13
0.0
 23
0.0
 14
0.5
 24
0.5
 15
0.5
 25
0.5
 16
0.0
 26
0.0
 36
1.0
 17
0.0
 27
0.0
 37
0.0
 40
1669.371840985783
 41
2.241676942046855
 42
50.0
 43
0.0
 44
0.0
 50
0.0
 51
0.0
 71
     0
 72
  1000
 73
     1
 74
     3
 75
     0
 76
     0
 77
     0
 78
     0
281
     0
 65
     1
110
0.0
120
0.0
130
0.0
111
1.0
121
0.0
131
0.0
112
0.0
122
1.0
132
0.0
 79
     0
146
0.0
  0
ENDTAB
  0
TABLE
  2
LTYPE
  5
5
330
0
100
AcDbSymbolTable
 70
     3
  0
LTYPE
  5
14
330
5
100
AcDbSymbolTableRecord
100
AcDbLinetypeTableRecord
  2
ByBlock
 70
     0
  3

 72
    65
 73
     0
 40
0.0
  0
LTYPE
  5
15
330
5
100
AcDbSymbolTableRecord
100
AcDbLinetypeTableRecord
  2
ByLayer
 70
     0
  3

 72
    65
 73
     0
 40
0.0
  0
LTYPE
  5
16
330
5
100
AcDbSymbolTableRecord
100
AcDbLinetypeTableRecord
  2
Continuous
 70
     0
  3
Solid line
 72
    65
 73
     0
 40
0.0
  0
LTYPE
  5
98
330
5
100
AcDbSymbolTableRecord
100
AcDbLinetypeTableRecord
  2
HIDDEN2
 70
     0
  3
Hidden (.5x) _ _ _ _ _ _ _ _ _ _ _ _ _ _ _ _ _
 72
    65
 73
     2
 40
4.762499999999998
 49
3.174999999999998
 74
     0
 49
-1.587499999999999
 74
     0
  0
ENDTAB
  0
TABLE
  2
LAYER
  5
2
102
{ACAD_XDICTIONARY
360
AB
102
}
330
0
100
AcDbSymbolTable
 70
     6
  0
LAYER
  5
10
102
{ACAD_XDICTIONARY
360
CF251
102
}
330
2
100
AcDbSymbolTableRecord
100
AcDbLayerTableRecord
  2
0
 70
     0
 62
     7
  6
Continuous
370
    18
390
F
  0
LAYER
  5
9D
102
{ACAD_XDICTIONARY
360
CF259
102
}
330
2
100
AcDbSymbolTableRecord
100
AcDbLayerTableRecord
  2
虚线
 70
     0
 62
     4
  6
HIDDEN2
370
    18
390
F
  0
LAYER
  5
582
330
2
100
AcDbSymbolTableRecord
100
AcDbLayerTableRecord
  2
Defpoints
 70
     0
 62
     7
  6
Continuous
290
     0
370
     9
390
F
  0
LAYER
  5
16DF9
102
{ACAD_XDICTIONARY
360
CF25D
102
}
330
2
100
AcDbSymbolTableRecord
100
AcDbLayerTableRecord
  2
标注
 70
     0
 62
    80
  6
Continuous
370
     5
390
F
1001
AcAecLayerStandard
1000

1000

  0
LAYER
  5
D5CE8
330
2
100
AcDbSymbolTableRecord
100
AcDbLayerTableRecord
  2
粗实线
 70
     0
 62
     7
  6
Continuous
370
    25
390
F
1001
AcAecLayerStandard
1000

1000

  0
ENDTAB
  0
TABLE
  2
STYLE
  5
3
330
0
100
AcDbSymbolTable
 70
     2
  0
STYLE
  5
11
330
3
100
AcDbSymbolTableRecord
100
AcDbTextStyleTableRecord
  2
Standard
 70
     0
 40
0.0
 41
1.0
 50
0.0
 71
     0
 42
0.2
  3
SimSun.ttf
  4

1001
ACAD
1000
SimSun
1071
    34306
  0
ENDTAB
  0
TABLE
  2
VIEW
  5
6
330
0
100
AcDbSymbolTable
 70
     0
  0
ENDTAB
  0
TABLE
  2
UCS
  5
7
330
0
100
AcDbSymbolTable
 70
     0
  0
ENDTAB
  0
TABLE
  2
APPID
  5
9
330
0
100
AcDbSymbolTable
 70
    19
  0
APPID
  5
12
330
9
100
AcDbSymbolTableRecord
100
AcDbRegAppTableRecord
  2
ACAD
 70
     0
  0
APPID
  5
A5
330
9
100
AcDbSymbolTableRecord
100
AcDbRegAppTableRecord
  2
AcAecLayerStandard
 70
     0
  0
APPID
  5
A6
330
9
100
AcDbSymbolTableRecord
100
AcDbRegAppTableRecord
  2
ACAD_DSTYLE_DIMEXT_LENGTH
 70
     0
  0
APPID
  5
A7
330
9
100
AcDbSymbolTableRecord
100
AcDbRegAppTableRecord
  2
ACAD_DSTYLE_DIMEXT_ENABLED
 70
     0
  0
APPID
  5
A8
330
9
100
AcDbSymbolTableRecord
100
AcDbRegAppTableRecord
  2
ACAD_DSTYLE_DIMJOGGED_JOGANGLE_SYMBOL
 70
     0
  0
APPID
  5
A9
330
9
100
AcDbSymbolTableRecord
100
AcDbRegAppTableRecord
  2
ACAD_DSTYLE_DIMARC_LENGTH_SYMBOL
 70
     0
  0
APPID
  5
AA
330
9
100
AcDbSymbolTableRecord
100
AcDbRegAppTableRecord
  2
ACAD_PSEXT
 70
     0
  0
APPID
  5
173
330
9
100
AcDbSymbolTableRecord
100
AcDbRegAppTableRecord
  2
DCO15
 70
     0
  0
APPID
  5
11D5
330
9
100
AcDbSymbolTableRecord
100
AcDbRegAppTableRecord
  2
ACAD_EXEMPT_FROM_CAD_STANDARDS
 70
     0
  0
APPID
  5
B456
330
9
100
AcDbSymbolTableRecord
100
AcDbRegAppTableRecord
  2
ACAD_DSTYLE_DIMTEXT_FILL
 70
     0
  0
APPID
  5
B459
330
9
100
AcDbSymbolTableRecord
100
AcDbRegAppTableRecord
  2
ACAD_DSTYLE_DIM_LINETYPE
 70
     0
  0
APPID
  5
B45A
330
9
100
AcDbSymbolTableRecord
100
AcDbRegAppTableRecord
  2
ACAD_DSTYLE_DIM_EXT1_LINETYPE
 70
     0
  0
APPID
  5
B45B
330
9
100
AcDbSymbolTableRecord
100
AcDbRegAppTableRecord
  2
ACAD_DSTYLE_DIM_EXT2_LINETYPE
 70
     0
  0
APPID
  5
CEDBC
330
9
100
AcDbSymbolTableRecord
100
AcDbRegAppTableRecord
  2
ACAD_MLEADERVER
 70
     0
  0
APPID
  5
CF35C
330
9
100
AcDbSymbolTableRecord
100
AcDbRegAppTableRecord
  2
ACAD_DSTYLE_DIMRADIAL_EXTENSION
 70
     0
  0
APPID
  5
CF43A
330
9
100
AcDbSymbolTableRecord
100
AcDbRegAppTableRecord
  2
ACAD_DSTYLE_DIMJAG
 70
     0
  0
APPID
  5
CF43B
330
9
100
AcDbSymbolTableRecord
100
AcDbRegAppTableRecord
  2
ACAD_DSTYLE_DIMTALN
 70
     0
  0
APPID
  5
D5B36
330
9
100
AcDbSymbolTableRecord
100
AcDbRegAppTableRecord
  2
AcDbBlockRepETag
 70
     0
  0
APPID
  5
D6F8C
330
9
100
AcDbSymbolTableRecord
100
AcDbRegAppTableRecord
  2
ACAD_DSTYLE_DIMBREAK
 70
     0
  0
ENDTAB
  0
TABLE
  2
DIMSTYLE
  5
A
330
0
100
AcDbSymbolTable
 70
     9
100
AcDbDimStyleTable
 71
     2
340
3BDB5
340
27
  0
DIMSTYLE
105
27
330
A
100
AcDbSymbolTableRecord
100
AcDbDimStyleTableRecord
  2
Standard
 70
     0
 41
20.0
 42
25.0
 44
8.0
 73
     0
 74
     0
 78
     8
 79
     2
140
20.0
147
5.0
172
     1
176
     3
177
     3
178
     3
179
     1
271
     1
272
     1
278
    44
340
11
1001
ACAD_DSTYLE_DIMJOGGED_JOGANGLE_SYMBOL
1070
   384
1040
0.7853981633974483
1001
ACAD_DSTYLE_DIMEXT_LENGTH
1070
   378
1040
8.0
  0
DIMSTYLE
105
3BDB5
102
{ACAD_REACTORS
330
D7919
330
D792D
330
D7947
330
D7961
330
D797B
330
D7995
330
D79A2
330
D79BC
330
D79E7
330
D79F7
330
D7A07
330
D7A17
330
D7A49
330
D7A59
330
D7A69
330
D7A79
330
D7A89
330
D7AC1
330
D7AEF
330
D7AFD
330
D7B2D
330
D7B5D
330
D7B6B
330
D79D7
330
D7A99
330
D7A27
102
}
330
A
100
AcDbSymbolTableRecord
100
AcDbDimStyleTableRecord
  2
副本Standard
 70
     0
  4
"
 41
16.0
 42
7.0
 44
7.0
 73
     0
 74
     0
 78
     8
 79
     2
140
20.0
141
2.5
143
0.03937
147
1.0
171
     3
172
     1
176
   256
177
   256
178
   256
179
     1
271
     1
272
     1
273
     7
274
     3
278
    44
340
11
1001
ACAD_DSTYLE_DIMJAG
1070
   388
1040
1.5
1001
ACAD_DSTYLE_DIMTALN
1070
   392
1070
     0
  0
ENDTAB
  0
TABLE
  2
BLOCK_RECORD
  5
1
330
0
100
AcDbSymbolTable
 70
    52
  0
BLOCK_RECORD
  5
1F
102
{ACAD_XDICTIONARY
360
118B
102
}
330
1
100
AcDbSymbolTableRecord
100
AcDbBlockTableRecord
  2
*Model_Space
340
22
  0
BLOCK_RECORD
  5
73
330
1
100
AcDbSymbolTableRecord
100
AcDbBlockTableRecord
  2
*Paper_Space
340
74
  0
BLOCK_RECORD
  5
78
330
1
100
AcDbSymbolTableRecord
100
AcDbBlockTableRecord
  2
*Paper_Space0
340
79
  0
BLOCK_RECORD
  5
D791C
330
1
100
AcDbSymbolTableRecord
100
AcDbBlockTableRecord
  2
*D2
340
0
  0
BLOCK_RECORD
  5
D792E
330
1
100
AcDbSymbolTableRecord
100
AcDbBlockTableRecord
  2
*D3
340
0
  0
BLOCK_RECORD
  5
D7948
330
1
100
AcDbSymbolTableRecord
100
AcDbBlockTableRecord
  2
*D4
340
0
  0
BLOCK_RECORD
  5
D7962
330
1
100
AcDbSymbolTableRecord
100
AcDbBlockTableRecord
  2
*D5
340
0
  0
BLOCK_RECORD
  5
D797C
330
1
100
AcDbSymbolTableRecord
100
AcDbBlockTableRecord
  2
*D6
340
0
  0
BLOCK_RECORD
  5
D7996
330
1
100
AcDbSymbolTableRecord
100
AcDbBlockTableRecord
  2
*D7
340
0
  0
BLOCK_RECORD
  5
D79A3
330
1
100
AcDbSymbolTableRecord
100
AcDbBlockTableRecord
  2
*D8
340
0
  0
BLOCK_RECORD
  5
D79BD
330
1
100
AcDbSymbolTableRecord
100
AcDbBlockTableRecord
  2
*D9
340
0
  0
BLOCK_RECORD
  5
D79D8
330
1
100
AcDbSymbolTableRecord
100
AcDbBlockTableRecord
  2
*D10
340
0
  0
BLOCK_RECORD
  5
D79E8
330
1
100
AcDbSymbolTableRecord
100
AcDbBlockTableRecord
  2
*D11
340
0
  0
BLOCK_RECORD
  5
D79F8
330
1
100
AcDbSymbolTableRecord
100
AcDbBlockTableRecord
  2
*D12
340
0
  0
BLOCK_RECORD
  5
D7A08
330
1
100
AcDbSymbolTableRecord
100
AcDbBlockTableRecord
  2
*D13
340
0
  0
BLOCK_RECORD
  5
D7A18
330
1
100
AcDbSymbolTableRecord
100
AcDbBlockTableRecord
  2
*D14
340
0
  0
BLOCK_RECORD
  5
D7A28
330
1
100
AcDbSymbolTableRecord
100
AcDbBlockTableRecord
  2
*D15
340
0
  0
BLOCK_RECORD
  5
D7A4A
330
1
100
AcDbSymbolTableRecord
100
AcDbBlockTableRecord
  2
*D16
340
0
  0
BLOCK_RECORD
  5
D7A5A
330
1
100
AcDbSymbolTableRecord
100
AcDbBlockTableRecord
  2
*D17
340
0
  0
BLOCK_RECORD
  5
D7A6A
330
1
100
AcDbSymbolTableRecord
100
AcDbBlockTableRecord
  2
*D18
340
0
  0
BLOCK_RECORD
  5
D7A7A
330
1
100
AcDbSymbolTableRecord
100
AcDbBlockTableRecord
  2
*D19
340
0
  0
BLOCK_RECORD
  5
D7A8A
330
1
100
AcDbSymbolTableRecord
100
AcDbBlockTableRecord
  2
*D20
340
0
  0
BLOCK_RECORD
  5
D7A9A
330
1
100
AcDbSymbolTableRecord
100
AcDbBlockTableRecord
  2
*D21
340
0
  0
BLOCK_RECORD
  5
D7AC2
330
1
100
AcDbSymbolTableRecord
100
AcDbBlockTableRecord
  2
*D22
340
0
  0
BLOCK_RECORD
  5
D7AF0
330
1
100
AcDbSymbolTableRecord
100
AcDbBlockTableRecord
  2
*D23
340
0
  0
BLOCK_RECORD
  5
D7AFE
330
1
100
AcDbSymbolTableRecord
100
AcDbBlockTableRecord
  2
*D24
340
0
  0
BLOCK_RECORD
  5
D7B2E
330
1
100
AcDbSymbolTableRecord
100
AcDbBlockTableRecord
  2
*D25
340
0
  0
BLOCK_RECORD
  5
D7B5E
330
1
100
AcDbSymbolTableRecord
100
AcDbBlockTableRecord
  2
*D26
340
0
  0
BLOCK_RECORD
  5
D7B6C
330
1
100
AcDbSymbolTableRecord
100
AcDbBlockTableRecord
  2
*D27
340
0
  0
ENDTAB
  0
ENDSEC
  0
SECTION
  2
BLOCKS
  0
BLOCK
  5
20
330
1F
100
AcDbEntity
  8
0
100
AcDbBlockBegin
  2
*Model_Space
 70
     0
 10
0.0
 20
0.0
 30
0.0
  3
*Model_Space
  1

  0
ENDBLK
  5
21
330
1F
100
AcDbEntity
  8
0
100
AcDbBlockEnd
  0
BLOCK
  5
75
330
73
100
AcDbEntity
 67
     1
  8
0
100
AcDbBlockBegin
  2
*Paper_Space
 70
     0
 10
0.0
 20
0.0
 30
0.0
  3
*Paper_Space
  1

  0
ENDBLK
  5
76
330
73
100
AcDbEntity
 67
     1
  8
0
100
AcDbBlockEnd
  0
BLOCK
  5
7A
330
78
100
AcDbEntity
 67
     1
  8
0
100
AcDbBlockBegin
  2
*Paper_Space0
 70
     0
 10
0.0
 20
0.0
 30
0.0
  3
*Paper_Space0
  1

  0
ENDBLK
  5
7B
330
78
100
AcDbEntity
 67
     1
  8
0
100
AcDbBlockEnd
  0
BLOCK
  5
D791D
330
D791C
100
AcDbEntity
  8
0
 48
5.0
100
AcDbBlockBegin
  2
*D2
 70
     1
 10
0.0
 20
0.0
 30
0.0
  3
*D2
  1

  0
LINE
  5
D7AB9
330
D791C
100
AcDbEntity
  8
标注
 48
5.0
370
    -2
100
AcDbLine
 10
102872.3470750704
 20
-168850.5679774257
 30
0.0
 11
102884.6353600319
 21
-168840.3211216785
 31
0.0
  0
LINE
  5
D7ABA
330
D791C
100
AcDbEntity
  8
标注
 48
5.0
370
    -2
100
AcDbLine
 10
102913.8200368155
 20
-168815.9848392787
 30
0.0
 11
102926.108321777
 21
-168805.7379835315
 31
0.0
  0
MTEXT
  5
D7ABB
102
{ACAD_XDICTIONARY
360
D7F2D
102
}
330
D791C
100
AcDbEntity
  8
标注
 48
5.0
100
AcDbMText
 10
102845.9205128459
 20
-168872.6043455486
 30
0.0
 40
20.0
 41
0.0
 71
     5
 72
     1
  1
\A1;{\fGulim|b0|i0|c129|p34;5-\U+22056}
 11
0.7680178100942854
 21
0.640428484202552
 31
0.0
 73
     1
 44
1.0
1001
ACAD
1000
MTEXTBEGIN
1070
    73
1070
     1
1070
    44
1040
1.0
1070
    74
1070
     0
1000
MTEXTEND
  0
LINE
  5
D7ABC
330
D791C
100
AcDbEntity
  8
标注
 48
5.0
370
    -2
100
AcDbLine
 10
102901.531751854
 20
-168826.231695026
 30
0.0
 11
102896.9236449934
 21
-168830.0742659311
 31
0.0
  0
SOLID
  5
D7ABD
330
D791C
100
AcDbEntity
  8
标注
 48
5.0
100
AcDbTrace
 10
102912.1122275243
 20
-168813.9367917852
 30
0.0
 11
102915.5278461067
 21
-168818.0328867724
 31
0.0
 12
102901.531751854
 22
-168826.231695026
 32
0.0
 13
102901.531751854
 23
-168826.231695026
 33
0.0
  0
SOLID
  5
D7ABE
330
D791C
100
AcDbEntity
  8
标注
 48
5.0
100
AcDbTrace
 10
102882.9275507407
 20
-168838.2730741849
 30
0.0
 11
102886.3431693231
 21
-168842.3691691721
 31
0.0
 12
102896.9236449934
 22
-168830.0742659311
 32
0.0
 13
102896.9236449934
 23
-168830.0742659311
 33
0.0
  0
POINT
  5
D7ABF
330
D791C
100
AcDbEntity
  8
Defpoints
 62
     0
 48
5.0
100
AcDbPoint
 10
102896.9236449934
 20
-168830.0742659311
 30
0.0
  0
POINT
  5
D7AC0
330
D791C
100
AcDbEntity
  8
Defpoints
 62
     0
 48
5.0
100
AcDbPoint
 10
102901.531751854
 20
-168826.231695026
 30
0.0
  0
ENDBLK
  5
D791E
330
D791C
100
AcDbEntity
  8
0
 48
5.0
100
AcDbBlockEnd
  0
BLOCK
  5
D792F
330
D792E
100
AcDbEntity
  8
0
 48
5.0
100
AcDbBlockBegin
  2
*D3
 70
     1
 10
0.0
 20
0.0
 30
0.0
  3
*D3
  1

  0
LINE
  5
D793C
330
D792E
100
AcDbEntity
  8
标注
 48
5.0
370
    -2
100
AcDbLine
 10
103096.7276984273
 20
-169031.6529804785
 30
0.0
 11
103265.9721276472
 21
-169031.6529804785
 31
0.0
  0
LINE
  5
D793D
330
D792E
100
AcDbEntity
  8
标注
 48
5.0
370
    -2
100
AcDbLine
 10
103096.727698426
 20
-168675.6529804785
 30
0.0
 11
103265.9721276472
 21
-168675.6529804785
 31
0.0
  0
LINE
  5
D793E
330
D792E
100
AcDbEntity
  8
标注
 48
5.0
370
    -2
100
AcDbLine
 10
103258.9721276472
 20
-169015.6529804785
 30
0.0
 11
103258.9721276472
 21
-168874.4307582563
 31
0.0
  0
LINE
  5
D793F
330
D792E
100
AcDbEntity
  8
标注
 48
5.0
370
    -2
100
AcDbLine
 10
103258.9721276472
 20
-168691.6529804785
 30
0.0
 11
103258.9721276472
 21
-168832.8752027008
 31
0.0
  0
SOLID
  5
D7940
330
D792E
100
AcDbEntity
  8
标注
 48
5.0
100
AcDbTrace
 10
103256.3054609805
 20
-169015.6529804785
 30
0.0
 11
103261.6387943139
 21
-169015.6529804785
 31
0.0
 12
103258.9721276472
 22
-169031.6529804785
 32
0.0
 13
103258.9721276472
 23
-169031.6529804785
 33
0.0
  0
SOLID
  5
D7941
330
D792E
100
AcDbEntity
  8
标注
 48
5.0
100
AcDbTrace
 10
103256.3054609805
 20
-168691.6529804785
 30
0.0
 11
103261.6387943139
 21
-168691.6529804785
 31
0.0
 12
103258.9721276472
 22
-168675.6529804785
 32
0.0
 13
103258.9721276472
 23
-168675.6529804785
 33
0.0
  0
MTEXT
  5
D7942
330
D792E
100
AcDbEntity
  8
标注
 48
5.0
100
AcDbMText
 10
103258.9721276472
 20
-168853.6529804785
 30
0.0
 40
20.0
 41
0.0
 71
     5
 72
     1
  1
\A1;356
 11
0.0000000000000001
 21
1.0
 31
0.0
 73
     1
 44
1.0
1001
ACAD
1000
MTEXTBEGIN
1070
    73
1070
     1
1070
    44
1040
1.0
1070
    74
1070
     0
1000
MTEXTEND
  0
POINT
  5
D7943
330
D792E
100
AcDbEntity
  8
Defpoints
 62
     0
 48
5.0
100
AcDbPoint
 10
103089.7276984273
 20
-169031.6529804785
 30
0.0
  0
POINT
  5
D7944
330
D792E
100
AcDbEntity
  8
Defpoints
 62
     0
 48
5.0
100
AcDbPoint
 10
103089.7276984261
 20
-168675.6529804785
 30
0.0
  0
POINT
  5
D7945
330
D792E
100
AcDbEntity
  8
Defpoints
 62
     0
 48
5.0
100
AcDbPoint
 10
103258.9721276472
 20
-168675.6529804785
 30
0.0
  0
ENDBLK
  5
D7930
330
D792E
100
AcDbEntity
  8
0
 48
5.0
100
AcDbBlockEnd
  0
BLOCK
  5
D7949
330
D7948
100
AcDbEntity
  8
0
 48
5.0
100
AcDbBlockBegin
  2
*D4
 70
     1
 10
0.0
 20
0.0
 30
0.0
  3
*D4
  1

  0
LINE
  5
D7956
330
D7948
100
AcDbEntity
  8
标注
 48
5.0
370
    -2
100
AcDbLine
 10
103096.7276984261
 20
-169035.6529804786
 30
0.0
 11
103311.8347128923
 21
-169035.6529804786
 31
0.0
  0
LINE
  5
D7957
330
D7948
100
AcDbEntity
  8
标注
 48
5.0
370
    -2
100
AcDbLine
 10
103096.7276984266
 20
-168671.6529804785
 30
0.0
 11
103311.8347128923
 21
-168671.6529804785
 31
0.0
  0
LINE
  5
D7958
330
D7948
100
AcDbEntity
  8
标注
 48
5.0
370
    -2
100
AcDbLine
 10
103304.8347128923
 20
-169019.6529804786
 30
0.0
 11
103304.8347128923
 21
-168874.6529804786
 31
0.0
  0
LINE
  5
D7959
330
D7948
100
AcDbEntity
  8
标注
 48
5.0
370
    -2
100
AcDbLine
 10
103304.8347128923
 20
-168687.6529804785
 30
0.0
 11
103304.8347128923
 21
-168832.6529804785
 31
0.0
  0
SOLID
  5
D795A
330
D7948
100
AcDbEntity
  8
标注
 48
5.0
100
AcDbTrace
 10
103302.1680462256
 20
-169019.6529804786
 30
0.0
 11
103307.501379559
 21
-169019.6529804786
 31
0.0
 12
103304.8347128923
 22
-169035.6529804786
 32
0.0
 13
103304.8347128923
 23
-169035.6529804786
 33
0.0
  0
SOLID
  5
D795B
330
D7948
100
AcDbEntity
  8
标注
 48
5.0
100
AcDbTrace
 10
103302.1680462256
 20
-168687.6529804785
 30
0.0
 11
103307.501379559
 21
-168687.6529804785
 31
0.0
 12
103304.8347128923
 22
-168671.6529804785
 32
0.0
 13
103304.8347128923
 23
-168671.6529804785
 33
0.0
  0
MTEXT
  5
D795C
330
D7948
100
AcDbEntity
  8
标注
 48
5.0
100
AcDbMText
 10
103304.8347128923
 20
-168853.6529804785
 30
0.0
 40
20.0
 41
0.0
 71
     5
 72
     1
  1
\A1;364
 11
0.0000000000000001
 21
1.0
 31
0.0
 73
     1
 44
1.0
1001
ACAD
1000
MTEXTBEGIN
1070
    73
1070
     1
1070
    44
1040
1.0
1070
    74
1070
     0
1000
MTEXTEND
  0
POINT
  5
D795D
330
D7948
100
AcDbEntity
  8
Defpoints
 62
     0
 48
5.0
100
AcDbPoint
 10
103089.7276984261
 20
-169035.6529804786
 30
0.0
  0
POINT
  5
D795E
330
D7948
100
AcDbEntity
  8
Defpoints
 62
     0
 48
5.0
100
AcDbPoint
 10
103089.7276984266
 20
-168671.6529804785
 30
0.0
  0
POINT
  5
D795F
330
D7948
100
AcDbEntity
  8
Defpoints
 62
     0
 48
5.0
100
AcDbPoint
 10
103304.8347128923
 20
-168671.6529804785
 30
0.0
  0
ENDBLK
  5
D794A
330
D7948
100
AcDbEntity
  8
0
 48
5.0
100
AcDbBlockEnd
  0
BLOCK
  5
D7963
330
D7962
100
AcDbEntity
  8
0
 48
5.0
100
AcDbBlockBegin
  2
*D5
 70
     1
 10
0.0
 20
0.0
 30
0.0
  3
*D5
  1

  0
LINE
  5
D7B23
330
D7962
100
AcDbEntity
  8
标注
 48
5.0
370
    -2
100
AcDbLine
 10
102751.7276984263
 20
-169031.6529804785
 30
0.0
 11
102490.9971608334
 21
-169031.6529804785
 31
0.0
  0
LINE
  5
D7B24
330
D7962
100
AcDbEntity
  8
标注
 48
5.0
370
    -2
100
AcDbLine
 10
102751.7276984281
 20
-168624.6529804787
 30
0.0
 11
102490.9971608334
 21
-168624.6529804787
 31
0.0
  0
LINE
  5
D7B25
330
D7962
100
AcDbEntity
  8
标注
 48
5.0
370
    -2
100
AcDbLine
 10
102497.9971608334
 20
-169015.6529804785
 30
0.0
 11
102497.9971608334
 21
-168847.769183417
 31
0.0
  0
LINE
  5
D7B26
330
D7962
100
AcDbEntity
  8
标注
 48
5.0
370
    -2
100
AcDbLine
 10
102497.9971608334
 20
-168640.6529804787
 30
0.0
 11
102497.9971608334
 21
-168805.769183417
 31
0.0
  0
SOLID
  5
D7B27
330
D7962
100
AcDbEntity
  8
标注
 48
5.0
100
AcDbTrace
 10
102495.3304941667
 20
-169015.6529804785
 30
0.0
 11
102500.6638275001
 21
-169015.6529804785
 31
0.0
 12
102497.9971608334
 22
-169031.6529804785
 32
0.0
 13
102497.9971608334
 23
-169031.6529804785
 33
0.0
  0
SOLID
  5
D7B28
330
D7962
100
AcDbEntity
  8
标注
 48
5.0
100
AcDbTrace
 10
102495.3304941667
 20
-168640.6529804787
 30
0.0
 11
102500.6638275001
 21
-168640.6529804787
 31
0.0
 12
102497.9971608334
 22
-168624.6529804787
 32
0.0
 13
102497.9971608334
 23
-168624.6529804787
 33
0.0
  0
MTEXT
  5
D7B29
330
D7962
100
AcDbEntity
  8
标注
 48
5.0
100
AcDbMText
 10
102497.9971608334
 20
-168826.7691834169
 30
0.0
 40
20.0
 41
0.0
 71
     5
 72
     1
  1
\A1;407
 11
0.0000000000000001
 21
1.0
 31
0.0
 73
     1
 44
1.0
1001
ACAD
1000
MTEXTBEGIN
1070
    73
1070
     1
1070
    44
1040
1.0
1070
    74
1070
     0
1000
MTEXTEND
  0
POINT
  5
D7B2A
330
D7962
100
AcDbEntity
  8
Defpoints
 62
     0
 48
5.0
100
AcDbPoint
 10
102758.7276984263
 20
-169031.6529804785
 30
0.0
  0
POINT
  5
D7B2B
330
D7962
100
AcDbEntity
  8
Defpoints
 62
     0
 48
5.0
100
AcDbPoint
 10
102758.7276984281
 20
-168624.6529804787
 30
0.0
  0
POINT
  5
D7B2C
330
D7962
100
AcDbEntity
  8
Defpoints
 62
     0
 48
5.0
100
AcDbPoint
 10
102497.9971608334
 20
-168624.6529804787
 30
0.0
  0
ENDBLK
  5
D7964
330
D7962
100
AcDbEntity
  8
0
 48
5.0
100
AcDbBlockEnd
  0
BLOCK
  5
D797D
330
D797C
100
AcDbEntity
  8
0
 48
5.0
100
AcDbBlockBegin
  2
*D6
 70
     1
 10
0.0
 20
0.0
 30
0.0
  3
*D6
  1

  0
LINE
  5
D7B19
330
D797C
100
AcDbEntity
  8
标注
 48
5.0
370
    -2
100
AcDbLine
 10
102751.7276984264
 20
-169035.6529804786
 30
0.0
 11
102449.7183886074
 21
-169035.6529804786
 31
0.0
  0
LINE
  5
D7B1A
330
D797C
100
AcDbEntity
  8
标注
 48
5.0
370
    -2
100
AcDbLine
 10
102751.7276984214
 20
-168620.6529804787
 30
0.0
 11
102449.7183886074
 21
-168620.6529804787
 31
0.0
  0
LINE
  5
D7B1B
330
D797C
100
AcDbEntity
  8
标注
 48
5.0
370
    -2
100
AcDbLine
 10
102456.7183886074
 20
-169019.6529804786
 30
0.0
 11
102456.7183886074
 21
-168851.642783881
 31
0.0
  0
LINE
  5
D7B1C
330
D797C
100
AcDbEntity
  8
标注
 48
5.0
370
    -2
100
AcDbLine
 10
102456.7183886074
 20
-168636.6529804787
 30
0.0
 11
102456.7183886074
 21
-168809.7538949921
 31
0.0
  0
SOLID
  5
D7B1D
330
D797C
100
AcDbEntity
  8
标注
 48
5.0
100
AcDbTrace
 10
102454.0517219407
 20
-169019.6529804786
 30
0.0
 11
102459.3850552741
 21
-169019.6529804786
 31
0.0
 12
102456.7183886074
 22
-169035.6529804786
 32
0.0
 13
102456.7183886074
 23
-169035.6529804786
 33
0.0
  0
SOLID
  5
D7B1E
330
D797C
100
AcDbEntity
  8
标注
 48
5.0
100
AcDbTrace
 10
102454.0517219407
 20
-168636.6529804787
 30
0.0
 11
102459.3850552741
 21
-168636.6529804787
 31
0.0
 12
102456.7183886074
 22
-168620.6529804787
 32
0.0
 13
102456.7183886074
 23
-168620.6529804787
 33
0.0
  0
MTEXT
  5
D7B1F
330
D797C
100
AcDbEntity
  8
标注
 48
5.0
100
AcDbMText
 10
102456.7183886074
 20
-168830.6983394365
 30
0.0
 40
20.0
 41
0.0
 71
     5
 72
     1
  1
\A1;415
 11
0.0000000000000001
 21
1.0
 31
0.0
 73
     1
 44
1.0
1001
ACAD
1000
MTEXTBEGIN
1070
    73
1070
     1
1070
    44
1040
1.0
1070
    74
1070
     0
1000
MTEXTEND
  0
POINT
  5
D7B20
330
D797C
100
AcDbEntity
  8
Defpoints
 62
     0
 48
5.0
100
AcDbPoint
 10
102758.7276984264
 20
-169035.6529804786
 30
0.0
  0
POINT
  5
D7B21
330
D797C
100
AcDbEntity
  8
Defpoints
 62
     0
 48
5.0
100
AcDbPoint
 10
102758.7276984214
 20
-168620.6529804787
 30
0.0
  0
POINT
  5
D7B22
330
D797C
100
AcDbEntity
  8
Defpoints
 62
     0
 48
5.0
100
AcDbPoint
 10
102456.7183886074
 20
-168620.6529804787
 30
0.0
  0
ENDBLK
  5
D797E
330
D797C
100
AcDbEntity
  8
0
 48
5.0
100
AcDbBlockEnd
  0
BLOCK
  5
D7997
330
D7996
100
AcDbEntity
  8
0
 48
5.0
100
AcDbBlockBegin
  2
*D7
 70
     1
 10
0.0
 20
0.0
 30
0.0
  3
*D7
  1

  0
LINE
  5
D7999
330
D7996
100
AcDbEntity
  8
标注
 48
5.0
370
    -2
100
AcDbLine
 10
102530.7861611093
 20
-168640.6529804787
 30
0.0
 11
102530.7861611093
 21
-168656.6529804787
 31
0.0
  0
LINE
  5
D799A
330
D7996
100
AcDbEntity
  8
标注
 48
5.0
370
    -2
100
AcDbLine
 10
102530.7861611093
 20
-168604.6529804787
 30
0.0
 11
102530.7861611093
 21
-168588.6529804787
 31
0.0
  0
LINE
  5
D799B
330
D7996
100
AcDbEntity
  8
标注
 48
5.0
370
    -2
100
AcDbLine
 10
102530.7861611093
 20
-168624.6529804787
 30
0.0
 11
102530.7861611093
 21
-168620.6529804787
 31
0.0
  0
SOLID
  5
D799C
330
D7996
100
AcDbEntity
  8
标注
 48
5.0
100
AcDbTrace
 10
102528.1194944426
 20
-168640.6529804787
 30
0.0
 11
102533.452827776
 21
-168640.6529804787
 31
0.0
 12
102530.7861611093
 22
-168624.6529804787
 32
0.0
 13
102530.7861611093
 23
-168624.6529804787
 33
0.0
  0
SOLID
  5
D799D
330
D7996
100
AcDbEntity
  8
标注
 48
5.0
100
AcDbTrace
 10
102528.1194944426
 20
-168604.6529804787
 30
0.0
 11
102533.452827776
 21
-168604.6529804787
 31
0.0
 12
102530.7861611093
 22
-168620.6529804787
 32
0.0
 13
102530.7861611093
 23
-168620.6529804787
 33
0.0
  0
MTEXT
  5
D799E
330
D7996
100
AcDbEntity
  8
标注
 48
5.0
100
AcDbMText
 10
102530.7861611093
 20
-168581.5418693676
 30
0.0
 40
20.0
 41
0.0
 71
     5
 72
     1
  1
\A1;4
 11
0.0000000000000001
 21
1.0
 31
0.0
 73
     1
 44
1.0
1001
ACAD
1000
MTEXTBEGIN
1070
    73
1070
     1
1070
    44
1040
1.0
1070
    74
1070
     0
1000
MTEXTEND
  0
POINT
  5
D799F
330
D7996
100
AcDbEntity
  8
Defpoints
 62
     0
 48
5.0
100
AcDbPoint
 10
102530.7861611093
 20
-168624.6529804787
 30
0.0
  0
POINT
  5
D79A0
330
D7996
100
AcDbEntity
  8
Defpoints
 62
     0
 48
5.0
100
AcDbPoint
 10
102530.7861611093
 20
-168620.6529804787
 30
0.0
  0
POINT
  5
D79A1
330
D7996
100
AcDbEntity
  8
Defpoints
 62
     0
 48
5.0
100
AcDbPoint
 10
102530.7861611093
 20
-168620.6529804787
 30
0.0
  0
ENDBLK
  5
D7998
330
D7996
100
AcDbEntity
  8
0
 48
5.0
100
AcDbBlockEnd
  0
BLOCK
  5
D79A4
330
D79A3
100
AcDbEntity
  8
0
 48
5.0
100
AcDbBlockBegin
  2
*D8
 70
     1
 10
0.0
 20
0.0
 30
0.0
  3
*D8
  1

  0
LINE
  5
D7B53
330
D79A3
100
AcDbEntity
  8
标注
 48
5.0
370
    -2
100
AcDbLine
 10
102581.7276984237
 20
-168835.1529804761
 30
0.0
 11
102581.7276984237
 21
-169120.9327726855
 31
0.0
  0
LINE
  5
D7B54
330
D79A3
100
AcDbEntity
  8
标注
 48
5.0
370
    -2
100
AcDbLine
 10
103216.7276984237
 20
-168860.6529804777
 30
0.0
 11
103216.7276984237
 21
-169120.9327726855
 31
0.0
  0
LINE
  5
D7B55
330
D79A3
100
AcDbEntity
  8
标注
 48
5.0
370
    -2
100
AcDbLine
 10
102597.7276984238
 20
-169113.9327726855
 30
0.0
 11
102878.6120125894
 21
-169113.9327726855
 31
0.0
  0
LINE
  5
D7B56
330
D79A3
100
AcDbEntity
  8
标注
 48
5.0
370
    -2
100
AcDbLine
 10
103200.7276984237
 20
-169113.9327726855
 30
0.0
 11
102920.1675681449
 21
-169113.9327726855
 31
0.0
  0
SOLID
  5
D7B57
330
D79A3
100
AcDbEntity
  8
标注
 48
5.0
100
AcDbTrace
 10
102597.7276984238
 20
-169111.2661060189
 30
0.0
 11
102597.7276984238
 21
-169116.5994393521
 31
0.0
 12
102581.7276984237
 22
-169113.9327726855
 32
0.0
 13
102581.7276984237
 23
-169113.9327726855
 33
0.0
  0
SOLID
  5
D7B58
330
D79A3
100
AcDbEntity
  8
标注
 48
5.0
100
AcDbTrace
 10
103200.7276984237
 20
-169111.2661060189
 30
0.0
 11
103200.7276984237
 21
-169116.5994393521
 31
0.0
 12
103216.7276984237
 22
-169113.9327726855
 32
0.0
 13
103216.7276984237
 23
-169113.9327726855
 33
0.0
  0
MTEXT
  5
D7B59
330
D79A3
100
AcDbEntity
  8
标注
 48
5.0
100
AcDbMText
 10
102899.3897903671
 20
-169113.9327726855
 30
0.0
 40
20.0
 41
0.0
 71
     5
 72
     1
  1
\A1;635
 73
     1
 44
1.0
1001
ACAD
1000
MTEXTBEGIN
1070
    73
1070
     1
1070
    44
1040
1.0
1070
    74
1070
     0
1000
MTEXTEND
  0
POINT
  5
D7B5A
330
D79A3
100
AcDbEntity
  8
Defpoints
 62
     0
 48
5.0
100
AcDbPoint
 10
102581.7276984237
 20
-168828.1529804761
 30
0.0
  0
POINT
  5
D7B5B
330
D79A3
100
AcDbEntity
  8
Defpoints
 62
     0
 48
5.0
100
AcDbPoint
 10
103216.7276984237
 20
-168853.6529804777
 30
0.0
  0
POINT
  5
D7B5C
330
D79A3
100
AcDbEntity
  8
Defpoints
 62
     0
 48
5.0
100
AcDbPoint
 10
103216.7276984237
 20
-169113.9327726855
 30
0.0
  0
ENDBLK
  5
D79A5
330
D79A3
100
AcDbEntity
  8
0
 48
5.0
100
AcDbBlockEnd
  0
BLOCK
  5
D79BE
330
D79BD
100
AcDbEntity
  8
0
 48
5.0
100
AcDbBlockBegin
  2
*D9
 70
     1
 10
0.0
 20
0.0
 30
0.0
  3
*D9
  1

  0
LINE
  5
D7B49
330
D79BD
100
AcDbEntity
  8
标注
 48
5.0
370
    -2
100
AcDbLine
 10
102577.7276984237
 20
-168835.1529804761
 30
0.0
 11
102577.7276984237
 21
-169159.0264547939
 31
0.0
  0
LINE
  5
D7B4A
330
D79BD
100
AcDbEntity
  8
标注
 48
5.0
370
    -2
100
AcDbLine
 10
103220.7276984237
 20
-168860.6529804777
 30
0.0
 11
103220.7276984237
 21
-169159.0264547939
 31
0.0
  0
LINE
  5
D7B4B
330
D79BD
100
AcDbEntity
  8
标注
 48
5.0
370
    -2
100
AcDbLine
 10
102593.7276984238
 20
-169152.0264547939
 30
0.0
 11
102880.3135635328
 21
-169152.0264547939
 31
0.0
  0
LINE
  5
D7B4C
330
D79BD
100
AcDbEntity
  8
标注
 48
5.0
370
    -2
100
AcDbLine
 10
103204.7276984237
 20
-169152.0264547939
 30
0.0
 11
102921.8691190884
 21
-169152.0264547939
 31
0.0
  0
SOLID
  5
D7B4D
330
D79BD
100
AcDbEntity
  8
标注
 48
5.0
100
AcDbTrace
 10
102593.7276984238
 20
-169149.3597881273
 30
0.0
 11
102593.7276984238
 21
-169154.6931214606
 31
0.0
 12
102577.7276984237
 22
-169152.0264547939
 32
0.0
 13
102577.7276984237
 23
-169152.0264547939
 33
0.0
  0
SOLID
  5
D7B4E
330
D79BD
100
AcDbEntity
  8
标注
 48
5.0
100
AcDbTrace
 10
103204.7276984237
 20
-169149.3597881273
 30
0.0
 11
103204.7276984237
 21
-169154.6931214606
 31
0.0
 12
103220.7276984237
 22
-169152.0264547939
 32
0.0
 13
103220.7276984237
 23
-169152.0264547939
 33
0.0
  0
MTEXT
  5
D7B4F
330
D79BD
100
AcDbEntity
  8
标注
 48
5.0
100
AcDbMText
 10
102901.0913413106
 20
-169152.0264547939
 30
0.0
 40
20.0
 41
0.0
 71
     5
 72
     1
  1
\A1;643
 73
     1
 44
1.0
1001
ACAD
1000
MTEXTBEGIN
1070
    73
1070
     1
1070
    44
1040
1.0
1070
    74
1070
     0
1000
MTEXTEND
  0
POINT
  5
D7B50
330
D79BD
100
AcDbEntity
  8
Defpoints
 62
     0
 48
5.0
100
AcDbPoint
 10
102577.7276984237
 20
-168828.1529804761
 30
0.0
  0
POINT
  5
D7B51
330
D79BD
100
AcDbEntity
  8
Defpoints
 62
     0
 48
5.0
100
AcDbPoint
 10
103220.7276984237
 20
-168853.6529804777
 30
0.0
  0
POINT
  5
D7B52
330
D79BD
100
AcDbEntity
  8
Defpoints
 62
     0
 48
5.0
100
AcDbPoint
 10
103220.7276984237
 20
-169152.0264547939
 30
0.0
  0
ENDBLK
  5
D79BF
330
D79BD
100
AcDbEntity
  8
0
 48
5.0
100
AcDbBlockEnd
  0
BLOCK
  5
D79D9
330
D79D8
100
AcDbEntity
  8
0
 48
5.0
100
AcDbBlockBegin
  2
*D10
 70
     1
 10
0.0
 20
0.0
 30
0.0
  3
*D10
  1

  0
LINE
  5
D7DD2
330
D79D8
100
AcDbEntity
  8
标注
 48
5.0
370
    -2
100
AcDbLine
 10
102718.5287578971
 20
-168998.8179328939
 30
0.0
 11
102717.8643125991
 21
-169014.8041304545
 31
0.0
  0
MTEXT
  5
D7DD3
330
D79D8
100
AcDbEntity
  8
标注
 48
5.0
100
AcDbMText
 10
102719.9983816984
 20
-168963.4595723172
 30
0.0
 40
20.0
 41
0.0
 71
     5
 72
     1
  1
\A1;R1000
 11
0.0415278311221067
 21
0.9991373475365106
 31
0.0
 73
     1
 44
1.0
1001
ACAD
1000
MTEXTBEGIN
1070
    73
1070
     1
1070
    44
1040
1.0
1070
    74
1070
     0
1000
MTEXTEND
  0
SOLID
  5
D7DD4
330
D79D8
100
AcDbEntity
  8
标注
 48
5.0
100
AcDbTrace
 10
102715.199946339
 20
-169014.6933895715
 30
0.0
 11
102720.5286788592
 21
-169014.9148713375
 31
0.0
 12
102717.1998673012
 22
-169030.7903280151
 32
0.0
 13
102717.1998673012
 23
-169030.7903280151
 33
0.0
  0
POINT
  5
D7DD5
330
D79D8
100
AcDbEntity
  8
Defpoints
 62
     0
 48
5.0
100
AcDbPoint
 10
102717.1998673012
 20
-169030.7903280151
 30
0.0
  0
POINT
  5
D7DD6
330
D79D8
100
AcDbEntity
  8
Defpoints
 62
     0
 48
5.0
100
AcDbPoint
 10
102758.7276984253
 20
-168031.6529804303
 30
0.0
  0
ENDBLK
  5
D79DA
330
D79D8
100
AcDbEntity
  8
0
 48
5.0
100
AcDbBlockEnd
  0
BLOCK
  5
D79E9
330
D79E8
100
AcDbEntity
  8
0
 48
5.0
100
AcDbBlockBegin
  2
*D11
 70
     1
 10
0.0
 20
0.0
 30
0.0
  3
*D11
  1

  0
LINE
  5
D79F1
330
D79E8
100
AcDbEntity
  8
标注
 48
5.0
370
    -2
100
AcDbLine
 10
102638.0118646075
 20
-168984.5987704262
 30
0.0
 11
102627.992517885
 21
-168997.0732520289
 31
0.0
  0
MTEXT
  5
D79F2
330
D79E8
100
AcDbEntity
  8
标注
 48
5.0
100
AcDbMText
 10
102651.2666253757
 20
-168968.096070806
 30
0.0
 40
20.0
 41
0.0
 71
     5
 72
     1
  1
\A1;R80
 11
0.6262091701527517
 21
0.7796551001671201
 31
0.0
 73
     1
 44
1.0
1001
ACAD
1000
MTEXTBEGIN
1070
    73
1070
     1
1070
    44
1040
1.0
1070
    74
1070
     0
1000
MTEXTEND
  0
SOLID
  5
D79F3
330
D79E8
100
AcDbEntity
  8
标注
 48
5.0
100
AcDbTrace
 10
102625.9134376179
 20
-168995.4033609085
 30
0.0
 11
102630.0715981521
 21
-168998.7431431493
 31
0.0
 12
102617.9731711626
 22
-169009.5477336316
 32
0.0
 13
102617.9731711626
 23
-169009.5477336316
 33
0.0
  0
POINT
  5
D79F4
330
D79E8
100
AcDbEntity
  8
Defpoints
 62
     0
 48
5.0
100
AcDbPoint
 10
102617.9731711626
 20
-169009.5477336316
 30
0.0
  0
POINT
  5
D79F5
330
D79E8
100
AcDbEntity
  8
Defpoints
 62
     0
 48
5.0
100
AcDbPoint
 10
102668.0699047766
 20
-168947.175325616
 30
0.0
  0
ENDBLK
  5
D79EA
330
D79E8
100
AcDbEntity
  8
0
 48
5.0
100
AcDbBlockEnd
  0
BLOCK
  5
D79F9
330
D79F8
100
AcDbEntity
  8
0
 48
5.0
100
AcDbBlockBegin
  2
*D12
 70
     1
 10
0.0
 20
0.0
 30
0.0
  3
*D12
  1

  0
LINE
  5
D7DDC
330
D79F8
100
AcDbEntity
  8
标注
 48
5.0
370
    -2
100
AcDbLine
 10
102617.489740607
 20
-168921.8224930137
 30
0.0
 11
102601.5412754314
 21
-168923.1056370211
 31
0.0
  0
MTEXT
  5
D7DDD
330
D79F8
100
AcDbEntity
  8
标注
 48
5.0
100
AcDbMText
 10
102652.7646444849
 20
-168918.9844279697
 30
0.0
 40
20.0
 41
0.0
 71
     5
 72
     1
  1
\A1;R1200
 11
0.9967790734731638
 21
0.0801965004596922
 31
0.0
 73
     1
 44
1.0
1001
ACAD
1000
MTEXTBEGIN
1070
    73
1070
     1
1070
    44
1040
1.0
1070
    74
1070
     0
1000
MTEXTEND
  0
SOLID
  5
D7DDE
330
D79F8
100
AcDbEntity
  8
标注
 48
5.0
100
AcDbTrace
 10
102601.3274180969
 20
-168920.4475594919
 30
0.0
 11
102601.755132766
 21
-168925.7637145504
 31
0.0
 12
102585.5928102559
 22
-168924.3887810285
 32
0.0
 13
102585.5928102559
 23
-168924.3887810285
 33
0.0
  0
POINT
  5
D7DDF
330
D79F8
100
AcDbEntity
  8
Defpoints
 62
     0
 48
5.0
100
AcDbPoint
 10
102585.5928102559
 20
-168924.3887810285
 30
0.0
  0
POINT
  5
D7DE0
330
D79F8
100
AcDbEntity
  8
Defpoints
 62
     0
 48
5.0
100
AcDbPoint
 10
103781.7276984016
 20
-168828.1529804786
 30
0.0
  0
ENDBLK
  5
D79FA
330
D79F8
100
AcDbEntity
  8
0
 48
5.0
100
AcDbBlockEnd
  0
BLOCK
  5
D7A09
330
D7A08
100
AcDbEntity
  8
0
 48
5.0
100
AcDbBlockBegin
  2
*D13
 70
     1
 10
0.0
 20
0.0
 30
0.0
  3
*D13
  1

  0
LINE
  5
D7A11
330
D7A08
100
AcDbEntity
  8
标注
 48
5.0
370
    -2
100
AcDbLine
 10
102633.4958475217
 20
-168675.8344709168
 30
0.0
 11
102621.9711617712
 21
-168664.735749443
 31
0.0
  0
MTEXT
  5
D7A12
330
D7A08
100
AcDbEntity
  8
标注
 48
5.0
100
AcDbMText
 10
102648.7420463791
 20
-168690.5171545331
 30
0.0
 40
20.0
 41
0.0
 71
     5
 72
     1
  1
\A1;R80
 11
0.7202928594065562
 21
-0.6936700921100226
 31
0.0
 73
     1
 44
1.0
1001
ACAD
1000
MTEXTBEGIN
1070
    73
1070
     1
1070
    44
1040
1.0
1070
    74
1070
     0
1000
MTEXTEND
  0
SOLID
  5
D7A13
330
D7A08
100
AcDbEntity
  8
标注
 48
5.0
100
AcDbTrace
 10
102623.8209486835
 20
-168662.8149684846
 30
0.0
 11
102620.1213748589
 21
-168666.6565304014
 31
0.0
 12
102610.4464760207
 22
-168653.6370279692
 32
0.0
 13
102610.4464760207
 23
-168653.6370279692
 33
0.0
  0
POINT
  5
D7A14
330
D7A08
100
AcDbEntity
  8
Defpoints
 62
     0
 48
5.0
100
AcDbPoint
 10
102610.4464760207
 20
-168653.6370279692
 30
0.0
  0
POINT
  5
D7A15
330
D7A08
100
AcDbEntity
  8
Defpoints
 62
     0
 48
5.0
100
AcDbPoint
 10
102668.0699047711
 20
-168709.1306353359
 30
0.0
  0
ENDBLK
  5
D7A0A
330
D7A08
100
AcDbEntity
  8
0
 48
5.0
100
AcDbBlockEnd
  0
BLOCK
  5
D7A19
330
D7A18
100
AcDbEntity
  8
0
 48
5.0
100
AcDbBlockBegin
  2
*D14
 70
     1
 10
0.0
 20
0.0
 30
0.0
  3
*D14
  1

  0
LINE
  5
D7DE6
330
D7A18
100
AcDbEntity
  8
标注
 48
5.0
370
    -2
100
AcDbLine
 10
102734.9275066211
 20
-168656.9456120711
 30
0.0
 11
102734.5341150211
 21
-168640.9504489569
 31
0.0
  0
MTEXT
  5
D7DE7
330
D7A18
100
AcDbEntity
  8
标注
 48
5.0
100
AcDbMText
 10
102735.7976123476
 20
-168692.323802709
 30
0.0
 40
20.0
 41
0.0
 71
     5
 72
     1
  1
\A1;R1000
 11
0.0245869750021978
 21
-0.999697694635854
 31
0.0
 73
     1
 44
1.0
1001
ACAD
1000
MTEXTBEGIN
1070
    73
1070
     1
1070
    44
1040
1.0
1070
    74
1070
     0
1000
MTEXTEND
  0
SOLID
  5
D7DE8
330
D7A18
100
AcDbEntity
  8
标注
 48
5.0
100
AcDbTrace
 10
102737.1999755401
 20
-168640.8848836902
 30
0.0
 11
102731.8682545021
 21
-168641.0160142236
 31
0.0
 12
102734.1407234211
 22
-168624.9552858427
 32
0.0
 13
102734.1407234211
 23
-168624.9552858427
 33
0.0
  0
POINT
  5
D7DE9
330
D7A18
100
AcDbEntity
  8
Defpoints
 62
     0
 48
5.0
100
AcDbPoint
 10
102734.1407234211
 20
-168624.9552858427
 30
0.0
  0
POINT
  5
D7DEA
330
D7A18
100
AcDbEntity
  8
Defpoints
 62
     0
 48
5.0
100
AcDbPoint
 10
102758.7276984239
 20
-169624.6529805028
 30
0.0
  0
ENDBLK
  5
D7A1A
330
D7A18
100
AcDbEntity
  8
0
 48
5.0
100
AcDbBlockEnd
  0
BLOCK
  5
D7A29
330
D7A28
100
AcDbEntity
  8
0
 48
5.0
100
AcDbBlockBegin
  2
*D15
 70
     1
 10
0.0
 20
0.0
 30
0.0
  3
*D15
  1

  0
LINE
  5
D7E9F
330
D7A28
100
AcDbEntity
  8
标注
 48
5.0
370
    -2
100
AcDbLine
 10
102866.3312094674
 20
-168664.2213638909
 30
0.0
 11
102871.9797819325
 21
-168649.2516067417
 31
0.0
  0
MTEXT
  5
D7EA0
330
D7A28
100
AcDbEntity
  8
标注
 48
5.0
100
AcDbMText
 10
102858.8586188105
 20
-168684.0251051196
 30
0.0
 40
20.0
 41
0.0
 71
     5
 72
     1
  1
\A1;R80
 11
0.3530357790684623
 21
0.9356098218261305
 31
0.0
 73
     1
 44
1.0
1001
ACAD
1000
MTEXTBEGIN
1070
    73
1070
     1
1070
    44
1040
1.0
1070
    74
1070
     0
1000
MTEXTEND
  0
SOLID
  5
D7EA1
330
D7A28
100
AcDbEntity
  8
标注
 48
5.0
100
AcDbTrace
 10
102869.4848224076
 20
-168648.3101779975
 30
0.0
 11
102874.4747414574
 21
-168650.1930354859
 31
0.0
 12
102877.6283543976
 22
-168634.2818495925
 32
0.0
 13
102877.6283543976
 23
-168634.2818495925
 33
0.0
  0
POINT
  5
D7EA2
330
D7A28
100
AcDbEntity
  8
Defpoints
 62
     0
 48
5.0
100
AcDbPoint
 10
102877.6283543976
 20
-168634.2818495925
 30
0.0
  0
POINT
  5
D7EA3
330
D7A28
100
AcDbEntity
  8
Defpoints
 62
     0
 48
5.0
100
AcDbPoint
 10
102849.3854920711
 20
-168709.1306353413
 30
0.0
  0
ENDBLK
  5
D7A2A
330
D7A28
100
AcDbEntity
  8
0
 48
5.0
100
AcDbBlockEnd
  0
BLOCK
  5
D7A4B
330
D7A4A
100
AcDbEntity
  8
0
 48
5.0
100
AcDbBlockBegin
  2
*D16
 70
     1
 10
0.0
 20
0.0
 30
0.0
  3
*D16
  1

  0
LINE
  5
D7A53
330
D7A4A
100
AcDbEntity
  8
标注
 48
5.0
370
    -2
100
AcDbLine
 10
102940.3810010664
 20
-168643.3094675855
 30
0.0
 11
102932.94664
 21
-168657.4773988225
 31
0.0
  0
MTEXT
  5
D7A54
330
D7A4A
100
AcDbEntity
  8
标注
 48
5.0
100
AcDbMText
 10
102950.1385999659
 20
-168624.714057837
 30
0.0
 40
20.0
 41
0.0
 71
     5
 72
     1
  1
\A1;R35
 11
0.4646475666467508
 21
0.885495702309872
 31
0.0
 73
     1
 44
1.0
1001
ACAD
1000
MTEXTBEGIN
1070
    73
1070
     1
1070
    44
1040
1.0
1070
    74
1070
     0
1000
MTEXTEND
  0
SOLID
  5
D7A55
330
D7A4A
100
AcDbEntity
  8
标注
 48
5.0
100
AcDbTrace
 10
102930.5853181272
 20
-168656.2383386448
 30
0.0
 11
102935.3079618728
 21
-168658.7164590002
 31
0.0
 12
102925.5122789337
 22
-168671.6453300595
 32
0.0
 13
102925.5122789337
 23
-168671.6453300595
 33
0.0
  0
POINT
  5
D7A56
330
D7A4A
100
AcDbEntity
  8
Defpoints
 62
     0
 48
5.0
100
AcDbPoint
 10
102925.5122789337
 20
-168671.6453300595
 30
0.0
  0
POINT
  5
D7A57
330
D7A4A
100
AcDbEntity
  8
Defpoints
 62
     0
 48
5.0
100
AcDbPoint
 10
102941.7749437662
 20
-168640.6529804787
 30
0.0
  0
ENDBLK
  5
D7A4C
330
D7A4A
100
AcDbEntity
  8
0
 48
5.0
100
AcDbBlockEnd
  0
BLOCK
  5
D7A5B
330
D7A5A
100
AcDbEntity
  8
0
 48
5.0
100
AcDbBlockBegin
  2
*D17
 70
     1
 10
0.0
 20
0.0
 30
0.0
  3
*D17
  1

  0
LINE
  5
D7A63
330
D7A5A
100
AcDbEntity
  8
标注
 48
5.0
370
    -2
100
AcDbLine
 10
103151.9214908351
 20
-168714.6044573155
 30
0.0
 11
103159.424809595
 21
-168700.472924929
 31
0.0
  0
MTEXT
  5
D7A64
330
D7A5A
100
AcDbEntity
  8
标注
 48
5.0
100
AcDbMText
 10
103142.0733849628
 20
-168733.1520935726
 30
0.0
 40
20.0
 41
0.0
 71
     5
 72
     1
  1
\A1;R85
 11
0.4689574224909065
 21
0.8832207741503172
 31
0.0
 73
     1
 44
1.0
1001
ACAD
1000
MTEXTBEGIN
1070
    73
1070
     1
1070
    44
1040
1.0
1070
    74
1070
     0
1000
MTEXTEND
  0
SOLID
  5
D7A65
330
D7A5A
100
AcDbEntity
  8
标注
 48
5.0
100
AcDbTrace
 10
103157.0695541973
 20
-168699.2223718023
 30
0.0
 11
103161.7800649927
 21
-168701.7234780556
 31
0.0
 12
103166.9281283549
 22
-168686.3413925426
 32
0.0
 13
103166.9281283549
 23
-168686.3413925426
 33
0.0
  0
POINT
  5
D7A66
330
D7A5A
100
AcDbEntity
  8
Defpoints
 62
     0
 48
5.0
100
AcDbPoint
 10
103166.9281283549
 20
-168686.3413925426
 30
0.0
  0
POINT
  5
D7A67
330
D7A5A
100
AcDbEntity
  8
Defpoints
 62
     0
 48
5.0
100
AcDbPoint
 10
103127.066747444
 20
-168761.4151583439
 30
0.0
  0
ENDBLK
  5
D7A5C
330
D7A5A
100
AcDbEntity
  8
0
 48
5.0
100
AcDbBlockEnd
  0
BLOCK
  5
D7A6B
330
D7A6A
100
AcDbEntity
  8
0
 48
5.0
100
AcDbBlockBegin
  2
*D18
 70
     1
 10
0.0
 20
0.0
 30
0.0
  3
*D18
  1

  0
LINE
  5
D7DFA
330
D7A6A
100
AcDbEntity
  8
标注
 48
5.0
370
    -2
100
AcDbLine
 10
103101.5913162732
 20
-168707.7256822933
 30
0.0
 11
103101.7874091302
 21
-168691.7268839762
 31
0.0
  0
MTEXT
  5
D7DFB
330
D7A6A
100
AcDbEntity
  8
标注
 48
5.0
100
AcDbMText
 10
103101.1575970028
 20
-168743.1119132933
 30
0.0
 40
20.0
 41
0.0
 71
     5
 72
     1
  1
\A1;R1000
 11
0.0122558035610181
 21
0.9999248948191429
 31
0.0
 73
     1
 44
1.0
1001
ACAD
1000
MTEXTBEGIN
1070
    73
1070
     1
1070
    44
1040
1.0
1070
    74
1070
     0
1000
MTEXTEND
  0
SOLID
  5
D7DFC
330
D7A6A
100
AcDbEntity
  8
标注
 48
5.0
100
AcDbTrace
 10
103099.120942744
 20
-168691.6942018333
 30
0.0
 11
103104.4538755163
 21
-168691.759566119
 31
0.0
 12
103101.9835019872
 22
-168675.728085659
 32
0.0
 13
103101.9835019872
 23
-168675.728085659
 33
0.0
  0
POINT
  5
D7DFD
330
D7A6A
100
AcDbEntity
  8
Defpoints
 62
     0
 48
5.0
100
AcDbPoint
 10
103101.9835019872
 20
-168675.728085659
 30
0.0
  0
POINT
  5
D7DFE
330
D7A6A
100
AcDbEntity
  8
Defpoints
 62
     0
 48
5.0
100
AcDbPoint
 10
103089.7276984259
 20
-169675.6529805027
 30
0.0
  0
ENDBLK
  5
D7A6C
330
D7A6A
100
AcDbEntity
  8
0
 48
5.0
100
AcDbBlockEnd
  0
BLOCK
  5
D7A7B
330
D7A7A
100
AcDbEntity
  8
0
 48
5.0
100
AcDbBlockBegin
  2
*D19
 70
     1
 10
0.0
 20
0.0
 30
0.0
  3
*D19
  1

  0
LINE
  5
D7DFF
330
D7A7A
100
AcDbEntity
  8
标注
 48
5.0
370
    -2
100
AcDbLine
 10
103184.7083951364
 20
-168859.7661459077
 30
0.0
 11
103200.7080760738
 21
-168859.8671899644
 31
0.0
  0
MTEXT
  5
D7E00
330
D7A7A
100
AcDbEntity
  8
标注
 48
5.0
100
AcDbMText
 10
103149.320211952
 20
-168859.5426561018
 30
0.0
 40
20.0
 41
0.0
 71
     5
 72
     1
  1
\A1;R1000
 11
0.9999800585875178
 21
-0.0063152535423931
 31
0.0
 73
     1
 44
1.0
1001
ACAD
1000
MTEXTBEGIN
1070
    73
1070
     1
1070
    44
1040
1.0
1070
    74
1070
     0
1000
MTEXTEND
  0
SOLID
  5
D7E01
330
D7A7A
100
AcDbEntity
  8
标注
 48
5.0
100
AcDbTrace
 10
103200.72491675
 20
-168857.2005764748
 30
0.0
 11
103200.6912353977
 21
-168862.5338034539
 31
0.0
 12
103216.7077570112
 22
-168859.968234021
 32
0.0
 13
103216.7077570112
 23
-168859.968234021
 33
0.0
  0
POINT
  5
D7E02
330
D7A7A
100
AcDbEntity
  8
Defpoints
 62
     0
 48
5.0
100
AcDbPoint
 10
103216.7077570112
 20
-168859.968234021
 30
0.0
  0
POINT
  5
D7E03
330
D7A7A
100
AcDbEntity
  8
Defpoints
 62
     0
 48
5.0
100
AcDbPoint
 10
102216.7276984155
 20
-168853.6529804786
 30
0.0
  0
ENDBLK
  5
D7A7C
330
D7A7A
100
AcDbEntity
  8
0
 48
5.0
100
AcDbBlockEnd
  0
BLOCK
  5
D7A8B
330
D7A8A
100
AcDbEntity
  8
0
 48
5.0
100
AcDbBlockBegin
  2
*D20
 70
     1
 10
0.0
 20
0.0
 30
0.0
  3
*D20
  1

  0
LINE
  5
D7A93
330
D7A8A
100
AcDbEntity
  8
标注
 48
5.0
370
    -2
100
AcDbLine
 10
103158.354803069
 20
-168988.6699748227
 30
0.0
 11
103167.8002538244
 21
-169001.5844419053
 31
0.0
  0
MTEXT
  5
D7A94
330
D7A8A
100
AcDbEntity
  8
标注
 48
5.0
100
AcDbMText
 10
103145.9576489527
 20
-168971.7197367767
 30
0.0
 40
20.0
 41
0.0
 71
     5
 72
     1
  1
\A1;R85
 11
0.5903406722078395
 21
-0.8071541926653148
 31
0.0
 73
     1
 44
1.0
1001
ACAD
1000
MTEXTBEGIN
1070
    73
1070
     1
1070
    44
1040
1.0
1070
    74
1070
     0
1000
MTEXTEND
  0
SOLID
  5
D7A95
330
D7A8A
100
AcDbEntity
  8
标注
 48
5.0
100
AcDbTrace
 10
103169.9526650049
 20
-169000.0102001128
 30
0.0
 11
103165.6478426439
 21
-169003.1586836979
 31
0.0
 12
103177.2457045797
 22
-169014.498908988
 32
0.0
 13
103177.2457045797
 23
-169014.498908988
 33
0.0
  0
POINT
  5
D7A96
330
D7A8A
100
AcDbEntity
  8
Defpoints
 62
     0
 48
5.0
100
AcDbPoint
 10
103177.2457045797
 20
-169014.498908988
 30
0.0
  0
POINT
  5
D7A97
330
D7A8A
100
AcDbEntity
  8
Defpoints
 62
     0
 48
5.0
100
AcDbPoint
 10
103127.0667474413
 20
-168945.8908026104
 30
0.0
  0
ENDBLK
  5
D7A8C
330
D7A8A
100
AcDbEntity
  8
0
 48
5.0
100
AcDbBlockEnd
  0
BLOCK
  5
D7A9B
330
D7A9A
100
AcDbEntity
  8
0
 48
5.0
100
AcDbBlockBegin
  2
*D21
 70
     1
 10
0.0
 20
0.0
 30
0.0
  3
*D21
  1

  0
LINE
  5
D7E09
330
D7A9A
100
AcDbEntity
  8
标注
 48
5.0
370
    -2
100
AcDbLine
 10
103114.5051480018
 20
-168999.3358200456
 30
0.0
 11
103114.9146926229
 21
-169015.3305777244
 31
0.0
  0
MTEXT
  5
D7E0A
330
D7A9A
100
AcDbEntity
  8
标注
 48
5.0
100
AcDbMText
 10
103113.5993149336
 20
-168963.9585261519
 30
0.0
 40
20.0
 41
0.0
 71
     5
 72
     1
  1
\A1;R1000
 11
0.0255965388178606
 21
-0.9996723549246253
 31
0.0
 73
     1
 44
1.0
1001
ACAD
1000
MTEXTBEGIN
1070
    73
1070
     1
1070
    44
1040
1.0
1070
    74
1070
     0
1000
MTEXTEND
  0
SOLID
  5
D7E0B
330
D7A9A
100
AcDbEntity
  8
标注
 48
5.0
100
AcDbTrace
 10
103117.5804855693
 20
-169015.2623202876
 30
0.0
 11
103112.2488996764
 21
-169015.3988351613
 31
0.0
 12
103115.3242372439
 22
-169031.3253354032
 32
0.0
 13
103115.3242372439
 23
-169031.3253354032
 33
0.0
  0
POINT
  5
D7E0C
330
D7A9A
100
AcDbEntity
  8
Defpoints
 62
     0
 48
5.0
100
AcDbPoint
 10
103115.3242372439
 20
-169031.3253354032
 30
0.0
  0
POINT
  5
D7E0D
330
D7A9A
100
AcDbEntity
  8
Defpoints
 62
     0
 48
5.0
100
AcDbPoint
 10
103089.7276984273
 20
-168031.6529805247
 30
0.0
  0
ENDBLK
  5
D7A9C
330
D7A9A
100
AcDbEntity
  8
0
 48
5.0
100
AcDbBlockEnd
  0
BLOCK
  5
D7AC3
330
D7AC2
100
AcDbEntity
  8
0
 48
5.0
100
AcDbBlockBegin
  2
*D22
 70
     1
 10
0.0
 20
0.0
 30
0.0
  3
*D22
  1

  0
LINE
  5
D7AE5
330
D7AC2
100
AcDbEntity
  8
标注
 48
5.0
370
    -2
100
AcDbLine
 10
102595.7276984138
 20
-168821.1529804787
 30
0.0
 11
102595.7276984138
 21
-168750.7504048347
 31
0.0
  0
LINE
  5
D7AE6
330
D7AC2
100
AcDbEntity
  8
标注
 48
5.0
370
    -2
100
AcDbLine
 10
103202.7276984337
 20
-168821.1529804787
 30
0.0
 11
103202.7276984337
 21
-168750.7504048347
 31
0.0
  0
LINE
  5
D7AE7
330
D7AC2
100
AcDbEntity
  8
标注
 48
5.0
370
    -2
100
AcDbLine
 10
102611.7276984138
 20
-168757.7504048347
 30
0.0
 11
102741.7251285687
 21
-168757.7504048347
 31
0.0
  0
LINE
  5
D7AE8
330
D7AC2
100
AcDbEntity
  8
标注
 48
5.0
370
    -2
100
AcDbLine
 10
103186.7276984337
 20
-168757.7504048347
 30
0.0
 11
102783.3917952354
 21
-168757.7504048347
 31
0.0
  0
SOLID
  5
D7AE9
330
D7AC2
100
AcDbEntity
  8
标注
 48
5.0
100
AcDbTrace
 10
102611.7276984138
 20
-168755.083738168
 30
0.0
 11
102611.7276984138
 21
-168760.4170715014
 31
0.0
 12
102595.7276984138
 22
-168757.7504048347
 32
0.0
 13
102595.7276984138
 23
-168757.7504048347
 33
0.0
  0
SOLID
  5
D7AEA
330
D7AC2
100
AcDbEntity
  8
标注
 48
5.0
100
AcDbTrace
 10
103186.7276984337
 20
-168755.083738168
 30
0.0
 11
103186.7276984337
 21
-168760.4170715014
 31
0.0
 12
103202.7276984337
 22
-168757.7504048347
 32
0.0
 13
103202.7276984337
 23
-168757.7504048347
 33
0.0
  0
MTEXT
  5
D7AEB
330
D7AC2
100
AcDbEntity
  8
标注
 48
5.0
100
AcDbMText
 10
102762.5584619021
 20
-168757.7504048347
 30
0.0
 40
20.0
 41
0.0
 71
     5
 72
     1
  1
\A1;607
 73
     1
 44
1.0
1001
ACAD
1000
MTEXTBEGIN
1070
    73
1070
     1
1070
    44
1040
1.0
1070
    74
1070
     0
1000
MTEXTEND
  0
POINT
  5
D7AEC
330
D7AC2
100
AcDbEntity
  8
Defpoints
 62
     0
 48
5.0
100
AcDbPoint
 10
102595.7276984138
 20
-168828.1529804787
 30
0.0
  0
POINT
  5
D7AED
330
D7AC2
100
AcDbEntity
  8
Defpoints
 62
     0
 48
5.0
100
AcDbPoint
 10
103202.7276984337
 20
-168828.1529804787
 30
0.0
  0
POINT
  5
D7AEE
330
D7AC2
100
AcDbEntity
  8
Defpoints
 62
     0
 48
5.0
100
AcDbPoint
 10
103202.7276984337
 20
-168757.7504048347
 30
0.0
  0
ENDBLK
  5
D7AC4
330
D7AC2
100
AcDbEntity
  8
0
 48
5.0
100
AcDbBlockEnd
  0
BLOCK
  5
D7AF1
330
D7AF0
100
AcDbEntity
  8
0
 48
5.0
100
AcDbBlockBegin
  2
*D23
 70
     1
 10
0.0
 20
0.0
 30
0.0
  3
*D23
  1

  0
LINE
  5
D7AF3
330
D7AF0
100
AcDbEntity
  8
标注
 48
5.0
370
    -2
100
AcDbLine
 10
102595.7276984138
 20
-168821.1529804787
 30
0.0
 11
102595.7276984138
 21
-168787.7913490618
 31
0.0
  0
LINE
  5
D7AF4
330
D7AF0
100
AcDbEntity
  8
标注
 48
5.0
370
    -2
100
AcDbLine
 10
102899.2276984237
 20
-168821.1529804786
 30
0.0
 11
102899.2276984237
 21
-168787.7913490618
 31
0.0
  0
LINE
  5
D7AF5
330
D7AF0
100
AcDbEntity
  8
标注
 48
5.0
370
    -2
100
AcDbLine
 10
102611.7276984138
 20
-168794.7913490618
 30
0.0
 11
102712.6443650854
 21
-168794.7913490618
 31
0.0
  0
LINE
  5
D7AF6
330
D7AF0
100
AcDbEntity
  8
标注
 48
5.0
370
    -2
100
AcDbLine
 10
102883.2276984237
 20
-168794.7913490618
 30
0.0
 11
102782.3110317521
 21
-168794.7913490618
 31
0.0
  0
SOLID
  5
D7AF7
330
D7AF0
100
AcDbEntity
  8
标注
 48
5.0
100
AcDbTrace
 10
102611.7276984138
 20
-168792.1246823952
 30
0.0
 11
102611.7276984138
 21
-168797.4580157285
 31
0.0
 12
102595.7276984138
 22
-168794.7913490618
 32
0.0
 13
102595.7276984138
 23
-168794.7913490618
 33
0.0
  0
SOLID
  5
D7AF8
330
D7AF0
100
AcDbEntity
  8
标注
 48
5.0
100
AcDbTrace
 10
102883.2276984237
 20
-168792.1246823952
 30
0.0
 11
102883.2276984237
 21
-168797.4580157285
 31
0.0
 12
102899.2276984237
 22
-168794.7913490618
 32
0.0
 13
102899.2276984237
 23
-168794.7913490618
 33
0.0
  0
MTEXT
  5
D7AF9
330
D7AF0
100
AcDbEntity
  8
标注
 48
5.0
100
AcDbMText
 10
102747.4776984188
 20
-168794.7913490618
 30
0.0
 40
20.0
 41
0.0
 71
     5
 72
     1
  1
\A1;303,5
 73
     1
 44
1.0
1001
ACAD
1000
MTEXTBEGIN
1070
    73
1070
     1
1070
    44
1040
1.0
1070
    74
1070
     0
1000
MTEXTEND
  0
POINT
  5
D7AFA
330
D7AF0
100
AcDbEntity
  8
Defpoints
 62
     0
 48
5.0
100
AcDbPoint
 10
102595.7276984138
 20
-168828.1529804787
 30
0.0
  0
POINT
  5
D7AFB
330
D7AF0
100
AcDbEntity
  8
Defpoints
 62
     0
 48
5.0
100
AcDbPoint
 10
102899.2276984237
 20
-168828.1529804786
 30
0.0
  0
POINT
  5
D7AFC
330
D7AF0
100
AcDbEntity
  8
Defpoints
 62
     0
 48
5.0
100
AcDbPoint
 10
102899.2276984237
 20
-168794.7913490618
 30
0.0
  0
ENDBLK
  5
D7AF2
330
D7AF0
100
AcDbEntity
  8
0
 48
5.0
100
AcDbBlockEnd
  0
BLOCK
  5
D7AFF
330
D7AFE
100
AcDbEntity
  8
0
 48
5.0
100
AcDbBlockBegin
  2
*D24
 70
     1
 10
0.0
 20
0.0
 30
0.0
  3
*D24
  1

  0
LINE
  5
D7B0D
330
D7AFE
100
AcDbEntity
  8
标注
 48
5.0
370
    -2
100
AcDbLine
 10
102595.7276984138
 20
-168821.1529804787
 30
0.0
 11
102595.7276984138
 21
-168787.7913490618
 31
0.0
  0
LINE
  5
D7B0E
330
D7AFE
100
AcDbEntity
  8
标注
 48
5.0
370
    -2
100
AcDbLine
 10
102577.7276984237
 20
-168821.1529804787
 30
0.0
 11
102577.7276984237
 21
-168787.7913490618
 31
0.0
  0
LINE
  5
D7B0F
330
D7AFE
100
AcDbEntity
  8
标注
 48
5.0
370
    -2
100
AcDbLine
 10
102611.7276984138
 20
-168794.7913490618
 30
0.0
 11
102627.7276984138
 21
-168794.7913490618
 31
0.0
  0
LINE
  5
D7B10
330
D7AFE
100
AcDbEntity
  8
标注
 48
5.0
370
    -2
100
AcDbLine
 10
102561.7276984237
 20
-168794.7913490618
 30
0.0
 11
102545.7276984238
 21
-168794.7913490618
 31
0.0
  0
LINE
  5
D7B11
330
D7AFE
100
AcDbEntity
  8
标注
 48
5.0
370
    -2
100
AcDbLine
 10
102595.7276984138
 20
-168794.7913490618
 30
0.0
 11
102577.7276984237
 21
-168794.7913490618
 31
0.0
  0
SOLID
  5
D7B12
330
D7AFE
100
AcDbEntity
  8
标注
 48
5.0
100
AcDbTrace
 10
102611.7276984138
 20
-168792.1246823952
 30
0.0
 11
102611.7276984138
 21
-168797.4580157285
 31
0.0
 12
102595.7276984138
 22
-168794.7913490618
 32
0.0
 13
102595.7276984138
 23
-168794.7913490618
 33
0.0
  0
SOLID
  5
D7B13
330
D7AFE
100
AcDbEntity
  8
标注
 48
5.0
100
AcDbTrace
 10
102561.7276984237
 20
-168792.1246823952
 30
0.0
 11
102561.7276984237
 21
-168797.4580157285
 31
0.0
 12
102577.7276984237
 22
-168794.7913490618
 32
0.0
 13
102577.7276984237
 23
-168794.7913490618
 33
0.0
  0
MTEXT
  5
D7B14
330
D7AFE
100
AcDbEntity
  8
标注
 48
5.0
100
AcDbMText
 10
102532.949920646
 20
-168794.7913490618
 30
0.0
 40
20.0
 41
0.0
 71
     5
 72
     1
  1
\A1;18
 73
     1
 44
1.0
1001
ACAD
1000
MTEXTBEGIN
1070
    73
1070
     1
1070
    44
1040
1.0
1070
    74
1070
     0
1000
MTEXTEND
  0
POINT
  5
D7B15
330
D7AFE
100
AcDbEntity
  8
Defpoints
 62
     0
 48
5.0
100
AcDbPoint
 10
102595.7276984138
 20
-168828.1529804787
 30
0.0
  0
POINT
  5
D7B16
330
D7AFE
100
AcDbEntity
  8
Defpoints
 62
     0
 48
5.0
100
AcDbPoint
 10
102577.7276984237
 20
-168828.1529804787
 30
0.0
  0
POINT
  5
D7B17
330
D7AFE
100
AcDbEntity
  8
Defpoints
 62
     0
 48
5.0
100
AcDbPoint
 10
102577.7276984237
 20
-168794.7913490618
 30
0.0
  0
ENDBLK
  5
D7B00
330
D7AFE
100
AcDbEntity
  8
0
 48
5.0
100
AcDbBlockEnd
  0
BLOCK
  5
D7B2F
330
D7B2E
100
AcDbEntity
  8
0
 48
5.0
100
AcDbBlockBegin
  2
*D25
 70
     1
 10
0.0
 20
0.0
 30
0.0
  3
*D25
  1

  0
LINE
  5
D7B3D
330
D7B2E
100
AcDbEntity
  8
标注
 48
5.0
370
    -2
100
AcDbLine
 10
102906.2276984238
 20
-169017.6529804886
 30
0.0
 11
102935.9747823308
 21
-169017.6529804886
 31
0.0
  0
LINE
  5
D7B3E
330
D7B2E
100
AcDbEntity
  8
标注
 48
5.0
370
    -2
100
AcDbLine
 10
102906.2276984238
 20
-169035.6529804786
 30
0.0
 11
102935.9747823308
 21
-169035.6529804786
 31
0.0
  0
LINE
  5
D7B3F
330
D7B2E
100
AcDbEntity
  8
标注
 48
5.0
370
    -2
100
AcDbLine
 10
102928.9747823308
 20
-169001.6529804886
 30
0.0
 11
102928.9747823308
 21
-168985.6529804886
 31
0.0
  0
LINE
  5
D7B40
330
D7B2E
100
AcDbEntity
  8
标注
 48
5.0
370
    -2
100
AcDbLine
 10
102928.9747823308
 20
-169051.6529804786
 30
0.0
 11
102928.9747823308
 21
-169067.6529804786
 31
0.0
  0
LINE
  5
D7B41
330
D7B2E
100
AcDbEntity
  8
标注
 48
5.0
370
    -2
100
AcDbLine
 10
102928.9747823308
 20
-169017.6529804886
 30
0.0
 11
102928.9747823308
 21
-169035.6529804786
 31
0.0
  0
SOLID
  5
D7B42
330
D7B2E
100
AcDbEntity
  8
标注
 48
5.0
100
AcDbTrace
 10
102926.3081156641
 20
-169001.6529804886
 30
0.0
 11
102931.6414489974
 21
-169001.6529804886
 31
0.0
 12
102928.9747823308
 22
-169017.6529804886
 32
0.0
 13
102928.9747823308
 23
-169017.6529804886
 33
0.0
  0
SOLID
  5
D7B43
330
D7B2E
100
AcDbEntity
  8
标注
 48
5.0
100
AcDbTrace
 10
102926.3081156641
 20
-169051.6529804786
 30
0.0
 11
102931.6414489974
 21
-169051.6529804786
 31
0.0
 12
102928.9747823308
 22
-169035.6529804786
 32
0.0
 13
102928.9747823308
 23
-169035.6529804786
 33
0.0
  0
MTEXT
  5
D7B44
330
D7B2E
100
AcDbEntity
  8
标注
 48
5.0
100
AcDbMText
 10
102928.9747823308
 20
-169080.4307582563
 30
0.0
 40
20.0
 41
0.0
 71
     5
 72
     1
  1
\A1;18
 11
0.0000000000000001
 21
1.0
 31
0.0
 73
     1
 44
1.0
1001
ACAD
1000
MTEXTBEGIN
1070
    73
1070
     1
1070
    44
1040
1.0
1070
    74
1070
     0
1000
MTEXTEND
  0
POINT
  5
D7B45
330
D7B2E
100
AcDbEntity
  8
Defpoints
 62
     0
 48
5.0
100
AcDbPoint
 10
102899.2276984238
 20
-169017.6529804886
 30
0.0
  0
POINT
  5
D7B46
330
D7B2E
100
AcDbEntity
  8
Defpoints
 62
     0
 48
5.0
100
AcDbPoint
 10
102899.2276984238
 20
-169035.6529804786
 30
0.0
  0
POINT
  5
D7B47
330
D7B2E
100
AcDbEntity
  8
Defpoints
 62
     0
 48
5.0
100
AcDbPoint
 10
102928.9747823308
 20
-169035.6529804786
 30
0.0
  0
ENDBLK
  5
D7B30
330
D7B2E
100
AcDbEntity
  8
0
 48
5.0
100
AcDbBlockEnd
  0
BLOCK
  5
D7B5F
330
D7B5E
100
AcDbEntity
  8
0
 48
5.0
100
AcDbBlockBegin
  2
*D26
 70
     1
 10
0.0
 20
0.0
 30
0.0
  3
*D26
  1

  0
LINE
  5
D7B61
330
D7B5E
100
AcDbEntity
  8
标注
 48
5.0
370
    -2
100
AcDbLine
 10
102906.2276984238
 20
-169017.6529804886
 30
0.0
 11
102969.9389271949
 21
-169017.6529804886
 31
0.0
  0
LINE
  5
D7B62
330
D7B5E
100
AcDbEntity
  8
标注
 48
5.0
370
    -2
100
AcDbLine
 10
102906.2276984237
 20
-168828.1529804786
 30
0.0
 11
102969.9389271949
 21
-168828.1529804786
 31
0.0
  0
LINE
  5
D7B63
330
D7B5E
100
AcDbEntity
  8
标注
 48
5.0
370
    -2
100
AcDbLine
 10
102962.9389271949
 20
-169001.6529804886
 30
0.0
 11
102962.9389271949
 21
-168956.9585360392
 31
0.0
  0
LINE
  5
D7B64
330
D7B5E
100
AcDbEntity
  8
标注
 48
5.0
370
    -2
100
AcDbLine
 10
102962.9389271949
 20
-168844.1529804786
 30
0.0
 11
102962.9389271949
 21
-168888.8474249281
 31
0.0
  0
SOLID
  5
D7B65
330
D7B5E
100
AcDbEntity
  8
标注
 48
5.0
100
AcDbTrace
 10
102960.2722605283
 20
-169001.6529804886
 30
0.0
 11
102965.6055938616
 21
-169001.6529804886
 31
0.0
 12
102962.9389271949
 22
-169017.6529804886
 32
0.0
 13
102962.9389271949
 23
-169017.6529804886
 33
0.0
  0
SOLID
  5
D7B66
330
D7B5E
100
AcDbEntity
  8
标注
 48
5.0
100
AcDbTrace
 10
102960.2722605283
 20
-168844.1529804786
 30
0.0
 11
102965.6055938616
 21
-168844.1529804786
 31
0.0
 12
102962.9389271949
 22
-168828.1529804786
 32
0.0
 13
102962.9389271949
 23
-168828.1529804786
 33
0.0
  0
MTEXT
  5
D7B67
330
D7B5E
100
AcDbEntity
  8
标注
 48
5.0
100
AcDbMText
 10
102962.938927195
 20
-168922.9029804836
 30
0.0
 40
20.0
 41
0.0
 71
     5
 72
     1
  1
\A1;189,5
 11
0.0000000000000001
 21
1.0
 31
0.0
 73
     1
 44
1.0
1001
ACAD
1000
MTEXTBEGIN
1070
    73
1070
     1
1070
    44
1040
1.0
1070
    74
1070
     0
1000
MTEXTEND
  0
POINT
  5
D7B68
330
D7B5E
100
AcDbEntity
  8
Defpoints
 62
     0
 48
5.0
100
AcDbPoint
 10
102899.2276984238
 20
-169017.6529804886
 30
0.0
  0
POINT
  5
D7B69
330
D7B5E
100
AcDbEntity
  8
Defpoints
 62
     0
 48
5.0
100
AcDbPoint
 10
102899.2276984237
 20
-168828.1529804786
 30
0.0
  0
POINT
  5
D7B6A
330
D7B5E
100
AcDbEntity
  8
Defpoints
 62
     0
 48
5.0
100
AcDbPoint
 10
102962.9389271949
 20
-168828.1529804786
 30
0.0
  0
ENDBLK
  5
D7B60
330
D7B5E
100
AcDbEntity
  8
0
 48
5.0
100
AcDbBlockEnd
  0
BLOCK
  5
D7B6D
330
D7B6C
100
AcDbEntity
  8
0
 48
5.0
100
AcDbBlockBegin
  2
*D27
 70
     1
 10
0.0
 20
0.0
 30
0.0
  3
*D27
  1

  0
LINE
  5
D7B85
330
D7B6C
100
AcDbEntity
  8
标注
 48
5.0
370
    -2
100
AcDbLine
 10
102906.2276984238
 20
-169017.6529804886
 30
0.0
 11
103021.3528285257
 21
-169017.6529804886
 31
0.0
  0
LINE
  5
D7B86
330
D7B6C
100
AcDbEntity
  8
标注
 48
5.0
370
    -2
100
AcDbLine
 10
102906.2276984238
 20
-168659.5158849802
 30
0.0
 11
103021.3528285257
 21
-168659.5158849802
 31
0.0
  0
LINE
  5
D7B87
330
D7B6C
100
AcDbEntity
  8
标注
 48
5.0
370
    -2
100
AcDbLine
 10
103014.3528285257
 20
-169001.6529804886
 30
0.0
 11
103014.3528285257
 21
-168948.7498280407
 31
0.0
  0
LINE
  5
D7B88
330
D7B6C
100
AcDbEntity
  8
标注
 48
5.0
370
    -2
100
AcDbLine
 10
103014.3528285257
 20
-168675.5158849801
 30
0.0
 11
103014.3528285257
 21
-168880.1942724851
 31
0.0
  0
SOLID
  5
D7B89
330
D7B6C
100
AcDbEntity
  8
标注
 48
5.0
100
AcDbTrace
 10
103011.686161859
 20
-169001.6529804886
 30
0.0
 11
103017.0194951924
 21
-169001.6529804886
 31
0.0
 12
103014.3528285257
 22
-169017.6529804886
 32
0.0
 13
103014.3528285257
 23
-169017.6529804886
 33
0.0
  0
SOLID
  5
D7B8A
330
D7B6C
100
AcDbEntity
  8
标注
 48
5.0
100
AcDbTrace
 10
103011.686161859
 20
-168675.5158849801
 30
0.0
 11
103017.0194951924
 21
-168675.5158849801
 31
0.0
 12
103014.3528285257
 22
-168659.5158849802
 32
0.0
 13
103014.3528285257
 23
-168659.5158849802
 33
0.0
  0
MTEXT
  5
D7B8B
330
D7B6C
100
AcDbEntity
  8
标注
 48
5.0
100
AcDbMText
 10
103014.3528285258
 20
-168914.4720502629
 30
0.0
 40
20.0
 41
0.0
 71
     5
 72
     1
  1
\A1;358,1
 11
0.0000000000000001
 21
1.0
 31
0.0
 73
     1
 44
1.0
1001
ACAD
1000
MTEXTBEGIN
1070
    73
1070
     1
1070
    44
1040
1.0
1070
    74
1070
     0
1000
MTEXTEND
  0
POINT
  5
D7B8C
330
D7B6C
100
AcDbEntity
  8
Defpoints
 62
     0
 48
5.0
100
AcDbPoint
 10
102899.2276984238
 20
-169017.6529804886
 30
0.0
  0
POINT
  5
D7B8D
330
D7B6C
100
AcDbEntity
  8
Defpoints
 62
     0
 48
5.0
100
AcDbPoint
 10
102899.2276984238
 20
-168659.5158849802
 30
0.0
  0
POINT
  5
D7B8E
330
D7B6C
100
AcDbEntity
  8
Defpoints
 62
     0
 48
5.0
100
AcDbPoint
 10
103014.3528285257
 20
-168659.5158849802
 30
0.0
  0
ENDBLK
  5
D7B6E
330
D7B6C
100
AcDbEntity
  8
0
 48
5.0
100
AcDbBlockEnd
  0
ENDSEC
  0
SECTION
  2
ENTITIES
  0
LWPOLYLINE
  5
D7901
102
{ACAD_REACTORS
330
D7946
330
D797A
330
D79BB
330
D79F6
330
D7A06
330
D7A16
330
D7A26
330
D7A36
330
D7A58
330
D7A68
330
D7A78
330
D7A88
330
D7A98
330
D79E6
330
D7AA8
102
}
330
1F
100
AcDbEntity
  8
虚线
 48
5.0
100
AcDbPolyline
 90
       15
 70
     0
 43
0.0
 10
102913.6564149918
 20
-168661.4940058698
 42
0.2116426102934878
 10
102857.268778473
 20
-168629.5199966303
 42
0.0493907327716592
 10
102660.1866183699
 20
-168629.5199966308
 42
0.3553196185218921
 10
102588.5229195137
 20
-168700.629039252
 42
0.0532858459711956
 10
102588.5229195132
 20
-168955.6769217003
 42
0.3553196185219689
 10
102660.1866183748
 20
-169026.7859643269
 42
0.0246803239833756
 10
102758.7276984263
 20
-169031.6529804785
 10
103089.7276984261
 20
-169031.6529804785
 42
0.0102051138226749
 10
103130.5354022692
 20
-169030.8199992032
 42
0.3732663043293853
 10
103211.6337629251
 20
-168954.4593434637
 42
0.0505318845729019
 10
103211.633762925
 20
-168752.8466174917
 42
0.3732663043293853
 10
103130.5354022721
 20
-168676.485961754
 42
0.0102051138226749
 10
103089.7276984261
 20
-168675.6529804785
 10
102941.7749437661
 20
-168675.6529804785
 42
-0.2375638271098088
 10
102913.6564149894
 20
-168661.4940058715
  0
LWPOLYLINE
  5
D7910
102
{ACAD_REACTORS
330
D7960
330
D7994
330
D79D5
330
D7B18
330
D7B48
102
}
330
1F
100
AcDbEntity
  8
0
100
AcDbPolyline
 90
       14
 70
     1
 43
0.0
 10
102916.8699611377
 20
-168659.1121743963
 42
0.2116426102934758
 10
102857.6629427931
 20
-168625.539464695
 42
0.0493907327716598
 10
102659.7924540497
 20
-168625.5394646954
 42
0.3553196185219317
 10
102584.5455702507
 20
-168700.2039594478
 42
0.0532858459711956
 10
102584.5455702502
 20
-168956.1020015044
 42
0.3553196185219603
 10
102659.7924540547
 20
-169030.7664962623
 42
0.0246803239833781
 10
102758.7276984264
 20
-169035.6529804786
 10
103089.7276984261
 20
-169035.6529804786
 42
0.0102051138226746
 10
103130.6986330845
 20
-169034.8166672781
 42
0.3732663043294016
 10
103215.6133871832
 20
-168954.8625689156
 42
0.0505318845729019
 10
103215.613387183
 20
-168752.4433920398
 42
0.3732663043294413
 10
103130.6986330875
 20
-168672.4892936791
 42
0.0102051138226744
 10
103089.7276984261
 20
-168671.6529804785
 10
102941.7749437661
 20
-168671.6529804785
 42
-0.2375638271099136
  0
LINE
  5
D7916
330
1F
100
AcDbEntity
  8
虚线
 48
5.0
100
AcDbLine
 10
102598.7276984138
 20
-168828.1529804786
 30
0.0
 11
102896.2276984237
 21
-168828.1529804786
 31
0.0
  0
LINE
  5
D7917
330
1F
100
AcDbEntity
  8
虚线
 48
5.0
100
AcDbLine
 10
102899.2276984237
 20
-169014.6529804886
 30
0.0
 11
102899.2276984237
 21
-168831.1529804786
 31
0.0
  0
CIRCLE
  5
D7918
102
{ACAD_REACTORS
330
D791B
102
}
330
1F
100
AcDbEntity
  8
粗实线
 62
     7
100
AcDbCircle
 10
102899.2276984237
 20
-168828.1529804786
 30
0.0
 40
3.0
  0
DIMENSION
  5
D7919
102
{ACAD_XDICTIONARY
360
D791A
102
}
102
{ACAD_REACTORS
330
D791B
102
}
330
1F
100
AcDbEntity
  8
标注
 48
5.0
100
AcDbDimension
  2
*D2
 10
102901.531751854
 20
-168826.231695026
 30
0.0
 11
102845.9205128459
 21
-168872.6043455486
 31
0.0
 70
    35
  1
{\fGulim|b0|i0|c129|p34;5-<>}
 71
     5
 42
5.999999999970896
  3
副本Standard
100
AcDbDiametricDimension
 15
102896.9236449934
 25
-168830.0742659311
 35
0.0
 40
0.0
1001
ACAD
1000
DSTYLE
1002
{
1070
   288
1070
     1
1002
}
1001
ACAD_DSTYLE_DIMRADIAL_EXTENSION
1070
   387
1070
     1
1070
   388
1040
0.0
1070
   390
1040
0.0
  0
CIRCLE
  5
D7927
102
{ACAD_REACTORS
330
D791B
330
D7B48
102
}
330
1F
100
AcDbEntity
  8
粗实线
 62
     7
100
AcDbCircle
 10
102899.2276984238
 20
-169017.6529804886
 30
0.0
 40
3.0
  0
CIRCLE
  5
D7928
102
{ACAD_REACTORS
330
D791B
330
D7ADA
102
}
330
1F
100
AcDbEntity
  8
粗实线
 62
     7
100
AcDbCircle
 10
102595.7276984138
 20
-168828.1529804787
 30
0.0
 40
3.0
  0
CIRCLE
  5
D7929
102
{ACAD_REACTORS
330
D791B
330
D7B84
102
}
330
1F
100
AcDbEntity
  8
粗实线
 62
     7
100
AcDbCircle
 10
102899.2276984238
 20
-168659.5158849802
 30
0.0
 40
3.0
  0
CIRCLE
  5
D792A
102
{ACAD_REACTORS
330
D791B
330
D7ADA
102
}
330
1F
100
AcDbEntity
  8
粗实线
 62
     7
100
AcDbCircle
 10
103202.7276984337
 20
-168828.1529804787
 30
0.0
 40
3.0
  0
LINE
  5
D792B
330
1F
100
AcDbEntity
  8
虚线
 48
5.0
100
AcDbLine
 10
102899.2276984237
 20
-168825.1529804787
 30
0.0
 11
102899.2276984237
 21
-168662.5158849802
 31
0.0
  0
LINE
  5
D792C
330
1F
100
AcDbEntity
  8
虚线
 48
5.0
100
AcDbLine
 10
102902.2276984237
 20
-168828.1529804786
 30
0.0
 11
103199.7276984337
 21
-168828.1529804786
 31
0.0
  0
DIMENSION
  5
D792D
102
{ACAD_XDICTIONARY
360
D793B
102
}
102
{ACAD_REACTORS
330
D7946
102
}
330
1F
100
AcDbEntity
  8
标注
 48
5.0
100
AcDbDimension
  2
*D3
 10
103258.9721276472
 20
-168675.6529804785
 30
0.0
 11
103258.9721276472
 21
-168853.6529804785
 31
0.0
 70
    32
 71
     5
 42
356.0000000000292
  3
副本Standard
100
AcDbAlignedDimension
 13
103089.7276984273
 23
-169031.6529804785
 33
0.0
 14
103089.7276984261
 24
-168675.6529804785
 34
0.0
 50
90.0
100
AcDbRotatedDimension
  0
DIMENSION
  5
D7947
102
{ACAD_XDICTIONARY
360
D7955
102
}
102
{ACAD_REACTORS
330
D7960
102
}
330
1F
100
AcDbEntity
  8
标注
 48
5.0
100
AcDbDimension
  2
*D4
 10
103304.8347128923
 20
-168671.6529804785
 30
0.0
 11
103304.8347128923
 21
-168853.6529804785
 31
0.0
 70
    32
 71
     5
 42
364.0000000000292
  3
副本Standard
100
AcDbAlignedDimension
 13
103089.7276984261
 23
-169035.6529804786
 33
0.0
 14
103089.7276984266
 24
-168671.6529804785
 34
0.0
 50
90.0
100
AcDbRotatedDimension
  0
DIMENSION
  5
D7961
102
{ACAD_XDICTIONARY
360
D796F
102
}
102
{ACAD_REACTORS
330
D797A
102
}
330
1F
100
AcDbEntity
  8
标注
 48
5.0
100
AcDbDimension
  2
*D5
 10
102497.9971608334
 20
-168624.6529804787
 30
0.0
 11
102497.9971608334
 21
-168826.7691834169
 31
0.0
 70
   160
 71
     5
 42
406.9999999998543
  3
副本Standard
100
AcDbAlignedDimension
 13
102758.7276984263
 23
-169031.6529804785
 33
0.0
 14
102758.7276984281
 24
-168624.6529804787
 34
0.0
 50
90.0
100
AcDbRotatedDimension
  0
DIMENSION
  5
D797B
102
{ACAD_XDICTIONARY
360
D7989
102
}
102
{ACAD_REACTORS
330
D7994
102
}
330
1F
100
AcDbEntity
  8
标注
 48
5.0
100
AcDbDimension
  2
*D6
 10
102456.7183886074
 20
-168620.6529804787
 30
0.0
 11
102456.7183886074
 21
-168830.6983394365
 31
0.0
 70
   160
 71
     5
 42
414.9999999998254
  3
副本Standard
100
AcDbAlignedDimension
 13
102758.7276984264
 23
-169035.6529804786
 33
0.0
 14
102758.7276984214
 24
-168620.6529804787
 34
0.0
 50
90.0
100
AcDbRotatedDimension
  0
DIMENSION
  5
D7995
330
1F
100
AcDbEntity
  8
标注
 48
5.0
100
AcDbDimension
  2
*D7
 10
102530.7861611093
 20
-168620.6529804787
 30
0.0
 11
102530.7861611093
 21
-168581.5418693676
 31
0.0
 70
    32
 71
     5
 42
3.999999999970896
  3
副本Standard
100
AcDbAlignedDimension
 13
102530.7861611093
 23
-168624.6529804787
 33
0.0
 14
102530.7861611093
 24
-168620.6529804787
 34
0.0
 50
90.0
100
AcDbRotatedDimension
  0
DIMENSION
  5
D79A2
102
{ACAD_XDICTIONARY
360
D79B0
102
}
102
{ACAD_REACTORS
330
D79BB
102
}
330
1F
100
AcDbEntity
  8
标注
 48
5.0
100
AcDbDimension
  2
*D8
 10
103216.7276984237
 20
-169113.9327726855
 30
0.0
 11
102899.3897903671
 21
-169113.9327726855
 31
0.0
 70
   160
 71
     5
 42
634.9999999999272
  3
副本Standard
100
AcDbAlignedDimension
 13
102581.7276984237
 23
-168828.1529804761
 33
0.0
 14
103216.7276984237
 24
-168853.6529804777
 34
0.0
100
AcDbRotatedDimension
  0
DIMENSION
  5
D79BC
102
{ACAD_XDICTIONARY
360
D79CA
102
}
102
{ACAD_REACTORS
330
D79D5
102
}
330
1F
100
AcDbEntity
  8
标注
 48
5.0
100
AcDbDimension
  2
*D9
 10
103220.7276984237
 20
-169152.0264547939
 30
0.0
 11
102901.0913413106
 21
-169152.0264547939
 31
0.0
 70
   160
 71
     5
 42
642.9999999999272
  3
副本Standard
100
AcDbAlignedDimension
 13
102577.7276984237
 23
-168828.1529804761
 33
0.0
 14
103220.7276984237
 24
-168853.6529804777
 34
0.0
100
AcDbRotatedDimension
  0
DIMENSION
  5
D79D7
102
{ACAD_XDICTIONARY
360
D79E0
102
}
102
{ACAD_REACTORS
330
D79E6
102
}
330
1F
100
AcDbEntity
  8
标注
 48
5.0
100
AcDbDimension
  2
*D10
 10
102758.7276984253
 20
-168031.6529804303
 30
0.0
 11
102719.9983816984
 21
-168963.4595723172
 31
0.0
 70
   164
 71
     5
 42
1000.000000048312
  3
副本Standard
100
AcDbRadialDimension
 15
102717.1998673012
 25
-169030.7903280151
 35
0.0
 40
0.0
1001
ACAD
1000
DSTYLE
1002
{
1070
   288
1070
     1
1002
}
1001
ACAD_DSTYLE_DIMRADIAL_EXTENSION
1070
   387
1070
     1
1070
   388
1040
4.613687721448838
1070
   390
1040
4.712388980385767
  0
DIMENSION
  5
D79E7
102
{ACAD_XDICTIONARY
360
D79F0
102
}
102
{ACAD_REACTORS
330
D79F6
102
}
330
1F
100
AcDbEntity
  8
标注
 48
5.0
100
AcDbDimension
  2
*D11
 10
102668.0699047766
 20
-168947.175325616
 30
0.0
 11
102651.2666253757
 21
-168968.096070806
 31
0.0
 70
   164
 71
     5
 42
80.00000000289583
  3
副本Standard
100
AcDbRadialDimension
 15
102617.9731711626
 25
-169009.5477336316
 35
0.0
 40
0.0
1001
ACAD
1000
DSTYLE
1002
{
1070
   288
1070
     1
1002
}
1001
ACAD_DSTYLE_DIMRADIAL_EXTENSION
1070
   387
1070
     1
1070
   388
1040
3.248063651160283
1070
   390
1040
4.613687721475849
  0
DIMENSION
  5
D79F7
102
{ACAD_XDICTIONARY
360
D7A00
102
}
102
{ACAD_REACTORS
330
D7A06
102
}
330
1F
100
AcDbEntity
  8
标注
 48
5.0
100
AcDbDimension
  2
*D12
 10
103781.7276984016
 20
-168828.1529804786
 30
0.0
 11
102652.7646444849
 21
-168918.9844279697
 31
0.0
 70
   164
 71
     5
 42
1199.999999977823
  3
副本Standard
100
AcDbRadialDimension
 15
102585.5928102559
 25
-168924.3887810285
 35
0.0
 40
0.0
1001
ACAD
1000
DSTYLE
1002
{
1070
   288
1070
     1
1002
}
1001
ACAD_DSTYLE_DIMRADIAL_EXTENSION
1070
   387
1070
     1
1070
   388
1040
3.035121656047661
1070
   390
1040
3.248063651127826
  0
DIMENSION
  5
D7A07
102
{ACAD_XDICTIONARY
360
D7A10
102
}
102
{ACAD_REACTORS
330
D7A16
102
}
330
1F
100
AcDbEntity
  8
标注
 48
5.0
100
AcDbDimension
  2
*D13
 10
102668.0699047711
 20
-168709.1306353359
 30
0.0
 11
102648.7420463791
 21
-168690.5171545331
 31
0.0
 70
   164
 71
     5
 42
79.9999999969732
  3
副本Standard
100
AcDbRadialDimension
 15
102610.4464760207
 25
-168653.6370279692
 35
0.0
 40
0.0
1001
ACAD
1000
DSTYLE
1002
{
1070
   288
1070
     1
1002
}
1001
ACAD_DSTYLE_DIMRADIAL_EXTENSION
1070
   387
1070
     1
1070
   388
1040
1.669497585703516
1070
   390
1040
3.035121656018971
  0
DIMENSION
  5
D7A17
102
{ACAD_XDICTIONARY
360
D7A20
102
}
102
{ACAD_REACTORS
330
D7A26
102
}
330
1F
100
AcDbEntity
  8
标注
 48
5.0
100
AcDbDimension
  2
*D14
 10
102758.7276984239
 20
-169624.6529805028
 30
0.0
 11
102735.7976123476
 21
-168692.323802709
 31
0.0
 70
   164
 71
     5
 42
1000.000000024214
  3
副本Standard
100
AcDbRadialDimension
 15
102734.1407234211
 25
-168624.9552858427
 35
0.0
 40
0.0
1001
ACAD
1000
DSTYLE
1002
{
1070
   288
1070
     1
1002
}
1001
ACAD_DSTYLE_DIMRADIAL_EXTENSION
1070
   387
1070
     1
1070
   388
1040
1.472095067857978
1070
   390
1040
1.669497585736564
  0
DIMENSION
  5
D7A27
102
{ACAD_XDICTIONARY
360
D7A30
102
}
102
{ACAD_REACTORS
330
D7A36
102
}
330
1F
100
AcDbEntity
  8
标注
 48
5.0
100
AcDbDimension
  2
*D15
 10
102849.3854920711
 20
-168709.1306353413
 30
0.0
 11
102858.8586188105
 21
-168684.0251051196
 31
0.0
 70
   164
 71
     5
 42
80.00000000296859
  3
副本Standard
100
AcDbRadialDimension
 15
102877.6283543976
 25
-168634.2818495925
 35
0.0
 40
0.0
1001
ACAD_DSTYLE_DIMRADIAL_EXTENSION
1070
   387
1070
     1
1070
   388
1040
0.637835451294083
1070
   390
1040
1.472095067885296
1001
ACAD
1000
DSTYLE
1002
{
1070
   288
1070
     1
1002
}
  0
DIMENSION
  5
D7A49
102
{ACAD_XDICTIONARY
360
D7A52
102
}
102
{ACAD_REACTORS
330
D7A58
102
}
330
1F
100
AcDbEntity
  8
标注
 48
5.0
100
AcDbDimension
  2
*D16
 10
102941.7749437662
 20
-168640.6529804787
 30
0.0
 11
102950.1385999659
 21
-168624.714057837
 31
0.0
 70
   164
 71
     5
 42
34.99999999981084
  3
副本Standard
100
AcDbRadialDimension
 15
102925.5122789337
 25
-168671.6453300595
 35
0.0
 40
0.0
1001
ACAD
1000
DSTYLE
1002
{
1070
   288
1070
     1
1002
}
1001
ACAD_DSTYLE_DIMRADIAL_EXTENSION
1070
   387
1070
     1
1070
   388
1040
3.779428104885296
1070
   390
1040
4.712388980385105
  0
DIMENSION
  5
D7A59
102
{ACAD_XDICTIONARY
360
D7A62
102
}
102
{ACAD_REACTORS
330
D7A68
102
}
330
1F
100
AcDbEntity
  8
标注
 48
5.0
100
AcDbDimension
  2
*D17
 10
103127.066747444
 20
-168761.4151583439
 30
0.0
 11
103142.0733849628
 21
-168733.1520935726
 31
0.0
 70
   164
 71
     5
 42
84.99999999823922
  3
副本Standard
100
AcDbRadialDimension
 15
103166.9281283549
 25
-168686.3413925426
 35
0.0
 40
0.0
1001
ACAD
1000
DSTYLE
1002
{
1070
   288
1070
     1
1002
}
1001
ACAD_DSTYLE_DIMRADIAL_EXTENSION
1070
   387
1070
     1
1070
   388
1040
0.1009778795341913
1070
   390
1040
1.529977288472163
  0
DIMENSION
  5
D7A69
102
{ACAD_XDICTIONARY
360
D7A72
102
}
102
{ACAD_REACTORS
330
D7A78
102
}
330
1F
100
AcDbEntity
  8
标注
 48
5.0
100
AcDbDimension
  2
*D18
 10
103089.7276984259
 20
-169675.6529805027
 30
0.0
 11
103101.1575970028
 21
-168743.1119132933
 31
0.0
 70
   164
 71
     5
 42
1000.000000024505
  3
副本Standard
100
AcDbRadialDimension
 15
103101.9835019872
 25
-168675.728085659
 35
0.0
 40
0.0
1001
ACAD
1000
DSTYLE
1002
{
1070
   288
1070
     1
1002
}
1001
ACAD_DSTYLE_DIMRADIAL_EXTENSION
1070
   387
1070
     1
1070
   388
1040
1.529977288488644
1070
   390
1040
1.570796326794648
  0
DIMENSION
  5
D7A79
102
{ACAD_XDICTIONARY
360
D7A82
102
}
102
{ACAD_REACTORS
330
D7A88
102
}
330
1F
100
AcDbEntity
  8
标注
 48
5.0
100
AcDbDimension
  2
*D19
 10
102216.7276984155
 20
-168853.6529804786
 30
0.0
 11
103149.320211952
 21
-168859.5426561018
 31
0.0
 70
   164
 71
     5
 42
1000.00000000828
  3
副本Standard
100
AcDbRadialDimension
 15
103216.7077570112
 25
-168859.968234021
 35
0.0
 40
0.0
1001
ACAD
1000
DSTYLE
1002
{
1070
   288
1070
     1
1002
}
1001
ACAD_DSTYLE_DIMRADIAL_EXTENSION
1070
   387
1070
     1
1070
   388
1040
6.182207427629655
1070
   390
1040
0.1009778795516566
  0
DIMENSION
  5
D7A89
102
{ACAD_XDICTIONARY
360
D7A92
102
}
102
{ACAD_REACTORS
330
D7A98
102
}
330
1F
100
AcDbEntity
  8
标注
 48
5.0
100
AcDbDimension
  2
*D20
 10
103127.0667474413
 20
-168945.8908026104
 30
0.0
 11
103145.9576489527
 21
-168971.7197367767
 31
0.0
 70
   164
 71
     5
 42
85.00000000122236
  3
副本Standard
100
AcDbRadialDimension
 15
103177.2457045797
 25
-169014.498908988
 35
0.0
 40
0.0
1001
ACAD
1000
DSTYLE
1002
{
1070
   288
1070
     1
1002
}
1001
ACAD_DSTYLE_DIMRADIAL_EXTENSION
1070
   387
1070
     1
1070
   388
1040
4.753208018700191
1070
   390
1040
6.182207427638518
  0
DIMENSION
  5
D7A99
102
{ACAD_XDICTIONARY
360
D7AA2
102
}
102
{ACAD_REACTORS
330
D7AA8
102
}
330
1F
100
AcDbEntity
  8
标注
 48
5.0
100
AcDbDimension
  2
*D21
 10
103089.7276984273
 20
-168031.6529805247
 30
0.0
 11
103113.5993149336
 21
-168963.9585261519
 31
0.0
 70
   164
 71
     5
 42
999.9999999538996
  3
副本Standard
100
AcDbRadialDimension
 15
103115.3242372439
 25
-169031.3253354032
 35
0.0
 40
0.0
1001
ACAD
1000
DSTYLE
1002
{
1070
   288
1070
     1
1002
}
1001
ACAD_DSTYLE_DIMRADIAL_EXTENSION
1070
   387
1070
     1
1070
   388
1040
4.712388980383525
1070
   390
1040
4.75320801868953
  0
DIMENSION
  5
D7AC1
102
{ACAD_XDICTIONARY
360
D7ACF
102
}
102
{ACAD_REACTORS
330
D7ADA
102
}
330
1F
100
AcDbEntity
  8
标注
 48
5.0
100
AcDbDimension
  2
*D22
 10
103202.7276984337
 20
-168757.7504048347
 30
0.0
 11
102762.5584619021
 21
-168757.7504048347
 31
0.0
 70
   160
 71
     5
 42
607.0000000199216
  3
副本Standard
100
AcDbAlignedDimension
 13
102595.7276984138
 23
-168828.1529804787
 33
0.0
 14
103202.7276984337
 24
-168828.1529804787
 34
0.0
100
AcDbRotatedDimension
  0
DIMENSION
  5
D7AEF
330
1F
100
AcDbEntity
  8
标注
 48
5.0
100
AcDbDimension
  2
*D23
 10
102899.2276984237
 20
-168794.7913490618
 30
0.0
 11
102747.4776984188
 21
-168794.7913490618
 31
0.0
 70
    32
 71
     5
 42
303.5000000098953
  3
副本Standard
100
AcDbAlignedDimension
 13
102595.7276984138
 23
-168828.1529804787
 33
0.0
 14
102899.2276984237
 24
-168828.1529804786
 34
0.0
100
AcDbRotatedDimension
  0
DIMENSION
  5
D7AFD
102
{ACAD_XDICTIONARY
360
D7B0C
102
}
102
{ACAD_REACTORS
330
D7B18
102
}
330
1F
100
AcDbEntity
  8
标注
 48
5.0
100
AcDbDimension
  2
*D24
 10
102577.7276984237
 20
-168794.7913490618
 30
0.0
 11
102532.949920646
 21
-168794.7913490618
 31
0.0
 70
    32
 71
     5
 42
17.99999999006104
  3
副本Standard
100
AcDbAlignedDimension
 13
102595.7276984138
 23
-168828.1529804787
 33
0.0
 14
102577.7276984237
 24
-168828.1529804787
 34
0.0
100
AcDbRotatedDimension
  0
DIMENSION
  5
D7B2D
102
{ACAD_XDICTIONARY
360
D7B3C
102
}
102
{ACAD_REACTORS
330
D7B48
102
}
330
1F
100
AcDbEntity
  8
标注
 48
5.0
100
AcDbDimension
  2
*D25
 10
102928.9747823308
 20
-169035.6529804786
 30
0.0
 11
102928.9747823308
 21
-169080.4307582563
 31
0.0
 70
    32
 71
     5
 42
17.99999998993007
  3
副本Standard
100
AcDbAlignedDimension
 13
102899.2276984238
 23
-169017.6529804886
 33
0.0
 14
102899.2276984238
 24
-169035.6529804786
 34
0.0
 50
90.0
100
AcDbRotatedDimension
  0
DIMENSION
  5
D7B5D
330
1F
100
AcDbEntity
  8
标注
 48
5.0
100
AcDbDimension
  2
*D26
 10
102962.9389271949
 20
-168828.1529804786
 30
0.0
 11
102962.938927195
 21
-168922.9029804836
 31
0.0
 70
    32
 71
     5
 42
189.5000000100408
  3
副本Standard
100
AcDbAlignedDimension
 13
102899.2276984238
 23
-169017.6529804886
 33
0.0
 14
102899.2276984237
 24
-168828.1529804786
 34
0.0
 50
90.0
100
AcDbRotatedDimension
  0
DIMENSION
  5
D7B6B
102
{ACAD_XDICTIONARY
360
D7B79
102
}
102
{ACAD_REACTORS
330
D7B84
102
}
330
1F
100
AcDbEntity
  8
标注
 48
5.0
100
AcDbDimension
  2
*D27
 10
103014.3528285257
 20
-168659.5158849802
 30
0.0
 11
103014.3528285258
 21
-168914.4720502629
 31
0.0
 70
   160
 71
     5
 42
358.1370955083985
  3
副本Standard
100
AcDbAlignedDimension
 13
102899.2276984238
 23
-169017.6529804886
 33
0.0
 14
102899.2276984238
 24
-168659.5158849802
 34
0.0
 50
90.0
100
AcDbRotatedDimension
  0
ENDSEC
  0
SECTION
  2
OBJECTS
  0
DICTIONARY
  5
C
330
0
100
AcDbDictionary
281
     1
  3
ACAD_2007HEADERVARS_RT
350
D7F1E
  3
ACAD_COLOR
350
6C
  3
ACAD_GROUP
350
D
  3
ACAD_LAYOUT
350
1A
  3
ACAD_MATERIAL
350
6B
  3
ACAD_MLEADERSTYLE
350
CEDBA
  3
ACAD_MLINESTYLE
350
17
  3
ACAD_PLOTSETTINGS
350
19
  3
ACAD_PLOTSTYLENAME
350
E
  3
ACAD_SCALELIST
350
CED98
  3
ACAD_TABLESTYLE
350
FAF
  3
ACAD_VISUALSTYLE
350
CED87
  3
AcadDim
350
100FD
  3
ACDB_RECOMPOSE_DATA
350
D0C4C
  3
AcDbVariableDictionary
350
59
  3
ASE_INDEX_DICTIONARY
350
C2668
  3
DWGPROPS
350
D7F1D
  3
lxx_dict
350
A9D16
  0
DICTIONARY
  5
AB
330
2
100
AcDbDictionary
280
     1
281
     1
  3
ACAD_LAYERFILTERS
360
D5CEC
  3
ACAD_LAYERSTATES
360
AC
  3
ACLYDICTIONARY
360
D5CEB
  0
DICTIONARY
  5
CF251
330
10
100
AcDbDictionary
280
     1
281
     1
  3
ADSK_XREC_LAYER_RECONCILED
360
CF252
  0
DICTIONARY
  5
CF259
330
9D
100
AcDbDictionary
280
     1
281
     1
  3
ADSK_XREC_LAYER_RECONCILED
360
CF25A
  0
DICTIONARY
  5
CF25D
330
16DF9
100
AcDbDictionary
280
     1
281
     1
  3
ADSK_XREC_LAYER_RECONCILED
360
CF25E
  0
DICTIONARY
  5
118B
330
1F
100
AcDbDictionary
280
     1
281
     1
  3
ACAD_SORTENTS
360
118C
  0
DICTIONARY
  5
D7F2D
330
D7ABB
100
AcDbDictionary
280
     1
281
     1
  3
ACAD_MTEXT_RT
360
D7F2E
  0
DICTIONARY
  5
D791A
330
D7919
100
AcDbDictionary
280
     1
281
     1
  3
ACAD_DIMASSOC
360
D791B
  0
DICTIONARY
  5
D793B
330
D792D
100
AcDbDictionary
280
     1
281
     1
  3
ACAD_DIMASSOC
360
D7946
  0
DICTIONARY
  5
D7955
330
D7947
100
AcDbDictionary
280
     1
281
     1
  3
ACAD_DIMASSOC
360
D7960
  0
DICTIONARY
  5
D796F
330
D7961
100
AcDbDictionary
280
     1
281
     1
  3
ACAD_DIMASSOC
360
D797A
  0
DICTIONARY
  5
D7989
330
D797B
100
AcDbDictionary
280
     1
281
     1
  3
ACAD_DIMASSOC
360
D7994
  0
DICTIONARY
  5
D79B0
330
D79A2
100
AcDbDictionary
280
     1
281
     1
  3
ACAD_DIMASSOC
360
D79BB
  0
DICTIONARY
  5
D79CA
330
D79BC
100
AcDbDictionary
280
     1
281
     1
  3
ACAD_DIMASSOC
360
D79D5
  0
DICTIONARY
  5
D79E0
330
D79D7
100
AcDbDictionary
280
     1
281
     1
  3
ACAD_DIMASSOC
360
D79E6
  0
DICTIONARY
  5
D79F0
330
D79E7
100
AcDbDictionary
280
     1
281
     1
  3
ACAD_DIMASSOC
360
D79F6
  0
DICTIONARY
  5
D7A00
330
D79F7
100
AcDbDictionary
280
     1
281
     1
  3
ACAD_DIMASSOC
360
D7A06
  0
DICTIONARY
  5
D7A10
330
D7A07
100
AcDbDictionary
280
     1
281
     1
  3
ACAD_DIMASSOC
360
D7A16
  0
DICTIONARY
  5
D7A20
330
D7A17
100
AcDbDictionary
280
     1
281
     1
  3
ACAD_DIMASSOC
360
D7A26
  0
DICTIONARY
  5
D7A30
330
D7A27
100
AcDbDictionary
280
     1
281
     1
  3
ACAD_DIMASSOC
360
D7A36
  0
DICTIONARY
  5
D7A52
330
D7A49
100
AcDbDictionary
280
     1
281
     1
  3
ACAD_DIMASSOC
360
D7A58
  0
DICTIONARY
  5
D7A62
330
D7A59
100
AcDbDictionary
280
     1
281
     1
  3
ACAD_DIMASSOC
360
D7A68
  0
DICTIONARY
  5
D7A72
330
D7A69
100
AcDbDictionary
280
     1
281
     1
  3
ACAD_DIMASSOC
360
D7A78
  0
DICTIONARY
  5
D7A82
330
D7A79
100
AcDbDictionary
280
     1
281
     1
  3
ACAD_DIMASSOC
360
D7A88
  0
DICTIONARY
  5
D7A92
330
D7A89
100
AcDbDictionary
280
     1
281
     1
  3
ACAD_DIMASSOC
360
D7A98
  0
DICTIONARY
  5
D7AA2
330
D7A99
100
AcDbDictionary
280
     1
281
     1
  3
ACAD_DIMASSOC
360
D7AA8
  0
DICTIONARY
  5
D7ACF
330
D7AC1
100
AcDbDictionary
280
     1
281
     1
  3
ACAD_DIMASSOC
360
D7ADA
  0
DICTIONARY
  5
D7B0C
330
D7AFD
100
AcDbDictionary
280
     1
281
     1
  3
ACAD_DIMASSOC
360
D7B18
  0
DICTIONARY
  5
D7B3C
330
D7B2D
100
AcDbDictionary
280
     1
281
     1
  3
ACAD_DIMASSOC
360
D7B48
  0
DICTIONARY
  5
D7B79
330
D7B6B
100
AcDbDictionary
280
     1
281
     1
  3
ACAD_DIMASSOC
360
D7B84
  0
DICTIONARY
  5
D7F1E
102
{ACAD_REACTORS
330
C
102
}
330
C
100
AcDbDictionary
281
     1
  3
DIMARCSYM
350
D7F21
  3
DIMFXL
350
D7F20
  3
DIMFXLON
350
D7F1F
  3
DIMJOGANG
350
D7F22
  3
DIMLTEX1
350
D7F24
  3
DIMLTEX2
350
D7F25
  3
DIMLTYPE
350
D7F23
  0
DICTIONARY
  5
6C
102
{ACAD_REACTORS
330
C
102
}
330
C
100
AcDbDictionary
281
     1
  0
DICTIONARY
  5
D
102
{ACAD_REACTORS
330
C
102
}
330
C
100
AcDbDictionary
281
     1
  0
DICTIONARY
  5
1A
102
{ACAD_REACTORS
330
C
102
}
330
C
100
AcDbDictionary
281
     1
  3
Model
350
22
  3
布局1
350
74
  3
布局2
350
79
  0
DICTIONARY
  5
6B
102
{ACAD_REACTORS
330
C
102
}
330
C
100
AcDbDictionary
281
     1
  3
ByBlock
350
CED77
  3
ByLayer
350
CED6F
  3
Global
350
CED7F
  0
DICTIONARY
  5
CEDBA
102
{ACAD_REACTORS
330
C
102
}
330
C
100
AcDbDictionary
281
     1
  3
Standard
350
CEDBB
  0
DICTIONARY
  5
17
102
{ACAD_REACTORS
330
C
102
}
330
C
100
AcDbDictionary
281
     1
  3
Standard
350
18
  0
DICTIONARY
  5
19
102
{ACAD_REACTORS
330
C
102
}
330
C
100
AcDbDictionary
281
     1
  0
ACDBDICTIONARYWDFLT
  5
E
102
{ACAD_REACTORS
330
C
102
}
330
C
100
AcDbDictionary
281
     1
  3
Normal
350
F
100
AcDbDictionaryWithDefault
340
F
  0
DICTIONARY
  5
CED98
102
{ACAD_REACTORS
330
C
102
}
330
C
100
AcDbDictionary
281
     1
  3
A0
350
CED99
  3
A1
350
CED9A
  3
A2
350
CED9B
  3
A3
350
CED9C
  3
A4
350
CED9D
  3
A5
350
CED9E
  3
A6
350
CED9F
  3
A7
350
CEDA0
  3
A8
350
CEDA1
  3
A9
350
CEDA2
  3
B0
350
CEDA3
  3
B1
350
CEDA4
  3
B2
350
CEDA5
  3
B3
350
CEDA6
  3
B4
350
CEDA7
  3
B5
350
CEDA8
  3
B6
350
CEDA9
  3
B7
350
CEDAA
  3
B8
350
CEDAB
  3
B9
350
CEDAC
  3
C0
350
CEDAD
  3
C1
350
CEDAE
  3
C2
350
CEDAF
  3
C3
350
CEDB0
  3
C4
350
CEDB1
  3
C5
350
CEDB2
  3
C6
350
CEDB3
  3
C7
350
CEDB4
  3
C8
350
CEDB5
  3
C9
350
CEDB6
  3
D0
350
CEDB7
  3
D1
350
CEDB8
  3
D2
350
CEDB9
  0
DICTIONARY
  5
FAF
102
{ACAD_REACTORS
330
C
102
}
330
C
100
AcDbDictionary
281
     1
  3
Standard
350
FB0
  0
DICTIONARY
  5
CED87
102
{ACAD_REACTORS
330
C
102
}
330
C
100
AcDbDictionary
281
     1
  3
2dWireframe
350
CED8D
  3
3D Hidden
350
CED8F
  3
3dWireframe
350
CED8E
  3
Basic
350
CED8C
  3
Brighten
350
CED93
  3
ColorChange
350
CED97
  3
Conceptual
350
CED90
  3
Dim
350
CED92
  3
Facepattern
350
CED96
  3
Flat
350
CED88
  3
FlatWithEdges
350
CED89
  3
Gouraud
350
CED8A
  3
GouraudWithEdges
350
CED8B
  3
Linepattern
350
CED95
  3
Realistic
350
CED91
  3
Thicken
350
CED94
  0
XRECORD
  5
100FD
102
{ACAD_REACTORS
330
C
102
}
330
C
100
AcDbXrecord
280
     1
 90
   990106
  3

 60
     0
 61
     0
 62
     1
 63
     3
 64
     0
 65
     0
 66
     0
 67
     3
 68
     1
 69
     0
 70
     0
 71
     0
 72
     0
 40
0.0
170
     0
  0
XRECORD
  5
D0C4C
102
{ACAD_REACTORS
330
C
102
}
330
C
100
AcDbXrecord
280
     1
 90
        1
330
FB0
  0
DICTIONARY
  5
59
102
{ACAD_REACTORS
330
C
102
}
330
C
100
AcDbDictionary
281
     1
  3
CANNOSCALE
350
D0C4F
  3
CMLEADERSTYLE
350
D0C4D
  3
CTABLESTYLE
350
100D
  3
DIMASSOC
350
5A
  3
HIDETEXT
350
5E
  3
INDEXCTL
350
D7EF0
  3
LIGHTINGUNITS
350
D0C50
  3
MSLTSCALE
350
D0C4E
  3
SORTENTS
350
D7EEF
  0
DICTIONARY
  5
C2668
102
{ACAD_REACTORS
330
C
102
}
330
C
100
AcDbDictionary
281
     1
  3
ASEBlockHierarchyIndexRecord
350
C2669
1001
DCO15
1040
1779131318.625
  0
XRECORD
  5
D7F1D
102
{ACAD_REACTORS
330
C
102
}
330
C
100
AcDbXrecord
280
     1
  1
DWGPROPS COOKIE
  2

  3

  4

  6

  7

  8
Administrator
  9

300
=
301
=
302
=
303
=
304
=
305
=
306
=
307
=
308
=
309
=
 40
8.846093819444444
 41
2454355.343801713
 42
2457938.59287456
  1

 90
        0
  0
DICTIONARY
  5
A9D16
102
{ACAD_REACTORS
330
C
102
}
330
C
100
AcDbDictionary
281
     1
  3
lxx_dimth
350
A9D17
  0
DICTIONARY
  5
D5CEC
102
{ACAD_REACTORS
330
AB
102
}
330
AB
100
AcDbDictionary
281
     1
  0
DICTIONARY
  5
AC
102
{ACAD_REACTORS
330
AB
102
}
330
AB
100
AcDbDictionary
281
     1
  0
DICTIONARY
  5
D5CEB
102
{ACAD_REACTORS
330
AB
102
}
330
AB
100
AcDbDictionary
281
     1
1001
ACAD
1000
<All
  0
XRECORD
  5
CF252
102
{ACAD_REACTORS
330
CF251
102
}
330
CF251
100
AcDbXrecord
280
     1
290
     1
  0
XRECORD
  5
CF25A
102
{ACAD_REACTORS
330
CF259
102
}
330
CF259
100
AcDbXrecord
280
     1
290
     1
  0
XRECORD
  5
CF25E
102
{ACAD_REACTORS
330
CF25D
102
}
330
CF25D
100
AcDbXrecord
280
     1
290
     1
  0
SORTENTSTABLE
  5
118C
102
{ACAD_REACTORS
330
118B
102
}
330
118B
100
AcDbSortentsTable
330
1F
331
D7918
  5
D7927
331
D7928
  5
D792A
331
D7919
  5
D7928
331
D7929
  5
D792B
331
D792A
  5
D792C
331
D7916
  5
D7916
331
D792B
  5
D7919
331
D7917
  5
D7918
331
D7927
  5
D7929
331
D792C
  5
D7917
331
D7910
  5
D7910
331
D7901
  5
D790E
  0
XRECORD
  5
D7F2E
102
{ACAD_REACTORS
330
D7F2D
102
}
330
D7F2D
100
AcDbXrecord
280
     1
 40
57865.0
  1
\A1;{\fGulim|b0|i0|c129|p34;5-\U+22056}
  0
DIMASSOC
  5
D791B
102
{ACAD_REACTORS
330
D791A
102
}
330
D791A
100
AcDbDimAssoc
330
D7919
 90
        2
 70
     0
 71
     0
  1
AcDbOsnapPointRef
 72
     3
331
D7918
 73
     2
 91
        0
 40
0.0
 10
0.0
 20
0.0
 30
0.0
 75
     0
  0
DIMASSOC
  5
D7946
102
{ACAD_REACTORS
330
D793B
102
}
330
D793B
100
AcDbDimAssoc
330
D792D
 90
        3
 70
     0
 71
     0
  1
AcDbOsnapPointRef
 72
     6
331
D7901
 73
     2
 91
        7
 40
1.000000000003517
 10
0.0
 20
0.0
 30
0.0
332
D7901
 74
     2
 92
        8
 75
     0
  1
AcDbOsnapPointRef
 72
     6
331
D7901
 73
     2
 91
       13
 40
0.0000000000002951
 10
0.0
 20
0.0
 30
0.0
332
D7901
 74
     2
 92
       12
 75
     0
  0
DIMASSOC
  5
D7960
102
{ACAD_REACTORS
330
D7955
102
}
330
D7955
100
AcDbDimAssoc
330
D7947
 90
        3
 70
     0
 71
     0
  1
AcDbOsnapPointRef
 72
     1
331
D7910
 73
     2
 91
        7
 40
1.0
 10
0.0
 20
0.0
 30
2.000000000000000E+50
 75
     0
  1
AcDbOsnapPointRef
 72
     8
331
D7910
 73
     2
 91
       12
 40
1.570796326794693
 10
0.0
 20
0.0
 30
0.0
 75
     1
  1
AcDbOsnapPointRef
 72
     1
331
D7910
 73
     2
 91
        7
 40
1.0
 10
0.0
 20
0.0
 30
2.000000000000000E+50
 75
     0
  0
DIMASSOC
  5
D797A
102
{ACAD_REACTORS
330
D796F
102
}
330
D796F
100
AcDbDimAssoc
330
D7961
 90
        3
 70
     0
 71
     0
  1
AcDbOsnapPointRef
 72
     1
331
D7901
 73
     2
 91
        6
 40
4.712388980385767
 10
0.0
 20
0.0
 30
2.000000000000000E+50
 75
     0
  1
AcDbOsnapPointRef
 72
     8
331
D7901
 73
     2
 91
        2
 40
1.570796326790676
 10
0.0
 20
0.0
 30
0.0
 75
     1
  1
AcDbOsnapPointRef
 72
     1
331
D7901
 73
     2
 91
        6
 40
4.712388980385767
 10
0.0
 20
0.0
 30
2.000000000000000E+50
 75
     0
  0
DIMASSOC
  5
D7994
102
{ACAD_REACTORS
330
D7989
102
}
330
D7989
100
AcDbDimAssoc
330
D797B
 90
        3
 70
     0
 71
     0
  1
AcDbOsnapPointRef
 72
     1
331
D7910
 73
     2
 91
        6
 40
4.712388980385833
 10
0.0
 20
0.0
 30
2.000000000000000E+50
 75
     0
  1
AcDbOsnapPointRef
 72
     2
331
D7910
 73
     2
 91
        2
 40
1.570796326797388
 10
0.0
 20
0.0
 30
0.0
 75
     0
  0
DIMASSOC
  5
D79BB
102
{ACAD_REACTORS
330
D79B0
102
}
330
D79B0
100
AcDbDimAssoc
330
D79A2
 90
        3
 70
     0
 71
     0
  1
AcDbOsnapPointRef
 72
     2
331
D7901
 73
     2
 91
        4
 40
3.141592653587731
 10
0.0
 20
0.0
 30
0.0
 75
     0
  1
AcDbOsnapPointRef
 72
     2
331
D7901
 73
     2
 91
       10
 40
6.283185307180459
 10
0.0
 20
0.0
 30
0.0
 75
     0
  0
DIMASSOC
  5
D79D5
102
{ACAD_REACTORS
330
D79CA
102
}
330
D79CA
100
AcDbDimAssoc
330
D79BC
 90
        3
 70
     0
 71
     0
  1
AcDbOsnapPointRef
 72
     2
331
D7910
 73
     2
 91
        4
 40
3.141592653587689
 10
0.0
 20
0.0
 30
0.0
 75
     0
  1
AcDbOsnapPointRef
 72
     2
331
D7910
 73
     2
 91
       10
 40
6.283185307180454
 10
0.0
 20
0.0
 30
0.0
 75
     0
  0
DIMASSOC
  5
D79E6
102
{ACAD_REACTORS
330
D79E0
102
}
330
D79E0
100
AcDbDimAssoc
330
D79D7
 90
        2
 70
     0
 71
     0
  1
AcDbOsnapPointRef
 72
     3
331
D7901
 73
     2
 91
        6
 40
0.0
 10
0.0
 20
0.0
 30
0.0
 75
     0
  0
DIMASSOC
  5
D79F6
102
{ACAD_REACTORS
330
D79F0
102
}
330
D79F0
100
AcDbDimAssoc
330
D79E7
 90
        2
 70
     0
 71
     0
  1
AcDbOsnapPointRef
 72
     3
331
D7901
 73
     2
 91
        5
 40
0.0
 10
0.0
 20
0.0
 30
0.0
 75
     0
  0
DIMASSOC
  5
D7A06
102
{ACAD_REACTORS
330
D7A00
102
}
330
D7A00
100
AcDbDimAssoc
330
D79F7
 90
        2
 70
     0
 71
     0
  1
AcDbOsnapPointRef
 72
     3
331
D7901
 73
     2
 91
        4
 40
0.0
 10
0.0
 20
0.0
 30
0.0
 75
     0
  0
DIMASSOC
  5
D7A16
102
{ACAD_REACTORS
330
D7A10
102
}
330
D7A10
100
AcDbDimAssoc
330
D7A07
 90
        2
 70
     0
 71
     0
  1
AcDbOsnapPointRef
 72
     3
331
D7901
 73
     2
 91
        3
 40
0.0
 10
0.0
 20
0.0
 30
0.0
 75
     0
  0
DIMASSOC
  5
D7A26
102
{ACAD_REACTORS
330
D7A20
102
}
330
D7A20
100
AcDbDimAssoc
330
D7A17
 90
        2
 70
     0
 71
     0
  1
AcDbOsnapPointRef
 72
     3
331
D7901
 73
     2
 91
        2
 40
0.0
 10
0.0
 20
0.0
 30
0.0
 75
     0
  0
DIMASSOC
  5
D7A36
102
{ACAD_REACTORS
330
D7A30
102
}
330
D7A30
100
AcDbDimAssoc
330
D7A27
 90
        2
 70
     0
 71
     0
  1
AcDbOsnapPointRef
 72
     3
331
D7901
 73
     2
 91
        1
 40
0.0
 10
0.0
 20
0.0
 30
0.0
 75
     0
  0
DIMASSOC
  5
D7A58
102
{ACAD_REACTORS
330
D7A52
102
}
330
D7A52
100
AcDbDimAssoc
330
D7A49
 90
        2
 70
     0
 71
     0
  1
AcDbOsnapPointRef
 72
     3
331
D7901
 73
     2
 91
       14
 40
0.0
 10
0.0
 20
0.0
 30
0.0
 75
     0
  0
DIMASSOC
  5
D7A68
102
{ACAD_REACTORS
330
D7A62
102
}
330
D7A62
100
AcDbDimAssoc
330
D7A59
 90
        2
 70
     0
 71
     0
  1
AcDbOsnapPointRef
 72
     3
331
D7901
 73
     2
 91
       11
 40
0.0
 10
0.0
 20
0.0
 30
0.0
 75
     0
  0
DIMASSOC
  5
D7A78
102
{ACAD_REACTORS
330
D7A72
102
}
330
D7A72
100
AcDbDimAssoc
330
D7A69
 90
        2
 70
     0
 71
     0
  1
AcDbOsnapPointRef
 72
     3
331
D7901
 73
     2
 91
       12
 40
0.0
 10
0.0
 20
0.0
 30
0.0
 75
     0
  0
DIMASSOC
  5
D7A88
102
{ACAD_REACTORS
330
D7A82
102
}
330
D7A82
100
AcDbDimAssoc
330
D7A79
 90
        2
 70
     0
 71
     0
  1
AcDbOsnapPointRef
 72
     3
331
D7901
 73
     2
 91
       10
 40
0.0
 10
0.0
 20
0.0
 30
0.0
 75
     0
  0
DIMASSOC
  5
D7A98
102
{ACAD_REACTORS
330
D7A92
102
}
330
D7A92
100
AcDbDimAssoc
330
D7A89
 90
        2
 70
     0
 71
     0
  1
AcDbOsnapPointRef
 72
     3
331
D7901
 73
     2
 91
        9
 40
0.0
 10
0.0
 20
0.0
 30
0.0
 75
     0
  0
DIMASSOC
  5
D7AA8
102
{ACAD_REACTORS
330
D7AA2
102
}
330
D7AA2
100
AcDbDimAssoc
330
D7A99
 90
        2
 70
     0
 71
     0
  1
AcDbOsnapPointRef
 72
     3
331
D7901
 73
     2
 91
        8
 40
0.0
 10
0.0
 20
0.0
 30
0.0
 75
     0
  0
DIMASSOC
  5
D7ADA
102
{ACAD_REACTORS
330
D7ACF
102
}
330
D7ACF
100
AcDbDimAssoc
330
D7AC1
 90
        3
 70
     0
 71
     0
  1
AcDbOsnapPointRef
 72
     3
331
D7928
 73
     2
 91
        0
 40
0.0
 10
0.0
 20
0.0
 30
0.0
 75
     0
  1
AcDbOsnapPointRef
 72
     3
331
D792A
 73
     2
 91
        0
 40
0.0
 10
0.0
 20
0.0
 30
0.0
 75
     0
  0
DIMASSOC
  5
D7B18
102
{ACAD_REACTORS
330
D7B0C
102
}
330
D7B0C
100
AcDbDimAssoc
330
D7AFD
 90
        2
 70
     0
 71
     0
  1
AcDbOsnapPointRef
 72
     8
331
D7910
 73
     2
 91
        4
 40
3.141592653589865
 10
0.0
 20
0.0
 30
0.0
 75
     1
  1
AcDbOsnapPointRef
 72
     0
 40
0.0
 10
102595.7276984138
 20
-168828.1529804787
 30
0.0
 75
     0
  0
DIMASSOC
  5
D7B48
102
{ACAD_REACTORS
330
D7B3C
102
}
330
D7B3C
100
AcDbDimAssoc
330
D7B2D
 90
        3
 70
     0
 71
     0
  1
AcDbOsnapPointRef
 72
     3
331
D7927
 73
     2
 91
        0
 40
0.0
 10
0.0
 20
0.0
 30
0.0
 75
     0
  1
AcDbOsnapPointRef
 72
     8
331
D7910
 73
     2
 91
        7
 40
0.4244712990861407
 10
0.0
 20
0.0
 30
0.0
 75
     1
  1
AcDbOsnapPointRef
 72
     3
331
D7927
 73
     2
 91
        0
 40
0.0
 10
0.0
 20
0.0
 30
0.0
 75
     0
  0
DIMASSOC
  5
D7B84
102
{ACAD_REACTORS
330
D7B79
102
}
330
D7B79
100
AcDbDimAssoc
330
D7B6B
 90
        2
 70
     0
 71
     0
  1
AcDbOsnapPointRef
 72
     3
331
D7929
 73
     2
 91
        0
 40
0.0
 10
0.0
 20
0.0
 30
0.0
 75
     0
  0
XRECORD
  5
D7F21
102
{ACAD_REACTORS
330
D7F1E
102
}
330
D7F1E
100
AcDbXrecord
280
     1
 70
     1
  0
XRECORD
  5
D7F20
102
{ACAD_REACTORS
330
D7F1E
102
}
330
D7F1E
100
AcDbXrecord
280
     1
 40
35.0
  0
XRECORD
  5
D7F1F
102
{ACAD_REACTORS
330
D7F1E
102
}
330
D7F1E
100
AcDbXrecord
280
     1
290
     1
  0
XRECORD
  5
D7F22
102
{ACAD_REACTORS
330
D7F1E
102
}
330
D7F1E
100
AcDbXrecord
280
     1
 40
1.570796326794896
  0
XRECORD
  5
D7F24
102
{ACAD_REACTORS
330
D7F1E
102
}
330
D7F1E
100
AcDbXrecord
280
     1
340
14
  0
XRECORD
  5
D7F25
102
{ACAD_REACTORS
330
D7F1E
102
}
330
D7F1E
100
AcDbXrecord
280
     1
340
14
  0
XRECORD
  5
D7F23
102
{ACAD_REACTORS
330
D7F1E
102
}
330
D7F1E
100
AcDbXrecord
280
     1
340
14
  0
LAYOUT
  5
22
102
{ACAD_XDICTIONARY
360
D7F26
102
}
102
{ACAD_REACTORS
330
1A
102
}
330
1A
100
AcDbPlotSettings
  1

  2
\\PC-201204061032\Canon LBP2900
  4
A4
  6

 40
5.873749732971191
 41
6.805091857910156
 42
5.873748779296875
 43
4.857757568359375
 44
209.9733276367186
 45
296.9259948730469
 46
-5.889999999999998
 47
-5.87
 48
85766.02374884076
 49
-163980.7810393121
140
88736.02374884079
141
-161880.7810393122
142
1.0
143
10.0
 70
 11940
 72
     1
 73
     1
 74
     4
  7
monochrome.ctb
 75
     0
147
0.1
148
-85766.02374884076
149
163980.7810393121
100
AcDbLayout
  1
Model
 70
     1
 71
     0
 10
0.0
 20
0.0
 11
12.0
 21
9.0
 12
0.0
 22
0.0
 32
0.0
 14
0.0
 24
0.0
 34
0.0
 15
0.0
 25
0.0
 35
0.0
146
0.0
 13
0.0
 23
0.0
 33
0.0
 16
1.0
 26
0.0
 36
0.0
 17
0.0
 27
1.0
 37
0.0
 76
     0
330
1F
331
CED6D
  0
LAYOUT
  5
74
102
{ACAD_XDICTIONARY
360
D7F28
102
}
102
{ACAD_REACTORS
330
1A
102
}
330
1A
100
AcDbPlotSettings
  1

  2
\\ADSCCNDC1\hq601xrx1
  4

  6

 40
0.0
 41
0.0
 42
0.0
 43
0.0
 44
0.0
 45
0.0
 46
0.0
 47
0.0
 48
0.0
 49
0.0
140
0.0
141
0.0
142
1.0
143
1.0
 70
   688
 72
     0
 73
     0
 74
     5
  7
monochrome.ctb
 75
    16
147
1.0
148
0.0
149
0.0
100
AcDbLayout
  1
布局1
 70
     1
 71
     1
 10
0.0
 20
0.0
 11
12.0
 21
9.0
 12
0.0
 22
0.0
 32
0.0
 14
0.0
 24
0.0
 34
0.0
 15
0.0
 25
0.0
 35
0.0
146
0.0
 13
0.0
 23
0.0
 33
0.0
 16
1.0
 26
0.0
 36
0.0
 17
0.0
 27
1.0
 37
0.0
 76
     0
330
73
  0
LAYOUT
  5
79
102
{ACAD_XDICTIONARY
360
D7F2A
102
}
102
{ACAD_REACTORS
330
1A
102
}
330
1A
100
AcDbPlotSettings
  1

  2
\\ADSCCNDC1\hq601xrx1
  4

  6

 40
0.0
 41
0.0
 42
0.0
 43
0.0
 44
0.0
 45
0.0
 46
0.0
 47
0.0
 48
0.0
 49
0.0
140
0.0
141
0.0
142
1.0
143
1.0
 70
   688
 72
     0
 73
     0
 74
     5
  7
monochrome.ctb
 75
    16
147
1.0
148
0.0
149
0.0
100
AcDbLayout
  1
布局2
 70
     1
 71
     2
 10
0.0
 20
0.0
 11
12.0
 21
9.0
 12
0.0
 22
0.0
 32
0.0
 14
0.0
 24
0.0
 34
0.0
 15
0.0
 25
0.0
 35
0.0
146
0.0
 13
0.0
 23
0.0
 33
0.0
 16
1.0
 26
0.0
 36
0.0
 17
0.0
 27
1.0
 37
0.0
 76
     0
330
78
  0
MATERIAL
  5
CED77
102
{ACAD_XDICTIONARY
360
CED78
102
}
102
{ACAD_REACTORS
330
6B
102
}
330
6B
100
AcDbMaterial
  1
ByBlock
 72
     0
 43
0.0208333333333333
 43
0.0
 43
0.0
 43
0.0
 43
0.0
 43
0.0208333333333333
 43
0.0
 43
0.0
 43
0.0
 43
0.0
 43
1.0
 43
0.0
 43
0.0
 43
0.0
 43
0.0
 43
1.0
 77
     0
 47
0.0208333333333333
 47
0.0
 47
0.0
 47
0.0
 47
0.0
 47
0.0208333333333333
 47
0.0
 47
0.0
 47
0.0
 47
0.0
 47
1.0
 47
0.0
 47
0.0
 47
0.0
 47
0.0
 47
1.0
171
     0
 49
0.0208333333333333
 49
0.0
 49
0.0
 49
0.0
 49
0.0
 49
0.0208333333333333
 49
0.0
 49
0.0
 49
0.0
 49
0.0
 49
1.0
 49
0.0
 49
0.0
 49
0.0
 49
0.0
 49
1.0
175
     0
142
0.0208333333333333
142
0.0
142
0.0
142
0.0
142
0.0
142
0.0208333333333333
142
0.0
142
0.0
142
0.0
142
0.0
142
1.0
142
0.0
142
0.0
142
0.0
142
0.0
142
1.0
179
     0
144
0.0208333333333333
144
0.0
144
0.0
144
0.0
144
0.0
144
0.0208333333333333
144
0.0
144
0.0
144
0.0
144
0.0
144
1.0
144
0.0
144
0.0
144
0.0
144
0.0
144
1.0
147
0.0208333333333333
147
0.0
147
0.0
147
0.0
147
0.0
147
0.0208333333333333
147
0.0
147
0.0
147
0.0
147
0.0
147
1.0
147
0.0
147
0.0
147
0.0
147
0.0
147
1.0
  0
MATERIAL
  5
CED6F
102
{ACAD_XDICTIONARY
360
CED70
102
}
102
{ACAD_REACTORS
330
6B
102
}
330
6B
100
AcDbMaterial
  1
ByLayer
 72
     0
 43
0.0208333333333333
 43
0.0
 43
0.0
 43
0.0
 43
0.0
 43
0.0208333333333333
 43
0.0
 43
0.0
 43
0.0
 43
0.0
 43
1.0
 43
0.0
 43
0.0
 43
0.0
 43
0.0
 43
1.0
 77
     0
 47
0.0208333333333333
 47
0.0
 47
0.0
 47
0.0
 47
0.0
 47
0.0208333333333333
 47
0.0
 47
0.0
 47
0.0
 47
0.0
 47
1.0
 47
0.0
 47
0.0
 47
0.0
 47
0.0
 47
1.0
171
     0
 49
0.0208333333333333
 49
0.0
 49
0.0
 49
0.0
 49
0.0
 49
0.0208333333333333
 49
0.0
 49
0.0
 49
0.0
 49
0.0
 49
1.0
 49
0.0
 49
0.0
 49
0.0
 49
0.0
 49
1.0
175
     0
142
0.0208333333333333
142
0.0
142
0.0
142
0.0
142
0.0
142
0.0208333333333333
142
0.0
142
0.0
142
0.0
142
0.0
142
1.0
142
0.0
142
0.0
142
0.0
142
0.0
142
1.0
179
     0
144
0.0208333333333333
144
0.0
144
0.0
144
0.0
144
0.0
144
0.0208333333333333
144
0.0
144
0.0
144
0.0
144
0.0
144
1.0
144
0.0
144
0.0
144
0.0
144
0.0
144
1.0
147
0.0208333333333333
147
0.0
147
0.0
147
0.0
147
0.0
147
0.0208333333333333
147
0.0
147
0.0
147
0.0
147
0.0
147
1.0
147
0.0
147
0.0
147
0.0
147
0.0
147
1.0
  0
MATERIAL
  5
CED7F
102
{ACAD_XDICTIONARY
360
CED80
102
}
102
{ACAD_REACTORS
330
6B
102
}
330
6B
100
AcDbMaterial
  1
Global
 72
     0
 43
0.0208333333333333
 43
0.0
 43
0.0
 43
0.0
 43
0.0
 43
0.0208333333333333
 43
0.0
 43
0.0
 43
0.0
 43
0.0
 43
1.0
 43
0.0
 43
0.0
 43
0.0
 43
0.0
 43
1.0
 77
     0
 47
0.0208333333333333
 47
0.0
 47
0.0
 47
0.0
 47
0.0
 47
0.0208333333333333
 47
0.0
 47
0.0
 47
0.0
 47
0.0
 47
1.0
 47
0.0
 47
0.0
 47
0.0
 47
0.0
 47
1.0
171
     0
 49
0.0208333333333333
 49
0.0
 49
0.0
 49
0.0
 49
0.0
 49
0.0208333333333333
 49
0.0
 49
0.0
 49
0.0
 49
0.0
 49
1.0
 49
0.0
 49
0.0
 49
0.0
 49
0.0
 49
1.0
175
     0
142
0.0208333333333333
142
0.0
142
0.0
142
0.0
142
0.0
142
0.0208333333333333
142
0.0
142
0.0
142
0.0
142
0.0
142
1.0
142
0.0
142
0.0
142
0.0
142
0.0
142
1.0
179
     0
144
0.0208333333333333
144
0.0
144
0.0
144
0.0
144
0.0
144
0.0208333333333333
144
0.0
144
0.0
144
0.0
144
0.0
144
1.0
144
0.0
144
0.0
144
0.0
144
0.0
144
1.0
147
0.0208333333333333
147
0.0
147
0.0
147
0.0
147
0.0
147
0.0208333333333333
147
0.0
147
0.0
147
0.0
147
0.0
147
1.0
147
0.0
147
0.0
147
0.0
147
0.0
147
1.0
  0
MLEADERSTYLE
  5
CEDBB
102
{ACAD_REACTORS
330
CEDBA
102
}
330
CEDBA
100
AcDbMLeaderStyle
170
     2
171
     1
172
     0
 90
        2
 40
0.0
 41
0.0
173
     1
 91
-1056964608
340
14
 92
       -2
290
     1
 42
0.09
291
     1
 43
0.36
  3
Standard
 44
0.18
300

342
11
174
     1
178
     6
175
     1
176
     0
 93
-1056964608
 45
0.18
292
     0
297
     0
 46
0.18
 94
-1056964608
 47
1.0
 49
1.0
140
1.0
293
     1
141
0.0
294
     1
177
     0
142
1.0
295
     0
296
     0
143
0.125
1001
ACAD_MLEADERVER
1070
     2
  0
MLINESTYLE
  5
18
102
{ACAD_REACTORS
330
17
102
}
330
17
100
AcDbMlineStyle
  2
STANDARD
 70
     0
  3

 62
   256
 51
90.0
 52
90.0
 71
     2
 49
0.5
 62
   256
  6
BYLAYER
 49
-0.5
 62
   256
  6
BYLAYER
  0
ACDBPLACEHOLDER
  5
F
102
{ACAD_REACTORS
330
E
102
}
330
E
  0
SCALE
  5
CED99
102
{ACAD_REACTORS
330
CED98
102
}
330
CED98
100
AcDbScale
 70
     0
300
1:1
140
1.0
141
1.0
290
     1
  0
SCALE
  5
CED9A
102
{ACAD_REACTORS
330
CED98
102
}
330
CED98
100
AcDbScale
 70
     0
300
1:2
140
1.0
141
2.0
290
     0
  0
SCALE
  5
CED9B
102
{ACAD_REACTORS
330
CED98
102
}
330
CED98
100
AcDbScale
 70
     0
300
1:4
140
1.0
141
4.0
290
     0
  0
SCALE
  5
CED9C
102
{ACAD_REACTORS
330
CED98
102
}
330
CED98
100
AcDbScale
 70
     0
300
1:5
140
1.0
141
5.0
290
     0
  0
SCALE
  5
CED9D
102
{ACAD_REACTORS
330
CED98
102
}
330
CED98
100
AcDbScale
 70
     0
300
1:8
140
1.0
141
8.0
290
     0
  0
SCALE
  5
CED9E
102
{ACAD_REACTORS
330
CED98
102
}
330
CED98
100
AcDbScale
 70
     0
300
1:10
140
1.0
141
10.0
290
     0
  0
SCALE
  5
CED9F
102
{ACAD_REACTORS
330
CED98
102
}
330
CED98
100
AcDbScale
 70
     0
300
1:16
140
1.0
141
16.0
290
     0
  0
SCALE
  5
CEDA0
102
{ACAD_REACTORS
330
CED98
102
}
330
CED98
100
AcDbScale
 70
     0
300
1:20
140
1.0
141
20.0
290
     0
  0
SCALE
  5
CEDA1
102
{ACAD_REACTORS
330
CED98
102
}
330
CED98
100
AcDbScale
 70
     0
300
1:30
140
1.0
141
30.0
290
     0
  0
SCALE
  5
CEDA2
102
{ACAD_REACTORS
330
CED98
102
}
330
CED98
100
AcDbScale
 70
     0
300
1:40
140
1.0
141
40.0
290
     0
  0
SCALE
  5
CEDA3
102
{ACAD_REACTORS
330
CED98
102
}
330
CED98
100
AcDbScale
 70
     0
300
1:50
140
1.0
141
50.0
290
     0
  0
SCALE
  5
CEDA4
102
{ACAD_REACTORS
330
CED98
102
}
330
CED98
100
AcDbScale
 70
     0
300
1:100
140
1.0
141
100.0
290
     0
  0
SCALE
  5
CEDA5
102
{ACAD_REACTORS
330
CED98
102
}
330
CED98
100
AcDbScale
 70
     0
300
2:1
140
2.0
141
1.0
290
     0
  0
SCALE
  5
CEDA6
102
{ACAD_REACTORS
330
CED98
102
}
330
CED98
100
AcDbScale
 70
     0
300
4:1
140
4.0
141
1.0
290
     0
  0
SCALE
  5
CEDA7
102
{ACAD_REACTORS
330
CED98
102
}
330
CED98
100
AcDbScale
 70
     0
300
8:1
140
8.0
141
1.0
290
     0
  0
SCALE
  5
CEDA8
102
{ACAD_REACTORS
330
CED98
102
}
330
CED98
100
AcDbScale
 70
     0
300
10:1
140
10.0
141
1.0
290
     0
  0
SCALE
  5
CEDA9
102
{ACAD_REACTORS
330
CED98
102
}
330
CED98
100
AcDbScale
 70
     0
300
100:1
140
100.0
141
1.0
290
     0
  0
SCALE
  5
CEDAA
102
{ACAD_REACTORS
330
CED98
102
}
330
CED98
100
AcDbScale
 70
     0
300
1/128" = 1'-0"
140
0.0078125
141
12.0
290
     0
  0
SCALE
  5
CEDAB
102
{ACAD_REACTORS
330
CED98
102
}
330
CED98
100
AcDbScale
 70
     0
300
1/64" = 1'-0"
140
0.015625
141
12.0
290
     0
  0
SCALE
  5
CEDAC
102
{ACAD_REACTORS
330
CED98
102
}
330
CED98
100
AcDbScale
 70
     0
300
1/32" = 1'-0"
140
0.03125
141
12.0
290
     0
  0
SCALE
  5
CEDAD
102
{ACAD_REACTORS
330
CED98
102
}
330
CED98
100
AcDbScale
 70
     0
300
1/16" = 1'-0"
140
0.0625
141
12.0
290
     0
  0
SCALE
  5
CEDAE
102
{ACAD_REACTORS
330
CED98
102
}
330
CED98
100
AcDbScale
 70
     0
300
3/32" = 1'-0"
140
0.09375
141
12.0
290
     0
  0
SCALE
  5
CEDAF
102
{ACAD_REACTORS
330
CED98
102
}
330
CED98
100
AcDbScale
 70
     0
300
1/8" = 1'-0"
140
0.125
141
12.0
290
     0
  0
SCALE
  5
CEDB0
102
{ACAD_REACTORS
330
CED98
102
}
330
CED98
100
AcDbScale
 70
     0
300
3/16" = 1'-0"
140
0.1875
141
12.0
290
     0
  0
SCALE
  5
CEDB1
102
{ACAD_REACTORS
330
CED98
102
}
330
CED98
100
AcDbScale
 70
     0
300
1/4" = 1'-0"
140
0.25
141
12.0
290
     0
  0
SCALE
  5
CEDB2
102
{ACAD_REACTORS
330
CED98
102
}
330
CED98
100
AcDbScale
 70
     0
300
3/8" = 1'-0"
140
0.375
141
12.0
290
     0
  0
SCALE
  5
CEDB3
102
{ACAD_REACTORS
330
CED98
102
}
330
CED98
100
AcDbScale
 70
     0
300
1/2" = 1'-0"
140
0.5
141
12.0
290
     0
  0
SCALE
  5
CEDB4
102
{ACAD_REACTORS
330
CED98
102
}
330
CED98
100
AcDbScale
 70
     0
300
3/4" = 1'-0"
140
0.75
141
12.0
290
     0
  0
SCALE
  5
CEDB5
102
{ACAD_REACTORS
330
CED98
102
}
330
CED98
100
AcDbScale
 70
     0
300
1" = 1'-0"
140
1.0
141
12.0
290
     0
  0
SCALE
  5
CEDB6
102
{ACAD_REACTORS
330
CED98
102
}
330
CED98
100
AcDbScale
 70
     0
300
1-1/2" = 1'-0"
140
1.5
141
12.0
290
     0
  0
SCALE
  5
CEDB7
102
{ACAD_REACTORS
330
CED98
102
}
330
CED98
100
AcDbScale
 70
     0
300
3" = 1'-0"
140
3.0
141
12.0
290
     0
  0
SCALE
  5
CEDB8
102
{ACAD_REACTORS
330
CED98
102
}
330
CED98
100
AcDbScale
 70
     0
300
6" = 1'-0"
140
6.0
141
12.0
290
     0
  0
SCALE
  5
CEDB9
102
{ACAD_REACTORS
330
CED98
102
}
330
CED98
100
AcDbScale
 70
     0
300
1'-0" = 1'-0"
140
12.0
141
12.0
290
     0
  0
TABLESTYLE
  5
FB0
102
{ACAD_XDICTIONARY
360
D0C45
102
}
102
{ACAD_REACTORS
330
FAF
102
}
330
FAF
100
AcDbTableStyle
  3
Standard
 70
     0
 71
     0
 40
0.06
 41
0.06
280
     0
281
     0
  7
Standard
140
0.18
170
     2
 62
     0
 63
     7
283
     0
274
    -2
284
     1
 64
     0
275
    -2
285
     1
 65
     0
276
    -2
286
     1
 66
     0
277
    -2
287
     1
 67
     0
278
    -2
288
     1
 68
     0
279
    -2
289
     1
 69
     0
  7
Standard
140
0.25
170
     5
 62
     0
 63
     7
283
     0
274
    -2
284
     1
 64
     0
275
    -2
285
     1
 65
     0
276
    -2
286
     1
 66
     0
277
    -2
287
     1
 67
     0
278
    -2
288
     1
 68
     0
279
    -2
289
     1
 69
     0
  7
Standard
140
0.18
170
     5
 62
     0
 63
     7
283
     0
274
    -2
284
     1
 64
     0
275
    -2
285
     1
 65
     0
276
    -2
286
     1
 66
     0
277
    -2
287
     1
 67
     0
278
    -2
288
     1
 68
     0
279
    -2
289
     1
 69
     0
  0
VISUALSTYLE
  5
CED8D
102
{ACAD_REACTORS
330
CED87
102
}
330
CED87
100
AcDbVisualStyle
  2
2dWireframe
 70
     4
 71
     0
 72
     2
 73
     0
 90
        0
 40
-0.6
 41
-30.0
 62
     5
 63
     7
 74
     1
 91
        4
 64
     7
 65
   257
 75
     1
175
     1
 42
1.0
 92
        0
 66
   257
 43
1.0
 76
     1
 77
     6
 78
     2
 67
     7
 79
     5
170
     0
171
     0
290
     0
174
     0
 93
        1
 44
0.0
173
     0
291
     0
 45
0.0
1001
ACAD
1000
AcDbSavedByObjectVersion
1070
     0
1000
AcDbSavedByObjectVersion
1070
     0
  0
VISUALSTYLE
  5
CED8F
102
{ACAD_REACTORS
330
CED87
102
}
330
CED87
100
AcDbVisualStyle
  2
3D Hidden
 70
     6
 71
     1
 72
     2
 73
     2
 90
        0
 40
-0.6
 41
-30.0
 62
     5
 63
     7
 74
     2
 91
        2
 64
     7
 65
   257
 75
     2
175
     1
 42
40.0
 92
        0
 66
   257
 43
1.0
 76
     1
 77
     6
 78
     2
 67
     7
 79
     3
170
     0
171
     0
290
     0
174
     0
 93
        1
 44
0.0
173
     0
291
     0
 45
0.0
1001
ACAD
1000
AcDbSavedByObjectVersion
1070
     0
1000
AcDbSavedByObjectVersion
1070
     0
  0
VISUALSTYLE
  5
CED8E
102
{ACAD_REACTORS
330
CED87
102
}
330
CED87
100
AcDbVisualStyle
  2
3dWireframe
 70
     5
 71
     0
 72
     2
 73
     0
 90
        0
 40
-0.6
 41
-30.0
 62
     5
 63
     7
 74
     1
 91
        4
 64
     7
 65
   257
 75
     1
175
     1
 42
1.0
 92
        0
 66
   257
 43
1.0
 76
     1
 77
     6
 78
     2
 67
     7
 79
     5
170
     0
171
     0
290
     0
174
     0
 93
        1
 44
0.0
173
     0
291
     0
 45
0.0
1001
ACAD
1000
AcDbSavedByObjectVersion
1070
     0
1000
AcDbSavedByObjectVersion
1070
     0
  0
VISUALSTYLE
  5
CED8C
102
{ACAD_REACTORS
330
CED87
102
}
330
CED87
100
AcDbVisualStyle
  2
Basic
 70
     7
 71
     1
 72
     0
 73
     1
 90
        0
 40
-0.6
 41
-30.0
 62
     5
 63
     7
 74
     0
 91
        4
 64
     7
 65
   257
 75
     1
175
     1
 42
1.0
 92
        8
 66
     7
 43
1.0
 76
     1
 77
     6
 78
     2
 67
     7
 79
     5
170
     0
171
     0
290
     0
174
     0
 93
        1
 44
0.0
173
     0
291
     1
 45
0.0
1001
ACAD
1000
AcDbSavedByObjectVersion
1070
     0
1000
AcDbSavedByObjectVersion
1070
     0
  0
VISUALSTYLE
  5
CED93
102
{ACAD_REACTORS
330
CED87
102
}
330
CED87
100
AcDbVisualStyle
  2
Brighten
 70
    12
 71
     2
 72
     2
 73
     0
 90
        0
 40
-0.6
 41
-30.0
 62
     5
 63
     7
 74
     1
 91
        4
 64
     7
 65
   257
 75
     1
175
     1
 42
1.0
 92
        8
 66
     7
 43
1.0
 76
     1
 77
     6
 78
     2
 67
     7
 79
     5
170
     0
171
     0
290
     0
174
     0
 93
        1
 44
50.0
173
     0
291
     1
 45
0.0
1001
ACAD
1000
AcDbSavedByObjectVersion
1070
     0
1000
AcDbSavedByObjectVersion
1070
     0
  0
VISUALSTYLE
  5
CED97
102
{ACAD_REACTORS
330
CED87
102
}
330
CED87
100
AcDbVisualStyle
  2
ColorChange
 70
    16
 71
     2
 72
     2
 73
     3
 90
        0
 40
-0.6
 41
-30.0
 62
     5
 63
     8
 74
     1
 91
        4
 64
     7
 65
   257
 75
     1
175
     1
 42
1.0
 92
        8
 66
     8
 43
1.0
 76
     1
 77
     6
 78
     2
 67
     7
 79
     5
170
     0
171
     0
290
     0
174
     0
 93
        1
 44
0.0
173
     0
291
     1
 45
0.0
1001
ACAD
1000
AcDbSavedByObjectVersion
1070
     0
1000
AcDbSavedByObjectVersion
1070
     0
  0
VISUALSTYLE
  5
CED90
102
{ACAD_REACTORS
330
CED87
102
}
330
CED87
100
AcDbVisualStyle
  2
Conceptual
 70
     9
 71
     3
 72
     2
 73
     0
 90
        0
 40
-0.6
 41
-30.0
 62
     5
 63
     7
 74
     2
 91
        2
 64
     7
 65
   257
 75
     1
175
     1
 42
40.0
 92
        8
 66
     7
 43
1.0
 76
     1
 77
     6
 78
     2
 67
     7
 79
     3
170
     0
171
     0
290
     0
174
     0
 93
        1
 44
0.0
173
     0
291
     0
 45
0.0
1001
ACAD
1000
AcDbSavedByObjectVersion
1070
     0
1000
AcDbSavedByObjectVersion
1070
     0
  0
VISUALSTYLE
  5
CED92
102
{ACAD_REACTORS
330
CED87
102
}
330
CED87
100
AcDbVisualStyle
  2
Dim
 70
    11
 71
     2
 72
     2
 73
     0
 90
        0
 40
-0.6
 41
-30.0
 62
     5
 63
     7
 74
     1
 91
        4
 64
     7
 65
   257
 75
     1
175
     1
 42
1.0
 92
        8
 66
     7
 43
1.0
 76
     1
 77
     6
 78
     2
 67
     7
 79
     5
170
     0
171
     0
290
     0
174
     0
 93
        1
 44
-50.0
173
     0
291
     1
 45
0.0
1001
ACAD
1000
AcDbSavedByObjectVersion
1070
     0
1000
AcDbSavedByObjectVersion
1070
     0
  0
VISUALSTYLE
  5
CED96
102
{ACAD_REACTORS
330
CED87
102
}
330
CED87
100
AcDbVisualStyle
  2
Facepattern
 70
    15
 71
     2
 72
     2
 73
     0
 90
        0
 40
-0.6
 41
-30.0
 62
     5
 63
     7
 74
     1
 91
        4
 64
     7
 65
   257
 75
     1
175
     1
 42
1.0
 92
        8
 66
     7
 43
1.0
 76
     1
 77
     6
 78
     2
 67
     7
 79
     5
170
     0
171
     0
290
     0
174
     0
 93
        1
 44
0.0
173
     0
291
     1
 45
0.0
1001
ACAD
1000
AcDbSavedByObjectVersion
1070
     0
1000
AcDbSavedByObjectVersion
1070
     0
  0
VISUALSTYLE
  5
CED88
102
{ACAD_REACTORS
330
CED87
102
}
330
CED87
100
AcDbVisualStyle
  2
Flat
 70
     0
 71
     2
 72
     1
 73
     1
 90
        2
 40
-0.6
 41
30.0
 62
     5
 63
     7
 74
     0
 91
        4
 64
     7
 65
   257
 75
     1
175
     1
 42
1.0
 92
        8
 66
     7
 43
1.0
 76
     1
 77
     6
 78
     2
 67
     7
 79
     5
170
     0
171
     0
290
     0
174
     0
 93
       13
 44
0.0
173
     0
291
     1
 45
0.0
1001
ACAD
1000
AcDbSavedByObjectVersion
1070
     0
1000
AcDbSavedByObjectVersion
1070
     0
  0
VISUALSTYLE
  5
CED89
102
{ACAD_REACTORS
330
CED87
102
}
330
CED87
100
AcDbVisualStyle
  2
FlatWithEdges
 70
     1
 71
     2
 72
     1
 73
     1
 90
        2
 40
-0.6
 41
30.0
 62
     5
 63
     7
 74
     1
 91
        4
 64
     7
 65
   257
 75
     1
175
     1
 42
1.0
 92
        0
 66
   257
 43
1.0
 76
     1
 77
     6
 78
     2
 67
     7
 79
     5
170
     0
171
     0
290
     0
174
     0
 93
       13
 44
0.0
173
     0
291
     1
 45
0.0
1001
ACAD
1000
AcDbSavedByObjectVersion
1070
     0
1000
AcDbSavedByObjectVersion
1070
     0
  0
VISUALSTYLE
  5
CED8A
102
{ACAD_REACTORS
330
CED87
102
}
330
CED87
100
AcDbVisualStyle
  2
Gouraud
 70
     2
 71
     2
 72
     2
 73
     1
 90
        2
 40
-0.6
 41
30.0
 62
     5
 63
     7
 74
     0
 91
        4
 64
     7
 65
   257
 75
     1
175
     1
 42
1.0
 92
        0
 66
     7
 43
1.0
 76
     1
 77
     6
 78
     2
 67
     7
 79
     5
170
     0
171
     0
290
     0
174
     0
 93
       13
 44
0.0
173
     0
291
     1
 45
0.0
1001
ACAD
1000
AcDbSavedByObjectVersion
1070
     0
1000
AcDbSavedByObjectVersion
1070
     0
  0
VISUALSTYLE
  5
CED8B
102
{ACAD_REACTORS
330
CED87
102
}
330
CED87
100
AcDbVisualStyle
  2
GouraudWithEdges
 70
     3
 71
     2
 72
     2
 73
     1
 90
        2
 40
-0.6
 41
30.0
 62
     5
 63
     7
 74
     1
 91
        4
 64
     7
 65
   257
 75
     1
175
     1
 42
1.0
 92
        0
 66
   257
 43
1.0
 76
     1
 77
     6
 78
     2
 67
     7
 79
     5
170
     0
171
     0
290
     0
174
     0
 93
       13
 44
0.0
173
     0
291
     1
 45
0.0
1001
ACAD
1000
AcDbSavedByObjectVersion
1070
     0
1000
AcDbSavedByObjectVersion
1070
     0
  0
VISUALSTYLE
  5
CED95
102
{ACAD_REACTORS
330
CED87
102
}
330
CED87
100
AcDbVisualStyle
  2
Linepattern
 70
    14
 71
     2
 72
     2
 73
     0
 90
        0
 40
-0.6
 41
-30.0
 62
     5
 63
     7
 74
     1
 91
        4
 64
     7
 65
   257
 75
     7
175
     7
 42
1.0
 92
        8
 66
     7
 43
1.0
 76
     1
 77
     6
 78
     2
 67
     7
 79
     5
170
     0
171
     0
290
     0
174
     0
 93
        1
 44
0.0
173
     0
291
     1
 45
0.0
1001
ACAD
1000
AcDbSavedByObjectVersion
1070
     0
1000
AcDbSavedByObjectVersion
1070
     0
  0
VISUALSTYLE
  5
CED91
102
{ACAD_REACTORS
330
CED87
102
}
330
CED87
100
AcDbVisualStyle
  2
Realistic
 70
     8
 71
     2
 72
     2
 73
     0
 90
        0
 40
-0.6
 41
-30.0
 62
     5
 63
     7
 74
     1
 91
        0
 64
     7
 65
   257
 75
     1
175
     1
 42
1.0
 92
        8
 66
     8
 43
1.0
 76
     1
 77
     6
 78
     2
 67
     7
 79
     5
170
     0
171
     0
290
     0
174
     0
 93
       13
 44
0.0
173
     0
291
     0
 45
0.0
1001
ACAD
1000
AcDbSavedByObjectVersion
1070
     0
1000
AcDbSavedByObjectVersion
1070
     0
  0
VISUALSTYLE
  5
CED94
102
{ACAD_REACTORS
330
CED87
102
}
330
CED87
100
AcDbVisualStyle
  2
Thicken
 70
    13
 71
     2
 72
     2
 73
     0
 90
        0
 40
-0.6
 41
-30.0
 62
     5
 63
     7
 74
     1
 91
        4
 64
     7
 65
   257
 75
     1
175
     1
 42
1.0
 92
       12
 66
     7
 43
1.0
 76
     1
 77
     6
 78
     2
 67
     7
 79
     5
170
     0
171
     0
290
     0
174
     0
 93
        1
 44
0.0
173
     0
291
     1
 45
0.0
1001
ACAD
1000
AcDbSavedByObjectVersion
1070
     0
1000
AcDbSavedByObjectVersion
1070
     0
  0
DICTIONARYVAR
  5
D0C4F
102
{ACAD_REACTORS
330
59
102
}
330
59
100
DictionaryVariables
280
     0
  1
1:1
  0
DICTIONARYVAR
  5
D0C4D
102
{ACAD_REACTORS
330
59
102
}
330
59
100
DictionaryVariables
280
     0
  1
STANDARD
  0
DICTIONARYVAR
  5
100D
102
{ACAD_REACTORS
330
59
102
}
330
59
100
DictionaryVariables
280
     0
  1
STANDARD
  0
DICTIONARYVAR
  5
5A
102
{ACAD_REACTORS
330
59
102
}
330
59
100
DictionaryVariables
280
     0
  1
2
  0
DICTIONARYVAR
  5
5E
102
{ACAD_REACTORS
330
59
102
}
330
59
100
DictionaryVariables
280
     0
  1
1
  0
DICTIONARYVAR
  5
D7EF0
102
{ACAD_REACTORS
330
59
102
}
330
59
100
DictionaryVariables
280
     0
  1
0
  0
DICTIONARYVAR
  5
D0C50
102
{ACAD_REACTORS
330
59
102
}
330
59
100
DictionaryVariables
280
     0
  1
0
  0
DICTIONARYVAR
  5
D0C4E
102
{ACAD_REACTORS
330
59
102
}
330
59
100
DictionaryVariables
280
     0
  1
0
  0
DICTIONARYVAR
  5
D7EEF
102
{ACAD_REACTORS
330
59
102
}
330
59
100
DictionaryVariables
280
     0
  1
127
  0
XRECORD
  5
C2669
102
{ACAD_REACTORS
330
C2668
102
}
330
C2668
100
AcDbXrecord
280
     1
330
0
330
0
330
0
330
0
330
0
330
0
330
0
330
0
330
0
330
0
330
0
330
0
330
0
330
0
330
0
330
0
330
0
330
0
330
0
330
0
330
0
330
0
330
0
330
0
330
0
330
0
330
0
330
0
330
0
330
0
330
0
330
0
330
0
  0
VLO-VL
  5
A9D17
102
{ACAD_REACTORS
330
A9D16
102
}
330
A9D16
100
vlo_VL
 90
   -64512
 91
       12
 92
        1
 40
2.5
300
(&VLO-R . 0)
  0
DICTIONARY
  5
D7F26
330
22
100
AcDbDictionary
280
     1
281
     1
  3
ACAD_XREC_ROUNDTRIP
360
D7F27
  0
DICTIONARY
  5
D7F28
330
74
100
AcDbDictionary
280
     1
281
     1
  3
ACAD_XREC_ROUNDTRIP
360
D7F29
  0
DICTIONARY
  5
D7F2A
330
79
100
AcDbDictionary
280
     1
281
     1
  3
ACAD_XREC_ROUNDTRIP
360
D7F2B
  0
DICTIONARY
  5
CED78
330
CED77
100
AcDbDictionary
280
     1
281
     1
  3
ACAD_XREC_ROUNDTRIP
360
D7F0B
  3
BUMPTILE
360
CED7A
  3
DIFFUSETILE
360
CED79
  3
OPACITYTILE
360
CED7D
  3
REFLECTIONTILE
360
CED7C
  3
REFRACTIONTILE
360
CED7E
  3
SPECULARTILE
360
CED7B
  0
DICTIONARY
  5
CED70
330
CED6F
100
AcDbDictionary
280
     1
281
     1
  3
ACAD_XREC_ROUNDTRIP
360
D7F0A
  3
BUMPTILE
360
CED72
  3
DIFFUSETILE
360
CED71
  3
OPACITYTILE
360
CED75
  3
REFLECTIONTILE
360
CED74
  3
REFRACTIONTILE
360
CED76
  3
SPECULARTILE
360
CED73
  0
DICTIONARY
  5
CED80
330
CED7F
100
AcDbDictionary
280
     1
281
     1
  3
ACAD_XREC_ROUNDTRIP
360
D7F0C
  3
BUMPTILE
360
CED82
  3
DIFFUSETILE
360
CED81
  3
OPACITYTILE
360
CED85
  3
REFLECTIONTILE
360
CED84
  3
REFRACTIONTILE
360
CED86
  3
SPECULARTILE
360
CED83
  0
DICTIONARY
  5
D0C45
330
FB0
100
AcDbDictionary
280
     1
281
     1
  3
ACAD_ROUNDTRIP_2008_TABLESTYLE_CELLSTYLEMAP
360
D7F1C
  3
ACAD_XREC_ROUNDTRIP
360
D7F2C
  0
XRECORD
  5
D7F27
102
{ACAD_REACTORS
330
D7F26
102
}
330
D7F26
100
AcDbXrecord
280
     1
102
SHADEPLOT
 70
     0
102
SHADEPLOTRESLEVEL
 70
     2
102
SHADEPLOTCUSTOMDPI
 70
   300
  0
XRECORD
  5
D7F29
102
{ACAD_REACTORS
330
D7F28
102
}
330
D7F28
100
AcDbXrecord
280
     1
102
SHADEPLOT
 70
     0
102
SHADEPLOTRESLEVEL
 70
     2
102
SHADEPLOTCUSTOMDPI
 70
   300
  0
XRECORD
  5
D7F2B
102
{ACAD_REACTORS
330
D7F2A
102
}
330
D7F2A
100
AcDbXrecord
280
     1
102
SHADEPLOT
 70
     0
102
SHADEPLOTRESLEVEL
 70
     2
102
SHADEPLOTCUSTOMDPI
 70
   300
  0
XRECORD
  5
D7F0B
102
{ACAD_REACTORS
330
CED78
102
}
330
CED78
100
AcDbXrecord
280
     1
102
MATERIAL
148
0.0
149
0.0
149
0.0
 93
        0
 94
      127
282
     0
 72
     0
 77
     0
171
     0
175
     0
179
     0
273
     0
  0
XRECORD
  5
CED7A
102
{ACAD_REACTORS
330
CED78
102
}
330
CED78
100
AcDbXrecord
280
     1
270
     1
271
     1
  0
XRECORD
  5
CED79
102
{ACAD_REACTORS
330
CED78
102
}
330
CED78
100
AcDbXrecord
280
     1
270
     1
271
     1
  0
XRECORD
  5
CED7D
102
{ACAD_REACTORS
330
CED78
102
}
330
CED78
100
AcDbXrecord
280
     1
270
     1
271
     1
  0
XRECORD
  5
CED7C
102
{ACAD_REACTORS
330
CED78
102
}
330
CED78
100
AcDbXrecord
280
     1
270
     1
271
     1
  0
XRECORD
  5
CED7E
102
{ACAD_REACTORS
330
CED78
102
}
330
CED78
100
AcDbXrecord
280
     1
270
     1
271
     1
  0
XRECORD
  5
CED7B
102
{ACAD_REACTORS
330
CED78
102
}
330
CED78
100
AcDbXrecord
280
     1
270
     1
271
     1
  0
XRECORD
  5
D7F0A
102
{ACAD_REACTORS
330
CED70
102
}
330
CED70
100
AcDbXrecord
280
     1
102
MATERIAL
148
0.0
149
0.0
149
0.0
 93
        0
 94
      127
282
     0
 72
     0
 77
     0
171
     0
175
     0
179
     0
273
     0
  0
XRECORD
  5
CED72
102
{ACAD_REACTORS
330
CED70
102
}
330
CED70
100
AcDbXrecord
280
     1
270
     1
271
     1
  0
XRECORD
  5
CED71
102
{ACAD_REACTORS
330
CED70
102
}
330
CED70
100
AcDbXrecord
280
     1
270
     1
271
     1
  0
XRECORD
  5
CED75
102
{ACAD_REACTORS
330
CED70
102
}
330
CED70
100
AcDbXrecord
280
     1
270
     1
271
     1
  0
XRECORD
  5
CED74
102
{ACAD_REACTORS
330
CED70
102
}
330
CED70
100
AcDbXrecord
280
     1
270
     1
271
     1
  0
XRECORD
  5
CED76
102
{ACAD_REACTORS
330
CED70
102
}
330
CED70
100
AcDbXrecord
280
     1
270
     1
271
     1
  0
XRECORD
  5
CED73
102
{ACAD_REACTORS
330
CED70
102
}
330
CED70
100
AcDbXrecord
280
     1
270
     1
271
     1
  0
XRECORD
  5
D7F0C
102
{ACAD_REACTORS
330
CED80
102
}
330
CED80
100
AcDbXrecord
280
     1
102
MATERIAL
148
0.0
149
0.0
149
0.0
 93
        0
 94
      127
282
     0
 72
     0
 77
     0
171
     0
175
     0
179
     0
273
     0
  0
XRECORD
  5
CED82
102
{ACAD_REACTORS
330
CED80
102
}
330
CED80
100
AcDbXrecord
280
     1
270
     1
271
     1
  0
XRECORD
  5
CED81
102
{ACAD_REACTORS
330
CED80
102
}
330
CED80
100
AcDbXrecord
280
     1
270
     1
271
     1
  0
XRECORD
  5
CED85
102
{ACAD_REACTORS
330
CED80
102
}
330
CED80
100
AcDbXrecord
280
     1
270
     1
271
     1
  0
XRECORD
  5
CED84
102
{ACAD_REACTORS
330
CED80
102
}
330
CED80
100
AcDbXrecord
280
     1
270
     1
271
     1
  0
XRECORD
  5
CED86
102
{ACAD_REACTORS
330
CED80
102
}
330
CED80
100
AcDbXrecord
280
     1
270
     1
271
     1
  0
XRECORD
  5
CED83
102
{ACAD_REACTORS
330
CED80
102
}
330
CED80
100
AcDbXrecord
280
     1
270
     1
271
     1
  0
CELLSTYLEMAP
  5
D7F1C
102
{ACAD_REACTORS
330
D0C45
102
}
330
D0C45
100
AcDbCellStyleMap
 90
        3
300
CELLSTYLE
  1
TABLEFORMAT_BEGIN
 90
        5
170
     1
 91
        0
 92
    32768
 62
   257
 93
        1
300
CONTENTFORMAT
  1
CONTENTFORMAT_BEGIN
 90
        0
 91
        0
 92
        4
 93
        0
300

 40
0.0
140
1.0
 94
        5
 62
     0
340
11
144
0.25
309
CONTENTFORMAT_END
171
     1
301
MARGIN
  1
CELLMARGIN_BEGIN
 40
0.06
 40
0.06
 40
0.06
 40
0.06
 40
0.18
 40
0.18
309
CELLMARGIN_END
 94
        6
 95
        1
302
GRIDFORMAT
  1
GRIDFORMAT_BEGIN
 90
        0
 91
        1
 62
     0
 92
       -2
340
0
 93
        0
 40
0.045
309
GRIDFORMAT_END
 95
        2
302
GRIDFORMAT
  1
GRIDFORMAT_BEGIN
 90
        0
 91
        1
 62
     0
 92
       -2
340
0
 93
        0
 40
0.045
309
GRIDFORMAT_END
 95
        4
302
GRIDFORMAT
  1
GRIDFORMAT_BEGIN
 90
        0
 91
        1
 62
     0
 92
       -2
340
0
 93
        0
 40
0.045
309
GRIDFORMAT_END
 95
        8
302
GRIDFORMAT
  1
GRIDFORMAT_BEGIN
 90
        0
 91
        1
 62
     0
 92
       -2
340
0
 93
        0
 40
0.045
309
GRIDFORMAT_END
 95
       16
302
GRIDFORMAT
  1
GRIDFORMAT_BEGIN
 90
        0
 91
        1
 62
     0
 92
       -2
340
0
 93
        0
 40
0.045
309
GRIDFORMAT_END
 95
       32
302
GRIDFORMAT
  1
GRIDFORMAT_BEGIN
 90
        0
 91
        1
 62
     0
 92
       -2
340
0
 93
        0
 40
0.045
309
GRIDFORMAT_END
309
TABLEFORMAT_END
  1
CELLSTYLE_BEGIN
 90
        1
 91
        1
300
_TITLE
309
CELLSTYLE_END
300
CELLSTYLE
  1
TABLEFORMAT_BEGIN
 90
        5
170
     1
 91
        0
 92
        0
 62
   257
 93
        1
300
CONTENTFORMAT
  1
CONTENTFORMAT_BEGIN
 90
        0
 91
        0
 92
        4
 93
        0
300

 40
0.0
140
1.0
 94
        5
 62
     0
340
11
144
0.18
309
CONTENTFORMAT_END
171
     1
301
MARGIN
  1
CELLMARGIN_BEGIN
 40
0.06
 40
0.06
 40
0.06
 40
0.06
 40
0.18
 40
0.18
309
CELLMARGIN_END
 94
        6
 95
        1
302
GRIDFORMAT
  1
GRIDFORMAT_BEGIN
 90
        0
 91
        1
 62
     0
 92
       -2
340
0
 93
        0
 40
0.045
309
GRIDFORMAT_END
 95
        2
302
GRIDFORMAT
  1
GRIDFORMAT_BEGIN
 90
        0
 91
        1
 62
     0
 92
       -2
340
0
 93
        0
 40
0.045
309
GRIDFORMAT_END
 95
        4
302
GRIDFORMAT
  1
GRIDFORMAT_BEGIN
 90
        0
 91
        1
 62
     0
 92
       -2
340
0
 93
        0
 40
0.045
309
GRIDFORMAT_END
 95
        8
302
GRIDFORMAT
  1
GRIDFORMAT_BEGIN
 90
        0
 91
        1
 62
     0
 92
       -2
340
0
 93
        0
 40
0.045
309
GRIDFORMAT_END
 95
       16
302
GRIDFORMAT
  1
GRIDFORMAT_BEGIN
 90
        0
 91
        1
 62
     0
 92
       -2
340
0
 93
        0
 40
0.045
309
GRIDFORMAT_END
 95
       32
302
GRIDFORMAT
  1
GRIDFORMAT_BEGIN
 90
        0
 91
        1
 62
     0
 92
       -2
340
0
 93
        0
 40
0.045
309
GRIDFORMAT_END
309
TABLEFORMAT_END
  1
CELLSTYLE_BEGIN
 90
        2
 91
        1
300
_HEADER
309
CELLSTYLE_END
300
CELLSTYLE
  1
TABLEFORMAT_BEGIN
 90
        5
170
     1
 91
        0
 92
        0
 62
   257
 93
        1
300
CONTENTFORMAT
  1
CONTENTFORMAT_BEGIN
 90
        0
 91
        0
 92
        4
 93
        0
300

 40
0.0
140
1.0
 94
        2
 62
     0
340
11
144
0.18
309
CONTENTFORMAT_END
171
     1
301
MARGIN
  1
CELLMARGIN_BEGIN
 40
0.06
 40
0.06
 40
0.06
 40
0.06
 40
0.18
 40
0.18
309
CELLMARGIN_END
 94
        6
 95
        1
302
GRIDFORMAT
  1
GRIDFORMAT_BEGIN
 90
        0
 91
        1
 62
     0
 92
       -2
340
0
 93
        0
 40
0.045
309
GRIDFORMAT_END
 95
        2
302
GRIDFORMAT
  1
GRIDFORMAT_BEGIN
 90
        0
 91
        1
 62
     0
 92
       -2
340
0
 93
        0
 40
0.045
309
GRIDFORMAT_END
 95
        4
302
GRIDFORMAT
  1
GRIDFORMAT_BEGIN
 90
        0
 91
        1
 62
     0
 92
       -2
340
0
 93
        0
 40
0.045
309
GRIDFORMAT_END
 95
        8
302
GRIDFORMAT
  1
GRIDFORMAT_BEGIN
 90
        0
 91
        1
 62
     0
 92
       -2
340
0
 93
        0
 40
0.045
309
GRIDFORMAT_END
 95
       16
302
GRIDFORMAT
  1
GRIDFORMAT_BEGIN
 90
        0
 91
        1
 62
     0
 92
       -2
340
0
 93
        0
 40
0.045
309
GRIDFORMAT_END
 95
       32
302
GRIDFORMAT
  1
GRIDFORMAT_BEGIN
 90
        0
 91
        1
 62
     0
 92
       -2
340
0
 93
        0
 40
0.045
309
GRIDFORMAT_END
309
TABLEFORMAT_END
  1
CELLSTYLE_BEGIN
 90
        3
 91
        2
300
_DATA
309
CELLSTYLE_END
  0
XRECORD
  5
D7F2C
102
{ACAD_REACTORS
330
D0C45
102
}
330
D0C45
100
AcDbXrecord
280
     1
102
ACAD_ROUNDTRIP_PRE2007_TABLESTYLE
 90
        4
 91
        0
  1

 92
        4
 93
        0
  2

 94
        4
 95
        0
  3

  0
ENDSEC
  0
EOF
